#VERSION:0.83;
#TITLE:Mahalageasca;
#SUBTITLE:(Felix B. Jazzhouse Dub);
#ARTIST:Mahala Rai Banda;
#TITLETRANSLIT:;
#SUBTITLETRANSLIT:;
#ARTISTTRANSLIT:;
#GENRE:;
#ORIGIN:;
#TAGS:;
#CREDIT:;
#BANNER:Mahalageasca (Felix B Jazzhouse Dub).png;
#BACKGROUND:Mahalageasca (Felix B Jazzhouse Dub)-bg.png;
#PREVIEWVID:;
#JACKET:Mahalageasca (Felix B Jazzhouse Dub)-jacket.png;
#CDIMAGE:Mahalageasca (Felix B Jazzhouse Dub)-jacket2.png;
#DISCIMAGE:;
#LYRICSPATH:;
#CDTITLE:cdtitle.png;
#MUSIC:Mahalageasca (Felix B Jazzhouse Dub).ogg;
#OFFSET:-1.950000;
#SAMPLESTART:69.099998;
#SAMPLELENGTH:15.000000;
#SELECTABLE:YES;
#DISPLAYBPM:125.000000;
#BPMS:0.000000=124.999992
;
#STOPS:;
#DELAYS:;
#WARPS:;
#TIMESIGNATURES:0.000000=4=4
;
#TICKCOUNTS:0.000000=4
;
#COMBOS:0.000000=1
;
#SPEEDS:0.000000=1.000000=0.000000=0
;
#SCROLLS:0.000000=1.000000
;
#LABELS:0.000000=Song Start
;
#BGCHANGES:28.000=text27.mp4=1.000=1=0=1===CrossFade==,
36.000=text7.mp4=1.000=0=0=1=====,
44.000=text27.mp4=1.000=0=0=1=====,
52.000=text7.mp4=1.000=0=0=1=====,
60.000=text28.mp4=1.000=0=0=1=====,
68.000=text26.mp4=1.000=0=0=1=====,
76.000=tunnel2.mp4=1.000=0=0=1=====,
92.000=egg2.mp4=1.000=0=0=1=====,
104.000=egg5.mp4=1.000=0=0=1=====,
108.000=lava1.mp4=1.000=0=0=1=====,
116.000=blackhole1.mp4=1.000=0=0=1=====,
124.000=cube7.mp4=1.000=0=0=1=====,
132.000=ring8.mp4=1.000=0=0=1=====,
140.000=cube5.mp4=1.000=0=0=1=====,
148.000=text27.mp4=1.000=0=1=1=StretchRewind====,
156.000=cube5.mp4=1.000=0=1=1=StretchRewind====,
164.000=blackhole1.mp4=1.000=0=1=1=StretchRewind====,
172.000=kaliedoscope2.mp4=1.000=0=0=1=====,
180.000=kaliedoscope3.mp4=1.000=0=0=1=====,
188.000=kaliedoscope2.mp4=1.000=0=0=1=====,
196.000=kaliedoscope3.mp4=1.000=0=0=1=====,
200.000=egg5.mp4=1.000=0=1=1=StretchRewind====,
204.000=lava1.mp4=1.000=0=1=1=StretchRewind====,
212.000=blackhole1.mp4=1.000=0=1=1=StretchRewind====,
220.000=cube7.mp4=1.000=0=1=1=StretchRewind====,
228.000=ring8.mp4=1.000=0=1=1=StretchRewind====,
236.000=text27.mp4=1.000=0=1=1=StretchRewind====,
244.000=text7.mp4=1.000=0=1=1=StretchRewind====,
252.000=text28.mp4=1.000=0=1=1=StretchRewind====,
260.000=text26.mp4=1.000=0=1=1=StretchRewind====,
268.000=egg2.mp4=1.000=0=1=1=StretchRewind====,
276.000=Mahalageasca (Felix B Jazzhouse Dub)-bg.png=1.000=0=0=1=====,
99999=-nosongbg-=1.000=0=0=0 // don't automatically add -songbackground-
;
#KEYSOUNDS:;
#ATTACKS:
;

//---------------dance-single - ----------------
#NOTEDATA:;
#CHARTNAME:;
#CHARTHASH:1058635776;
#STEPSTYPE:dance-single;
#BANNER:;
#DESCRIPTION:;
#CHARTSTYLE:;
#DIFFICULTY:Beginner;
#METER:3;
#METERF:3.000000;
#LASTSECONDHINT:136.350006;
#RADARVALUES:0.134694,0.175000,0.007143,0.014286,0.000000,132.000000,131.000000,1.000000,2.000000,0.000000,0.000000,0.000000,0.000000,0.000000,0.134694,0.175000,0.007143,0.014286,0.000000,132.000000,131.000000,1.000000,2.000000,0.000000,0.000000,0.000000,0.000000,0.000000;
#CREDIT:;
#DISPLAYBPM:125.000000;
#NOTES:
0000
0000
0000
0000
,
0000
0000
0000
0000
,
0000
0000
0000
0000
,
1000
0000
1000
0000
,
1000
0000
0001
0000
,
0001
0000
0001
0000
,
0100
0000
0100
0000
,
0100
0100
0000
0100
,
0000
0010
0000
0010
,
0010
0000
0010
0000
,
0010
0000
0000
0000
,
1000
1000
0000
1000
,
0000
0001
0000
0001
,
0001
0000
0001
0000
,
0001
0000
0000
0000
,
0100
0000
0010
0000
,
1000
0000
0010
0000
,
0100
0000
0001
0000
,
0010
0000
0001
0000
,
1000
0000
1000
0000
,
1000
0000
0000
0000
,
0010
0000
0010
0000
,
0010
0000
0000
0000
,
0100
0000
0100
0000
,
0100
0000
0000
0000
,
0001
0000
0001
0000
,
0001
0000
0000
0000
,
1000
0010
1000
0000
,
0010
0000
0010
0000
,
0100
0001
0100
0000
,
0001
0000
0001
0000
,
1000
0001
1000
0000
,
0010
0000
0010
0000
,
1000
0100
0001
0000
,
0100
0000
1000
0000
,
0010
0000
0010
0000
,
0010
0000
0000
0000
,
1000
0000
1000
0000
,
1000
0000
0000
0000
,
0001
0000
0001
0000
,
0001
0000
0000
0000
,
0100
0000
0100
0000
,
0100
0000
0000
0000
,
0010
0000
0010
0000
,
0010
0000
0000
0000
,
1000
0000
1000
0000
,
1000
0000
0000
0000
,
0001
0000
0001
0000
,
0001
0000
0000
0000
,
0100
0000
0100
0000
,
0100
0000
0000
0000
,
0010
0000
0010
0000
,
0010
0000
0000
0000
,
1000
1000
1000
0000
,
1000
1000
1000
0000
,
0001
0000
0001
0000
,
0001
0000
0000
0000
,
0100
0100
0100
0000
,
0100
0100
0100
0000
,
0001
1000
0001
0000
,
1000
0001
1000
0000
,
0010
0000
0010
0000
,
1000
0000
1000
0000
,
0100
1000
0100
0000
,
1000
0001
1000
0000
,
0001
0000
0001
0000
,
1000
0000
1000
0000
,
0010
0000
0100
0000
,
0001
0000
1000
0000
,
2002
0000
0000
0000
,
3003
0000
0000
0000
;

//---------------dance-single - ----------------
#NOTEDATA:;
#CHARTNAME:;
#CHARTHASH:1058603008;
#STEPSTYPE:dance-single;
#BANNER:;
#DESCRIPTION:;
#CHARTSTYLE:;
#DIFFICULTY:Easy;
#METER:6;
#METERF:6.000000;
#LASTSECONDHINT:136.350006;
#RADARVALUES:0.264286,0.300000,0.207143,0.171429,0.000000,259.000000,230.000000,29.000000,24.000000,0.000000,0.000000,0.000000,0.000000,0.000000,0.264286,0.300000,0.207143,0.171429,0.000000,259.000000,230.000000,29.000000,24.000000,0.000000,0.000000,0.000000,0.000000,0.000000;
#CREDIT:;
#DISPLAYBPM:125.000000;
#NOTES:
0000
0000
0000
0000
,
0000
0000
0000
0000
,
0000
0000
0000
0000
,
1000
1000
1000
1000
,
0101
0001
0001
0001
,
1010
0010
0010
0010
,
1001
0100
0100
0100
,
1001
0000
0010
0000
1000
0000
0010
1000
,
0000
0001
0101
1000
,
1010
0010
0100
0001
,
0100
0010
1000
0020
,
1030
0000
1001
0000
0001
0000
0010
0001
,
0000
0100
0101
1000
,
1001
0001
0100
0001
,
1000
0010
1000
0200
,
1300
1000
0010
0010
,
0100
0100
0001
1001
,
0010
0010
0100
0100
,
0001
0001
1000
2000
,
3002
0000
0000
1003
0100
0000
1000
0000
,
0020
0000
0000
0130
0001
0000
1000
0000
,
0001
0000
0001
0000
,
1000
0000
0010
1000
,
0200
0000
0000
1300
0010
0000
0100
0000
,
0002
0000
0000
1003
0001
0000
0010
0000
,
0001
0000
0100
0000
,
0001
1000
0100
0010
,
1001
0100
1001
0010
,
2001
0000
0100
0000
,
3100
1000
0100
0001
,
0100
1000
0010
0100
,
1001
0010
1001
0100
,
1002
0000
0010
0000
,
0013
0001
1000
0100
,
0010
0001
0010
1000
,
0012
0000
0000
1003
0001
0000
0100
0000
,
0120
0000
1000
0000
,
1030
0010
0100
0001
,
0010
0100
1000
0001
,
2010
0000
0000
3001
0100
0000
0001
0000
,
2001
0000
3002
0000
,
1003
0010
0100
0001
,
0010
0100
1000
0001
,
1000
0000
0010
0000
1000
0100
0000
0000
,
1001
0010
0001
0000
,
0100
0000
0001
0000
0010
0001
0000
0000
,
1001
0010
2000
0000
,
3100
0000
1000
0000
0001
1000
0000
0000
,
1001
0010
0100
0000
,
1000
0001
0020
0000
,
0031
0101
1000
1010
,
0010
0000
0010
0000
,
0010
1000
0100
0001
,
0100
0000
0100
0000
,
0100
1000
0100
0010
,
0100
0000
0100
0000
,
0100
1000
0001
1000
,
0010
0100
0010
0001
,
0010
1000
0010
1001
,
0200
0000
1000
0000
,
1000
0000
2300
0000
,
3001
1000
0010
0100
,
0002
0010
0000
0010
,
0023
0001
0000
0031
,
0001
1000
0100
0010
,
0100
1100
1000
1001
,
0020
0000
0032
0000
,
1003
0000
0001
0000
,
1000
0000
0010
0000
,
2002
0000
0000
0000
,
3003
0000
0000
0000
;

//---------------dance-single - ----------------
#NOTEDATA:;
#CHARTNAME:;
#CHARTHASH:1057095680;
#STEPSTYPE:dance-single;
#BANNER:;
#DESCRIPTION:;
#CHARTSTYLE:;
#DIFFICULTY:Medium;
#METER:10;
#METERF:10.000000;
#LASTSECONDHINT:136.350006;
#RADARVALUES:0.407143,0.375000,0.221429,0.057143,0.085714,399.000000,368.000000,31.000000,8.000000,0.000000,0.000000,0.000000,0.000000,0.000000,0.407143,0.375000,0.221429,0.057143,0.085714,399.000000,368.000000,31.000000,8.000000,0.000000,0.000000,0.000000,0.000000,0.000000;
#CREDIT:;
#DISPLAYBPM:125.000000;
#NOTES:
0000
0000
0000
0000
,
0000
0000
0000
0000
,
0000
0000
0000
0000
,
1000
0000
1000
0000
1000
0000
1000
0001
,
0010
0000
0010
0000
0010
0000
0010
0100
,
1000
0000
1000
0000
1000
0000
1000
0100
,
0001
0000
0001
0000
0001
0000
0001
0100
,
0000
1000
0100
1000
0000
0001
0100
0001
,
0000
1000
1000
1000
0000
0010
0010
0010
,
1000
1100
0001
0101
,
1000
0000
1001
0000
0001
0000
1001
0001
,
0100
0010
1000
0010
0000
0100
0001
0100
,
0000
0001
0001
0001
0000
1000
1000
1000
,
0001
0011
1000
1010
,
0010
0000
0110
0000
0100
0000
0110
0010
,
1000
0100
0010
1000
,
0010
0000
0001
0000
0100
0000
0010
1000
,
1001
0001
0100
1000
,
0001
0000
0010
0000
0100
0000
0001
0100
,
0110
0010
0000
1000
0000
0010
0000
1000
,
0000
1001
0000
0001
0000
1001
0000
1000
,
0010
1000
0010
0000
0100
0001
0100
0000
,
0001
1000
0100
0010
0100
1000
0001
1000
,
0000
0100
0000
1000
0000
0010
0000
0100
,
0000
1001
0000
0100
0000
1001
0000
0010
,
0001
0100
0001
0000
1000
0010
1000
0000
,
0001
0100
1000
0100
0001
0010
0100
0010
,
0001
1010
0100
0101
,
0001
1000
0100
0100
1000
0000
1001
0000
,
1000
0110
0001
0110
,
1000
0010
0001
0010
1000
0100
0010
0000
,
0001
0011
1000
1100
,
1000
0100
1000
0000
0010
0100
0001
0001
,
1000
0000
0001
0010
0100
0000
0100
0010
,
0001
0000
1000
0100
0001
0000
0001
0100
,
1000
0000
0000
0010
0000
0000
1000
0000
0100
0000
0000
0000
1001
0000
0000
0000
,
0001
0000
0000
0010
0000
0000
0001
0000
0100
0000
0000
0001
0000
0000
1000
0000
,
0001
1000
0100
0000
1000
0001
0100
0000
,
0010
0000
0000
1000
0000
0010
0000
0000
1000
0000
0000
0000
0010
0000
0100
0000
,
0001
0000
0000
1000
0000
0000
0010
0000
0100
0000
0000
0000
1001
0000
0000
0000
,
0001
0000
0000
1000
0000
0000
0100
0000
0010
0000
0000
0001
0000
0000
0001
0000
,
1000
0000
0001
0100
1000
0000
1000
0100
,
0001
0000
1000
0100
0010
0100
1000
0001
,
0010
0000
0000
0010
0001
0000
0000
0000
1000
0000
0100
0000
0000
0000
0100
0000
,
1000
0000
0010
0000
0100
0001
0100
0010
,
1000
0000
0000
1000
0001
0000
0000
0000
0001
0000
1000
0000
0000
0000
1000
0000
,
0010
0000
0100
0000
0001
0010
0100
1000
,
0001
0000
0000
0001
0100
0000
0000
0000
0010
0000
0100
0000
0000
0000
0010
0000
,
0001
0000
1000
0000
0010
1000
0100
0010
,
0001
0000
0000
1000
0100
0000
0000
0000
0001
0000
0100
0000
0000
0000
1000
0000
,
0001
0000
1000
0100
0010
0100
1000
0001
,
0010
0001
1000
0100
,
1000
0100
0001
0100
1000
0010
1000
0000
,
0001
1001
1000
1001
,
0001
0000
0000
0100
0000
0010
0000
0000
1000
0000
0000
0000
0010
0000
0100
0000
,
0001
0010
1000
0010
,
0001
0000
0000
1000
0000
0000
0010
0000
0100
0000
0000
0001
0000
0000
1000
0000
,
0100
0000
1000
0100
0010
0100
1000
0001
,
0010
0000
0000
0001
0000
0100
0000
0000
0001
0000
0000
0000
1000
0000
0010
0000
,
0100
0000
0000
0100
0002
0000
0000
0000
1000
0000
1000
0000
1003
0000
0000
0000
,
0001
0000
0000
1000
0020
0000
0000
0000
0100
0000
0100
0000
0130
0000
0000
0000
,
1000
0010
0001
0000
0001
0010
1000
0000
,
1000
0100
0010
0100
1000
0001
0100
0000
,
0100
0000
0000
0001
2000
0000
0000
0000
0100
0000
0100
0000
3100
0000
0000
0000
,
1000
0000
0000
0010
2000
0000
0000
0000
0001
0000
0001
0000
3001
0000
0000
0000
,
1000
0100
0001
0000
0001
0100
1000
0000
,
1001
0010
1001
0100
,
2001
0000
0000
0100
0000
0000
3100
0000
1000
0000
0000
0000
0110
0000
0000
0000
,
0102
0000
0000
0100
0000
0000
0103
0000
0010
0000
0000
0000
0100
0000
0000
0000
,
2002
0000
0000
0000
,
3003
0000
0000
0000
;

//---------------dance-single - ----------------
#NOTEDATA:;
#CHARTNAME:;
#CHARTHASH:1060700160;
#STEPSTYPE:dance-single;
#BANNER:;
#DESCRIPTION:;
#CHARTSTYLE:;
#DIFFICULTY:Hard;
#METER:13;
#METERF:13.000000;
#LASTSECONDHINT:136.350006;
#RADARVALUES:0.503061,0.525000,0.178571,0.121429,0.464286,493.000000,468.000000,25.000000,17.000000,0.000000,0.000000,0.000000,0.000000,0.000000,0.503061,0.525000,0.178571,0.121429,0.464286,493.000000,468.000000,25.000000,17.000000,0.000000,0.000000,0.000000,0.000000,0.000000;
#CREDIT:;
#DISPLAYBPM:125.000000;
#NOTES:
0000
0000
0000
0000
,
0000
0000
0000
0000
,
0000
0000
0000
0000
,
1000
0000
1000
0000
1000
0000
1000
0100
,
0010
0000
0010
0000
0010
0000
0010
0001
,
1000
0000
1000
0000
1000
0000
1000
0001
,
0100
0000
0100
0000
0100
0000
0100
0010
,
0000
1000
0010
1000
0000
0001
0100
0001
,
0000
1000
0001
0000
0010
0000
0001
0000
0000
0010
1000
0000
0010
0000
0001
0000
,
0000
0100
0001
0000
0100
0000
0010
0000
0000
0010
0100
0000
0010
0000
1000
0000
,
0000
1000
0001
0000
0100
0000
1000
0000
0000
1000
0100
0000
0010
0000
1000
0000
,
0100
0000
1100
0000
1000
0001
0010
0000
,
0001
0000
0100
0000
0010
0000
1000
0000
0000
1000
0001
0000
0010
0000
0001
0000
,
0000
0001
1000
0000
0100
0000
0010
0000
0000
0010
0100
0000
0010
0000
0001
0000
,
0000
0001
0100
0000
0010
0000
1000
0000
0000
1000
0100
0000
0001
0000
0100
0000
,
1000
0000
1001
0000
0001
1000
0010
0000
,
1010
0000
0000
0000
1000
0000
0000
0000
1001
0000
0000
0001
0100
0000
0001
0000
,
1001
0000
0000
0000
1000
0000
0000
0000
1010
0000
0000
0010
0100
0000
0001
0000
,
0100
0000
0000
0000
0110
0000
0000
0000
0010
0000
0000
0010
1000
0000
0001
0000
,
0100
0000
0000
0100
0000
0000
0010
0000
1000
0000
0000
0010
0000
0000
1000
0000
,
0100
0000
1000
0001
0000
0000
0010
0000
0001
0000
0000
0010
0000
0000
0001
0000
,
0100
1000
0100
0001
0010
0001
1000
0100
,
1000
0000
0000
0001
0000
0100
0000
0001
1000
0000
0000
0010
0000
1000
0000
0100
,
1000
0000
0000
0100
0000
0000
0010
0000
0100
0000
0000
0010
0000
0000
0100
0000
,
1000
0000
0001
1000
0000
0000
0010
0000
1000
0000
0000
0100
0000
0000
0010
0000
,
0001
1000
0100
0010
0100
1000
0001
0010
,
0100
1000
0100
1000
0000
0100
0000
1000
0001
0000
0000
0010
0000
0001
0000
0100
,
0001
0000
0000
0001
1000
0000
0100
0000
1200
0000
0000
0000
0001
0000
0000
0000
,
1300
0000
0000
1000
0001
0000
0010
0000
0001
0000
1000
0001
1000
0000
0001
0000
,
0011
0000
0000
0001
1000
0000
0100
0000
0001
0000
0000
0100
1000
0000
0010
0000
,
0100
0000
0000
0010
0000
1000
0000
0010
1000
0000
0000
0001
0000
0100
0000
0001
,
1000
0000
0000
1000
0001
0000
0010
0000
0021
0000
0000
0000
1000
0000
0000
0000
,
0031
0000
0000
0001
0100
0000
0001
0000
1000
0000
0100
0010
0100
0000
1000
0000
,
1010
0000
0000
0010
0100
0000
0001
0000
1000
0000
0000
0001
0100
0000
0001
0000
,
1000
0001
1000
0001
0000
0010
0000
0001
1000
0000
0000
0010
0000
1000
0000
0100
,
2000
0010
0100
0010
,
3001
1000
0100
0010
0001
0010
0100
1000
,
0010
0000
0000
1000
0001
0000
0010
0000
0010
0000
0000
0001
1000
0000
0100
0000
,
0100
0000
0000
1000
0000
0010
0000
0100
0001
0000
0000
0010
0000
0010
0000
0001
,
0200
1000
0010
1000
,
0302
0000
0000
1000
0000
0000
1000
0000
2003
0000
0000
0010
0000
0000
0010
0000
,
3010
1000
0100
0001
0100
1000
0010
0100
,
0001
0101
0000
1010
0000
1001
0000
0010
,
1010
0000
0000
1000
0001
0000
0000
0001
1000
0000
2010
0000
0000
0000
3010
0000
,
0110
0000
0000
0100
0000
0001
0000
0000
0001
0000
1000
0000
0100
0000
0010
0000
,
0011
0000
0000
0001
1000
0000
0000
1000
0100
0000
0120
0000
0000
0000
0031
0000
,
1001
0000
0000
0001
0000
1000
0000
0001
0010
0001
0000
0100
0001
0000
1000
0000
,
1010
0000
0000
1000
0100
0000
1000
0000
0001
0000
0021
0000
0000
0000
0001
0000
,
0031
0000
0000
0001
0000
1000
0000
0000
0010
0000
1000
0000
0100
0000
0010
0000
,
0100
0000
0000
0100
1000
0000
0010
0000
1000
0000
1002
0000
0000
0000
1000
0000
,
1003
0001
0010
1000
0010
0001
0100
0010
,
1000
0000
0000
0010
0000
0000
1000
0000
0100
0000
0000
1000
0000
0000
0001
0000
,
0100
0000
0001
0100
0000
0000
0010
0000
1000
0000
0100
0010
0000
0000
0002
0000
,
1000
0000
0000
2003
0000
0000
3002
0000
0100
0000
0000
0203
0000
0000
0310
0000
,
0100
0000
0000
0010
0000
1000
0000
0100
1000
0000
0000
0100
0000
0010
0000
0001
,
1000
0000
0000
1000
0100
0000
1000
0000
0001
0000
0000
0001
0010
0000
0100
0000
,
1200
0010
1000
0001
,
1300
0100
0010
0100
1000
0001
0100
0001
,
0010
0001
0000
1000
0000
0001
0000
0001
0100
0000
0000
0001
0000
1000
0000
0010
,
1000
0000
0000
0000
1000
0000
0000
0001
0100
0000
0000
0000
0001
0000
0000
1000
,
0100
0000
0000
1000
0000
0000
0010
0000
0100
0000
0000
0001
0000
0000
0010
0000
,
0001
0000
0000
1000
0010
0000
0100
0000
0001
0000
0000
0001
0100
0000
0010
0000
,
1000
0001
0000
1000
0000
0010
0000
1000
0100
0000
0100
1000
0000
0010
0000
0100
,
0001
0000
0000
0001
1000
0000
0000
0000
0100
0000
0000
1000
0001
0000
0000
0000
,
0010
0000
0000
0010
0001
0000
0100
0000
0010
0000
0000
0010
1000
0000
0001
0000
,
0100
0010
0100
1000
0100
0010
1000
0100
,
0001
0100
0000
1000
0000
0100
0000
0010
0001
0000
0001
0100
0000
0001
0000
1000
,
0001
0000
0000
0001
0010
0000
0000
0000
1000
0000
0010
0000
0001
0000
0000
0000
,
1000
0000
0000
1000
0100
0000
0000
0000
0001
0000
0100
0000
1000
0000
0000
0000
,
2002
0000
0000
0000
,
3003
0000
0000
0000
;

//---------------dance-single - ----------------
#NOTEDATA:;
#CHARTNAME:;
#CHARTHASH:1058635776;
#STEPSTYPE:dance-single;
#BANNER:;
#DESCRIPTION:;
#CHARTSTYLE:;
#DIFFICULTY:Challenge;
#METER:15;
#METERF:15.000000;
#LASTSECONDHINT:136.350006;
#RADARVALUES:0.624490,0.725000,0.078571,0.100000,0.871429,612.000000,601.000000,11.000000,14.000000,0.000000,0.000000,0.000000,0.000000,0.000000,0.624490,0.725000,0.078571,0.100000,0.871429,612.000000,601.000000,11.000000,14.000000,0.000000,0.000000,0.000000,0.000000,0.000000;
#CREDIT:;
#DISPLAYBPM:125.000000;
#NOTES:
// measure 0
0000
0000
0000
0000
,  // measure 1
0000
0000
0000
0000
,  // measure 2
0000
0000
0000
0000
,  // measure 3
1000
0000
1000
0000
1000
0000
1000
0100
,  // measure 4
0001
0000
0001
0000
0001
0000
0001
0100
,  // measure 5
1000
0000
1000
0000
1000
0000
1000
0010
,  // measure 6
0001
0000
0001
0000
0001
0000
0001
0010
,  // measure 7
0000
1000
0010
0000
0100
0001
0100
0000
0000
0100
0010
0000
1000
0001
1000
0000
,  // measure 8
0000
0001
0010
0000
1000
0010
0001
0000
0000
0001
0100
0000
1000
0100
0001
0000
,  // measure 9
0000
0001
1000
0000
0001
1000
0100
0000
0000
1000
0001
0000
1000
0010
0100
0000
,  // measure 10
0000
0100
0001
0000
1000
0100
0001
0000
0000
1000
0010
0000
1000
0010
0001
0000
,  // measure 11
0010
0000
0000
0100
0000
0000
0010
0000
1000
0000
0000
0010
0000
0000
0100
0000
,  // measure 12
0000
0100
0001
0000
1000
0100
0001
0000
0000
1000
0100
0000
1000
0010
0001
0000
,  // measure 13
0000
0010
0100
0000
0010
1000
0100
0000
0000
1000
0001
0000
1000
0100
0010
0000
,  // measure 14
0000
0010
0001
0000
1000
0010
0001
0000
0000
0010
0100
0000
0010
1000
0001
0000
,  // measure 15
0100
0000
0000
0001
0000
0000
0010
0000
0001
0000
0000
0000
1001
0000
0000
0000
,  // measure 16
0100
0000
0000
0000
1001
0000
0000
0000
0010
0000
0000
0010
1000
0000
0001
0000
,  // measure 17
0100
0001
0100
0000
0001
0010
0001
0000
1000
0010
1000
0000
0001
1000
0001
0000
,  // measure 18
1000
0100
0001
0000
0001
0100
1000
0000
1000
0100
0010
0000
0100
1000
0100
1000
,  // measure 19
0001
0000
0000
0010
0000
0000
0001
0000
0100
0000
0000
0001
0000
1000
0001
0000
,  // measure 20
1000
0000
0010
1000
0000
0000
0100
0000
1000
0000
0000
0100
0000
0000
0010
0000
,  // measure 21
0001
0000
0000
0100
0000
0000
0001
0000
1000
0000
0000
0010
0000
1000
0001
0000
,  // measure 22
0001
1000
0000
0010
0000
0100
0000
0001
0100
0000
0000
0001
0000
1000
0000
0100
,  // measure 23
1000
0000
1000
0001
0000
0000
0001
0000
0010
0000
0000
0001
0000
0000
0100
0000
,  // measure 24
0010
0000
1000
0100
0000
0000
0100
0000
1000
0000
0000
0010
0000
0000
0100
0000
,  // measure 25
0001
0000
0010
0001
0000
0000
0001
0000
1000
0000
0000
0100
0000
0000
1000
0000
,  // measure 26
0010
1000
0010
1000
0000
0010
0000
0100
0001
0000
0001
1000
0000
0100
0000
0010
,  // measure 27
0001
0000
0100
0001
0100
0000
0001
0000
0020
0000
0000
0001
0000
0000
0031
0000
,  // measure 28
0100
0000
0001
1000
0001
0000
1000
0000
0100
0000
0200
1000
0000
0000
0010
0000
,  // measure 29
0310
0000
1000
0100
1000
0000
0001
0000
0100
0000
0001
0010
0001
0000
1000
0000
,  // measure 30
0001
1000
0001
1000
0000
0010
0000
0100
0010
0000
0010
1000
0000
0010
0000
0100
,  // measure 31
0001
0000
1000
0100
0010
0000
0001
0000
2000
0000
0000
0001
0000
0000
3100
0000
,  // measure 32
1000
0000
0001
0100
0010
0000
1000
0000
0001
0000
0001
0200
0000
0000
0010
0000
,  // measure 33
0310
0000
0100
0010
1000
0000
0100
0000
0010
0000
0001
0010
0100
0000
1000
0000
,  // measure 34
0100
1000
0100
1000
0000
0010
0000
1000
0001
0000
0001
1000
0000
0100
0000
1000
,  // measure 35
0010
0000
0010
0200
0000
0000
0001
0000
0001
0000
0000
1000
0000
0000
0001
0000
,  // measure 36
0301
0000
0100
0001
0000
0000
0001
0000
1000
0000
0010
1000
0000
1000
0010
0000
,  // measure 37
1000
0000
0001
0100
1000
0000
0100
0000
0001
0000
1000
0010
0001
0000
0010
0000
,  // measure 38
1000
0100
0000
1000
0000
0010
0000
0100
0001
0000
0001
0010
0000
0001
0000
1000
,  // measure 39
0001
0000
0001
0200
0000
0000
0010
0000
0010
0000
0000
1000
0000
0000
0001
0000
,  // measure 40
0301
0000
1000
0001
0000
0001
1000
0000
0010
0000
1000
0100
0000
0100
1000
0000
,  // measure 41
0010
1000
0010
1000
0001
0100
0001
0100
0010
1000
0010
0001
0010
1000
0100
0001
,  // measure 42
0100
1000
0100
0010
0000
0100
0000
1000
0100
0000
0100
0010
0000
0001
0000
1000
,  // measure 43
0001
0000
0000
0001
1000
0000
0010
0000
0100
0000
0201
0000
0000
0000
0301
0000
,  // measure 44
1001
0000
0000
0010
0000
0100
0000
0010
1000
0010
0000
1000
0001
0000
0100
0000
,  // measure 45
0101
0000
0000
0001
0000
1000
0000
0010
1000
0010
0000
1000
0100
0010
0001
0000
,  // measure 46
0011
0000
0000
0001
0000
0100
0000
0001
1000
0001
0000
1000
0100
0010
0100
1000
,  // measure 47
0001
0000
0000
1000
0010
0000
0100
0000
0001
0000
2001
0000
0000
0000
3100
0000
,  // measure 48
1100
0000
0000
1000
0000
0010
0000
0100
0001
0100
0000
0001
0010
0000
0001
0000
,  // measure 49
1001
0000
0000
0001
0000
1000
0000
0100
1000
0100
0000
1000
0010
0100
0001
0100
,  // measure 50
0010
1000
0010
0001
0010
0100
0010
1000
,  // measure 51
0001
0000
0001
0200
0000
0000
0301
0000
1000
0000
1000
0020
0000
0000
0130
0000
,  // measure 52
0010
0000
1000
0010
0000
0010
1000
0000
0001
0000
0100
0001
0000
0001
0100
0000
,  // measure 53
0001
0000
1000
0100
0001
0000
0100
0000
1000
0000
0001
0010
1000
0000
0010
0000
,  // measure 54
0001
1000
0001
1000
0000
0100
0000
1000
0010
0000
0010
0100
0000
0001
0000
0100
,  // measure 55
0001
0000
0001
2000
0000
0000
3010
0000
1000
0000
1000
0200
0000
0000
1300
0000
,  // measure 56
0010
0000
1000
0001
0000
0001
0010
0000
0001
0000
1000
0100
0000
0100
0001
0000
,  // measure 57
0100
1000
0100
1000
0100
0010
0100
0010
0001
0010
0001
0010
0100
1000
0100
0010
,  // measure 58
0001
0100
0010
1000
0000
0010
0000
0100
0001
0000
0001
1000
0000
0010
1000
0010
,  // measure 59
1000
0000
0000
0100
0000
1000
0010
0000
0100
0000
0000
0001
0000
1000
0001
0000
,  // measure 60
0010
0000
0001
0100
0000
0000
0001
0000
1000
0000
0000
0100
0000
1000
0010
0000
,  // measure 61
1000
0000
0001
0100
0000
0100
0010
0000
1000
0000
0010
0100
0000
0100
0001
0000
,  // measure 62
0010
0001
0000
0010
0000
0001
0000
1000
0100
0000
0100
1000
0000
0010
0000
1000
,  // measure 63
0100
0000
0000
1000
0000
0001
1000
0000
0010
0000
0000
1000
0000
0100
1000
0000
,  // measure 64
0010
0000
0000
1000
0000
0001
1000
0000
0001
0000
0010
0001
0000
1000
0100
0000
,  // measure 65
1000
0010
1000
0010
0100
0001
0100
0010
1000
0100
0001
0100
1000
0100
0010
0100
,  // measure 66
1000
0001
0000
0010
0000
0001
0000
0100
0001
0000
0001
1000
0000
0010
0000
1000
,  // measure 67
0100
0000
0000
0100
1000
0000
0000
0000
0010
0000
1000
0000
0001
0000
0000
0000
,  // measure 68
0010
0000
0000
0010
0001
0000
0000
0001
1000
0001
0100
0000
0000
0101
0000
0000
,  // measure 69
2002
0000
0000
0000
,  // measure 70
3003
0000
0000
0000
;
