#TITLE:MY OH MY;
#SUBTITLE:;
#ARTIST:kimmy;
#TITLETRANSLIT:;
#SUBTITLETRANSLIT:;
#ARTISTTRANSLIT:;
#GENRE:;
#CREDIT:;
#BANNER:MY OH MY.png;
#BACKGROUND:MY OH MY-bg.png;
#LYRICSPATH:;
#CDTITLE:SUPER EUROBEAT 185.png;
#MUSIC:MY OH MY.ogg;
#OFFSET:-11.270000;
#SAMPLESTART:63.686550;
#SAMPLELENGTH:15.000000;
#SELECTABLE:YES;
#DISPLAYBPM:155.000000;
#BPMS:0.000000=154.990005
;
#STOPS:
;
#BGCHANGES:4.000=circle1.mp4=1.000=1=0=1===CrossFade==,
20.000=bluey1.mp4=1.000=0=0=1=====,
35.500=bluey2.mp4=1.000=0=0=1=====,
40.000=arrows2.mp4=1.000=0=0=1=====,
48.000=butterfly1.mp4=1.000=0=0=1=====,
56.000=arrows2.mp4=1.000=0=0=1=====,
64.000=butterfly1.mp4=1.000=0=0=1=====,
71.000=butterfly1.mp4=0.100=0=0=1=====,
72.000=cyber1.mp4=1.000=0=0=1=====,
80.000=bubble4.mp4=1.000=0=0=1=====,
88.000=city3.mp4=1.000=0=0=1=====,
104.000=dance6.mp4=1.800=0=0=1=====,
112.000=cube8.mp4=1.000=0=0=1=====,
120.000=dance6.mp4=1.800=0=0=1=====,
127.500=cube8.mp4=1.000=0=1=1=StretchRewind====,
136.000=tunnel8.mp4=1.000=0=0=1=====,
144.000=circle1.mp4=1.000=0=1=1=StretchRewind====,
152.000=tunnel8.mp4=1.000=0=0=1=====,
160.000=circle1.mp4=1.000=0=0=1=====,
168.000=cyber1.mp4=1.000=0=1=1=StretchRewind====,
176.000=bubble4.mp4=1.000=0=1=1=StretchRewind====,
184.000=cyber1.mp4=1.000=0=0=1=====,
192.000=bubble4.mp4=1.000=0=1=1=StretchRewind====,
200.000=arrows2.mp4=1.000=0=1=1=StretchRewind====,
208.000=butterfly1.mp4=1.000=0=1=1=StretchRewind====,
216.000=arrows2.mp4=1.000=0=0=1=====,
224.000=butterfly1.mp4=1.000=0=0=1=====,
231.000=butterfly1.mp4=0.100=0=0=1=====,
232.000=text8.mp4=1.000=0=0=1=====,
248.000=bluey1.mp4=1.000=0=1=1=StretchRewind====,
263.500=MY OH MY-bg.png=1.000=0=0=1=====,
99999=-nosongbg-=1.000=0=0=0 // don't automatically add -songbackground-
;
#KEYSOUNDS:;
#ATTACKS:;

//---------------dance-single - ----------------
#NOTES:
     dance-single:
     :
     Beginner:
     3:
     0.000000,0.000000,0.000000,0.000000,0.000000,0.000000,0.000000,0.000000,0.000000,0.000000,0.000000,0.000000,0.000000,0.000000,0.000000,0.000000,0.000000,0.000000,0.000000,0.000000,0.000000,0.000000:
0000
0000
0000
0000
,
1000
0000
0000
0000
,
1000
0000
0000
0000
,
0001
0000
0000
0000
,
0001
0000
0000
0000
,
1000
0000
0000
0000
,
1000
0000
0000
0000
,
0001
0000
0000
0000
,
0001
0000
0000
0000
,
0000
0000
0000
0000
,
1000
0000
1000
0000
,
1000
0000
0000
0000
,
0001
0000
0001
0000
,
0001
0000
0000
0000
,
1000
0000
1000
0000
,
1000
0000
0000
0000
,
0001
0000
0001
0000
,
0001
0000
0000
0000
,
0100
0100
0000
0000
,
0001
0000
0001
0000
,
0100
0100
0000
0000
,
0001
0000
0001
0000
,
0010
0010
0000
0000
,
0001
0000
0001
0000
,
0010
0000
0000
0000
,
0001
0001
0001
0000
,
1000
1000
1000
1000
,
1000
0000
0000
0000
,
1000
1000
1000
1000
,
1000
0000
0000
0000
,
0010
0000
0000
0100
,
0000
0000
0001
0000
,
1000
1000
1000
1000
,
1000
0000
0000
0000
,
0001
0000
0001
0000
,
0001
0000
0000
0000
,
1000
0000
0000
0000
,
0001
0001
0001
0000
,
1000
0000
1000
0000
,
1000
0000
0000
0000
,
0001
0000
0000
0000
,
1000
1000
1000
0000
,
0010
0000
0010
0000
,
0010
0000
0000
0000
,
0100
0000
0000
0000
,
0010
0010
0010
0000
,
0100
0000
0100
0000
,
0100
0000
0000
0000
,
0010
0000
0000
0000
,
0100
0100
0100
0000
,
0001
0000
0000
0000
,
0001
0000
0000
0000
,
1000
0000
0000
0000
,
1000
0000
0000
0000
,
0010
0000
0000
0000
,
0010
0000
0000
0000
,
0100
0000
0000
0000
,
0100
0000
0000
0000
,
0001
0000
0000
0000
,
0001
0000
0000
0000
,
1000
0000
0000
0000
,
1000
0000
0000
0000
,
0010
0000
0000
0000
,
0010
0000
0000
0000
,
0100
0000
0000
0000
,
0100
0000
0000
0000
,
0000
0000
2002
0000
,
0000
0000
0000
0000
,
3003
0000
0000
0000
;

//---------------dance-single - ----------------
#NOTES:
     dance-single:
     :
     Easy:
     6:
     0.000000,0.000000,0.000000,0.000000,0.000000,0.000000,0.000000,0.000000,0.000000,0.000000,0.000000,0.000000,0.000000,0.000000,0.000000,0.000000,0.000000,0.000000,0.000000,0.000000,0.000000,0.000000:
0000
0000
0000
0000
,
2002
3003
1000
0100
,
0022
0033
0001
0010
,
2200
3300
1000
0001
,
0220
0330
0001
1000
,
0220
0330
1000
1000
,
0220
0330
0001
0001
,
0220
0330
1000
1000
,
2002
0000
0000
3003
,
0100
0100
0100
1001
,
0010
0000
1000
0010
,
0001
0000
0010
1000
,
0001
0000
1000
0100
,
0001
0000
0100
1000
,
0001
1000
1000
0000
,
1000
0010
0010
0000
,
0100
0001
0001
0000
,
0010
0100
1000
1001
,
0110
2002
0000
3003
,
1000
0010
0100
0001
,
1001
0220
0000
0330
,
0001
0010
0100
1000
,
1100
0022
0000
0033
,
0001
1000
0010
0100
,
0001
0100
0001
1000
,
2020
3030
0100
0100
,
1001
0000
0000
0010
0000
0000
0100
0000
,
0001
0000
0000
0010
0000
0000
0001
0000
,
1000
0000
0000
0100
0000
0000
1000
0000
,
0010
0010
1000
1000
,
0002
0000
0003
2000
,
0000
3000
0010
0100
,
0010
0010
0010
0010
,
1001
0110
1001
0110
,
1000
0100
1000
0000
,
0001
0000
0001
0000
,
1000
0001
1000
0000
,
0010
0000
0010
0000
,
1000
0001
1000
0000
,
0001
0000
0001
0000
,
0010
0001
0010
0000
,
0001
0000
0001
0000
,
0100
0010
0100
1000
,
0100
0000
0001
1000
,
0100
0001
0100
1000
,
0001
0000
1000
0001
,
0010
1000
0010
0001
,
0100
0000
0010
1000
,
0010
0100
0001
1000
,
0100
0100
0100
1001
,
0010
0000
0001
0100
,
1000
0000
0100
0001
,
0010
0000
0001
1000
,
0010
0000
1000
0010
,
0001
0000
0010
1000
,
0100
0000
0001
0100
,
1000
0000
0001
1000
,
0010
0010
0010
1001
,
0220
0000
0000
0330
,
2002
0000
0000
3003
,
2200
0000
0000
3300
,
0022
0000
0000
0033
,
0101
0000
0000
0001
0000
0000
1000
0000
,
0010
0000
0000
0100
0000
0000
0001
0000
,
0010
0100
1000
0001
,
2002
0000
0000
3003
,
0001
0000
1000
2002
,
0000
0000
0000
0000
,
3003
0000
0000
0000
;

//---------------dance-single - ----------------
#NOTES:
     dance-single:
     :
     Medium:
     9:
     0.000000,0.000000,0.000000,0.000000,0.000000,0.000000,0.000000,0.000000,0.000000,0.000000,0.000000,0.000000,0.000000,0.000000,0.000000,0.000000,0.000000,0.000000,0.000000,0.000000,0.000000,0.000000:
0000
0000
0000
0000
,
1000
0000
0010
0000
1000
0010
1000
0000
,
0001
0000
0100
0000
0001
0100
0001
0000
,
0100
0000
0010
0000
0100
0010
0100
0000
,
0001
0000
1000
0100
1000
0001
1000
0000
,
0012
0000
0000
1003
0100
1000
0001
0000
,
0210
0000
0000
0301
0100
0010
1000
0000
,
0120
0000
1030
0010
0100
0001
0100
0000
,
2002
0000
0000
0000
0000
3003
0000
0100
,
0000
0001
0010
0000
0100
1000
0001
0000
,
0110
0000
1000
0000
0010
0000
0100
0001
,
1000
0000
0010
0000
0100
0000
0001
0010
,
0100
0000
1000
0000
0100
0000
0010
0001
,
1000
0000
0001
0100
0000
0001
1000
0000
,
0110
0000
1000
0001
0100
0000
0010
0000
,
1000
0000
0100
0010
0001
0000
0010
0000
,
0100
0000
1000
0100
0001
0000
0100
0000
,
1000
0100
1000
0100
0000
1000
0001
0000
,
0110
0220
0000
0330
,
0001
0100
0010
1000
,
1001
2002
0000
3003
,
1000
0000
0010
0100
0000
0001
0100
0000
,
0011
0022
0000
0033
,
1000
0000
0100
0000
0001
0000
0100
1000
,
0000
0001
1000
0000
1001
0000
1000
0100
,
0010
0000
0001
0000
0010
0100
0000
0000
,
1000
0100
1000
0100
0000
1000
0002
0000
,
0010
0000
0000
1000
0000
0000
0103
0000
,
0001
0010
0001
0010
0000
0001
2000
0000
,
0010
0000
0000
0100
0000
0000
3001
0000
,
0001
0010
0200
2000
0000
3300
1000
0100
,
0020
0002
0000
0033
0000
0000
0000
0000
,
0001
0000
1000
0000
0010
0000
0100
0010
,
0000
1010
0000
0101
0000
1000
0001
0000
,
1200
0000
0001
0000
1300
0000
0000
1000
,
0001
0000
0010
0000
0001
0000
0100
0001
,
0101
0000
1010
0000
0201
0000
0000
0301
,
0100
0000
0010
0000
1000
0001
1000
0000
,
0120
0000
1000
0000
0130
0000
0000
1000
,
0001
0000
0010
0000
0001
0000
0100
0010
,
1010
0000
0101
0000
2010
0000
0000
3001
,
0000
1000
0100
0010
0001
0000
1000
0001
,
2001
0000
0100
0000
3010
0000
0000
1000
,
0001
0000
0010
0000
0001
0000
0100
0001
,
1001
0000
0110
0000
1002
0000
0000
1003
,
0000
0001
0010
0000
0100
1000
0100
0000
,
1002
0000
0010
0000
0103
0000
0000
0001
,
1000
0000
0010
0000
0100
0000
0001
0010
,
0011
0000
1100
0000
0012
0000
0000
1003
,
0100
0010
0001
0100
0000
0010
0100
0010
,
0100
0000
0010
0000
1000
0000
0001
0100
,
0001
0000
0100
0000
0010
0000
1000
0010
,
1000
0000
0001
0000
0100
0000
0001
1000
,
0001
0000
1000
0000
0100
0000
0010
0001
,
0010
0000
0100
0000
1000
0000
0001
0100
,
1000
0000
0100
0000
0001
0000
1000
0010
,
0001
0000
0010
0000
1000
0000
0001
0100
,
0001
1000
0001
1000
0000
0100
0010
0000
,
2001
0000
0000
0000
3001
0010
0001
0000
,
1002
0000
0000
0000
1003
0100
1000
0000
,
0210
0000
0301
0100
0000
0010
1000
0000
,
1200
0000
1300
0100
0010
0001
0100
0000
,
0201
0000
0000
0301
1000
0100
1000
0000
,
0120
0000
0000
1030
0010
0100
0001
0000
,
0210
0000
0301
0100
0010
1000
0010
0000
,
0220
0000
0000
0000
0000
0030
0000
0301
,
0000
1000
0100
0010
0001
2000
0002
0000
,
0000
0000
0000
0000
,
3003
0000
0000
0000
;

//---------------dance-single - ----------------
#NOTES:
     dance-single:
     :
     Hard:
     10:
     0.000000,0.000000,0.000000,0.000000,0.000000,0.000000,0.000000,0.000000,0.000000,0.000000,0.000000,0.000000,0.000000,0.000000,0.000000,0.000000,0.000000,0.000000,0.000000,0.000000,0.000000,0.000000:
0000
0000
0000
0000
,
1001
0000
0001
0010
0100
0000
1000
0000
,
0110
0000
0001
1000
0010
1000
0001
0000
,
0110
0000
1000
0100
0010
0000
0001
0000
,
1100
0000
0001
0100
0000
0010
1000
0000
,
0210
0000
0000
0301
0100
0010
1000
0000
,
0120
0000
1030
0010
0100
0001
0100
0000
,
1002
0000
0000
1003
0001
0010
0100
0000
,
2002
0000
0000
0000
0000
3003
0000
0110
,
0000
0010
1000
0100
0010
0001
1000
0000
,
0101
0000
0000
1000
0000
0001
0000
0010
0000
0001
0000
0000
1000
0000
0000
0000
,
0010
0000
0000
0100
0000
0010
0000
0100
0000
0001
0000
0000
1000
0000
0100
0000
,
0010
0000
0000
0001
0000
0010
0000
0100
0000
1000
0000
0000
0001
0000
0000
0000
,
1100
0000
0000
1000
0000
0010
0000
0100
0000
0001
0000
0000
0010
0000
0001
0000
,
0100
0000
0000
0010
0000
1000
0000
0001
0000
0100
0000
0000
0010
0000
0000
0000
,
1000
0000
0000
0001
0000
0010
0000
0100
0000
0010
0000
0000
0001
0000
1000
0000
,
0100
0000
0000
1000
0000
0010
0000
0100
0000
1000
0000
0000
0100
0000
0000
0000
,
0010
0010
0010
0010
0000
1000
0001
0000
,
0110
0000
1002
0000
0000
1003
0100
0000
,
1000
0000
0001
0000
0010
0100
1000
0000
,
1001
0000
0210
0000
0000
0301
0100
0010
,
1000
0000
0010
0100
0000
0100
0001
0000
,
1100
0000
0012
0000
0000
1003
0001
0000
,
0010
0000
0100
0000
1000
0000
0001
0100
,
0000
0010
2000
0000
0000
3100
1000
0002
,
0000
1003
0100
1000
0010
0100
0000
0001
,
1000
0100
0010
0001
0000
0002
0200
0000
,
0303
0000
0001
0000
1000
0100
0001
0000
,
0100
1000
0001
0010
0000
0200
2000
0000
,
3300
0000
1000
0000
0001
0010
1000
0000
,
0010
0001
1000
0200
0000
0000
1300
0001
,
0010
0002
0000
1003
0001
0000
0100
0000
,
0110
0000
0010
1000
0010
1000
0001
0100
,
0000
0001
0000
1000
0000
0010
0110
0000
,
1100
0000
0011
0000
2100
0000
0000
3001
,
0010
0100
1000
0001
1000
0100
0010
0000
,
0110
0000
1001
0000
0120
0000
0000
1030
,
0010
0100
0001
0100
0010
1000
0001
0000
,
1010
0000
0101
0000
1020
0000
0000
0130
,
0010
1000
0001
0010
0100
1000
0001
0000
,
1001
0000
0110
0000
2001
0000
0000
3002
,
0000
1003
0100
0010
0001
1000
0001
1000
,
1010
0000
0110
0000
0101
0000
1000
0100
,
0000
0100
1000
0000
0001
0010
0001
0000
,
0110
0000
1100
0000
0201
0000
0000
1300
,
0000
0100
0010
0001
0010
0100
1000
0000
,
0110
0000
1001
0000
0011
0000
1000
0001
,
0000
0001
0010
0000
0001
1000
0001
0000
,
0110
0000
1010
0000
2100
0000
0000
3001
,
0100
0100
0100
0100
0000
0010
1000
0000
,
1001
0000
0000
1000
0000
0100
0000
1000
0000
0010
0000
0000
0100
0000
0000
0000
,
0001
0000
0000
0010
0000
0100
0000
1000
0000
0001
0000
0000
1000
0000
0100
0000
,
1000
0000
0000
0001
0000
0100
0000
0010
0000
0100
0000
0000
0001
0000
1000
0000
,
0100
0000
0000
0010
0000
0001
0000
1000
0000
0010
0000
0000
0100
0000
0000
0000
,
0101
0000
0000
0001
0000
0010
0000
1000
0000
0010
0000
0000
0001
0000
0000
0000
,
1000
0000
0000
0100
0000
0001
0000
0100
0000
1000
0000
0000
0010
0000
0100
0000
,
0001
0000
0000
1000
0000
0100
0000
0010
0000
0001
0000
0000
0100
0000
0010
0000
,
1000
1000
1000
1000
0000
0001
0100
0000
,
2001
0000
0000
0001
3001
0010
1000
0000
,
0012
0000
0000
1000
1003
0100
0001
0100
,
2000
0000
0000
0010
3010
1000
0001
0000
,
0120
0000
1000
1030
0001
0100
0010
0000
,
2100
0000
0001
0000
0010
0010
3010
0000
,
0012
0000
1000
1000
1003
0001
0010
0000
,
1200
0000
1300
0001
0000
0001
0200
0020
,
0000
0000
0000
0000
0000
0330
0000
1001
,
0000
1000
0100
0010
0001
1000
2002
0000
,
0000
0000
0000
0000
,
3003
0000
0000
0000
;

//---------------dance-single - ----------------
#NOTES:
     dance-single:
     :
     Challenge:
     13:
     0.616592,0.653427,0.232223,0.360346,0.576554,539.000000,510.000000,29.000000,45.000000,0.000000,0.000000,0.616592,0.653427,0.232223,0.360346,0.576554,539.000000,510.000000,29.000000,45.000000,0.000000,0.000000:
// measure 0
0000
0000
0000
0000
,  // measure 1
1001
0000
0000
1000
0100
0000
0010
0000
0001
0000
0010
0000
1000
0000
0010
0000
,  // measure 2
0001
0000
0000
0100
0010
0000
1000
0000
0010
0000
0100
0000
0001
0000
1000
0000
,  // measure 3
0100
0000
0000
0010
0001
0000
1000
0000
0100
0000
0001
0000
0100
0000
1000
0000
,  // measure 4
0001
0000
0000
0001
0100
0000
0001
0010
0001
0000
1000
0000
0100
0000
0010
0000
,  // measure 5
0200
0000
0000
0000
1000
0000
1300
0000
0100
0000
0000
0100
1000
0000
0001
0000
,  // measure 6
0020
0000
0000
0000
0001
0000
0031
0000
1000
0000
0000
0001
0100
0000
0010
0000
,  // measure 7
2000
0000
0000
0000
0001
0000
3001
0000
1000
0000
0000
1000
0100
0000
0010
0000
,  // measure 8
1002
1000
1000
1003
0100
0010
0001
2001
,  // measure 9
0000
3010
0100
0001
1000
0100
0010
0000
,  // measure 10
0012
0000
0000
1003
0000
0100
0000
1000
0000
0010
0000
1000
0001
0000
0100
0000
,  // measure 11
0020
0000
0000
0130
0000
0001
0000
0100
0000
0010
0000
0000
1000
0001
1000
0000
,  // measure 12
1200
0000
0000
1300
0000
0001
0000
0010
0000
0100
0000
1000
0100
0000
0010
0000
,  // measure 13
0002
0000
0000
1003
0000
0001
0000
0100
0000
0010
0000
1000
0001
1000
0001
0000
,  // measure 14
0021
0000
0000
0031
0000
0010
0000
0001
0000
1000
0000
0100
0010
0000
0001
0000
,  // measure 15
2000
0000
0000
3010
0000
0100
0000
0001
0000
0100
0000
0000
0010
0100
0010
0000
,  // measure 16
1002
0000
0000
1003
0000
0001
0000
0010
0000
0100
0000
0010
0001
0000
1000
0000
,  // measure 17
0001
0001
0001
0001
0000
1000
0100
0000
,  // measure 18
0011
0000
2100
0000
0000
3001
0010
0100
,  // measure 19
1000
0000
0001
0100
0010
0010
0010
0000
,  // measure 20
0101
0000
1020
0000
0000
0130
0001
1000
,  // measure 21
0010
0000
0000
0000
0100
0000
0001
0000
1000
0000
0100
0000
0000
1000
0010
0000
,  // measure 22
0110
0000
2001
0000
0000
3100
0010
0001
,  // measure 23
0000
1000
0000
0001
0000
0010
0000
0011
,  // measure 24
0000
0001
2000
0000
0100
0100
0100
0100
,  // measure 25
3100
1000
0001
0000
0010
0001
0000
0001
,  // measure 26
1000
0100
0010
0002
0000
1000
2003
0000
,  // measure 27
3001
1000
0002
0000
0000
0000
1003
0100
1000
0000
0010
0000
0100
0001
0100
0000
,  // measure 28
0001
0010
0100
2000
0000
0001
3002
0000
,  // measure 29
1003
0100
2000
0000
0000
0000
3010
0100
0010
0000
1000
0001
1000
0001
1000
0000
,  // measure 30
0001
0010
0100
2000
0000
0100
3100
1000
,  // measure 31
0100
0020
0000
0001
0031
0010
0100
1002
,  // measure 32
0000
0103
0100
0010
0100
0100
0010
1001
,  // measure 33
0000
0011
0000
0110
0000
1000
1001
0000
,  // measure 34
0001
0100
0000
0000
0100
0010
0000
0000
0010
1000
0000
0000
1000
0000
0002
0000
,  // measure 35
0000
1003
0100
0010
1000
0010
0100
1000
,  // measure 36
0001
1000
0000
0000
1000
0001
0000
0000
0001
0010
0000
0001
1000
0000
1200
0000
,  // measure 37
0000
1300
0010
0010
0100
0001
1000
0100
,  // measure 38
0010
0001
0000
0000
0001
0100
0000
0000
0100
0010
0000
0000
0010
0000
2000
0000
,  // measure 39
0000
3001
1000
0100
1000
0001
0010
0001
,  // measure 40
0100
0010
0000
0000
0010
1000
0000
0000
1000
0001
0000
0100
0010
0000
0102
0000
,  // measure 41
0000
1003
0100
0100
0010
0001
1000
0010
,  // measure 42
0100
0001
0000
0000
0001
0100
0000
0000
0100
0010
0000
0000
1000
0000
0002
0000
,  // measure 43
0000
1003
0001
0001
0010
0100
1000
0001
,  // measure 44
0100
0010
0000
0000
0010
1000
0000
0000
1000
0100
0000
0010
0001
0000
2100
0000
,  // measure 45
0000
3001
1000
1000
0010
0100
0001
0010
,  // measure 46
0001
0100
0000
0000
0100
0010
0000
0000
0010
1000
0000
0000
0001
0000
0200
0000
,  // measure 47
0000
0310
1000
1000
0100
0001
0100
1000
,  // measure 48
0001
0010
0000
0000
0010
0001
0000
0000
1000
0100
0000
0010
0100
0000
1000
0000
,  // measure 49
0001
0001
0001
0001
0000
0100
0010
1000
,  // measure 50
1002
0000
0000
1003
0000
0100
0000
1000
0000
0010
0000
0100
0001
0100
0001
0100
,  // measure 51
0002
0000
0000
0013
0000
0001
0000
1000
0000
0100
0000
1000
0010
0000
0100
0000
,  // measure 52
0120
0000
0000
0130
0000
0010
0000
1000
0000
0001
0000
0010
0001
0010
0001
0010
,  // measure 53
0002
0000
0000
1003
0000
0010
0000
0100
0000
0001
0000
1000
0100
0000
1000
0000
,  // measure 54
2010
0000
0000
3001
0000
0100
0000
0010
0000
1000
0000
0010
0100
0010
0100
0010
,  // measure 55
0200
0000
0000
0301
0000
1000
0000
0100
0000
0010
0000
0001
0010
0000
0001
0000
,  // measure 56
0201
0000
0000
0301
0000
1000
0000
0010
0000
0100
0000
0001
0010
0001
0010
0001
,  // measure 57
0010
0010
0010
0010
0000
0001
0100
0000
,  // measure 58
0110
0000
0000
0010
1000
0000
0001
0000
0010
0000
0010
0000
0001
0000
1000
0000
,  // measure 59
0100
0000
0000
0100
1000
0001
1000
0000
0010
0000
0010
0000
0100
0000
0001
0000
,  // measure 60
1001
0000
0000
1000
0100
0000
0010
0000
0010
0000
0001
0000
0010
0000
0100
0000
,  // measure 61
1000
0000
0000
0001
0100
0000
0010
0000
0000
1000
0010
0000
0100
0000
0001
0000
,  // measure 62
2000
0000
0000
3001
0100
0001
0100
0001
0100
0000
0010
0000
1000
0000
0100
0000
,  // measure 63
0020
0000
0000
0031
1000
0001
1000
0001
1000
0100
1000
0000
0010
0000
0100
0000
,  // measure 64
0002
0000
0000
1003
0100
1000
0100
0000
1000
0000
0001
0000
0100
0000
0010
0000
,  // measure 65
1000
0000
0001
1000
0001
1000
0010
0100
0010
0100
0001
1000
0100
0010
0002
0000
,  // measure 66
0000
1003
0100
0010
0001
1000
2002
0000
,  // measure 67
0000
0000
0000
0000
,  // measure 68
3003
0000
0000
0000
;
