#TITLE:MY GIFTS;
#SUBTITLE:;
#ARTIST:D-Crew;
#TITLETRANSLIT:;
#SUBTITLETRANSLIT:;
#ARTISTTRANSLIT:;
#GENRE:;
#CREDIT:;
#BANNER:MY GIFTS.png;
#BACKGROUND:MY GIFTS-bg.png;
#LYRICSPATH:;
#CDTITLE:pop'n music.png;
#MUSIC:MY GIFTS.ogg;
#OFFSET:-5.220000;
#SAMPLESTART:20.795567;
#SAMPLELENGTH:15.000000;
#SELECTABLE:YES;
#BPMS:0.000000=185.000000
;
#STOPS:
;
#BGCHANGES:16.000=snow5.mp4=0.800=1=0=1===CrossFade==,
32.000=amoeba1.mp4=0.800=0=0=1=====,
48.000=bubble1.mp4=1.000=0=0=1=====,
64.000=blizzard1.mp4=1.000=0=0=1=====,
80.000=blackhole1.mp4=1.000=0=0=1=====,
96.000=kaliedoscope6.mp4=1.000=0=0=1=====,
116.000=snow5.mp4=0.800=0=0=1=====,
118.000=amoeba1.mp4=0.800=0=0=1=====,
120.000=light1.mp4=1.000=0=0=1=====,
136.000=circle2.mp4=1.000=0=0=1=====,
152.000=tunnel10.mp4=0.800=0=0=1=====,
168.000=tunnel9.mp4=1.000=0=0=1=====,
184.000=amoeba1.mp4=0.800=0=1=1=StretchRewind====,
200.000=snow5.mp4=0.800=0=1=1=StretchRewind====,
216.000=ring2.mp4=1.000=0=0=1=====,
232.000=kaliedoscope7.mp4=1.000=0=0=1=====,
248.000=blizzard1.mp4=1.000=0=1=1=StretchRewind====,
256.000=blackhole1.mp4=1.000=0=1=1=StretchRewind====,
264.000=kaliedoscope6.mp4=1.000=0=1=1=StretchRewind====,
272.000=snow5.mp4=0.800=0=1=1=StretchRewind====,
304.000=bubble1.mp4=1.000=0=1=1=StretchRewind====,
320.000=tunnel10.mp4=0.800=0=1=1=StretchRewind====,
336.000=tunnel9.mp4=1.000=0=1=1=StretchRewind====,
351.500=MY GIFTS-bg.png=1.000=0=0=1=====,
99999=-nosongbg-=1.000=0=0=0 // don't automatically add -songbackground-
;
#KEYSOUNDS:;
#ATTACKS:;

//---------------dance-single - ----------------
#NOTES:
     dance-single:
     :
     Easy:
     7:
     0.000000,0.000000,0.000000,0.000000,0.000000,0.000000,0.000000,0.000000,0.000000,0.000000,0.000000,0.000000,0.000000,0.000000,0.000000,0.000000,0.000000,0.000000,0.000000,0.000000,0.000000,0.000000:
0000
0000
0000
0000
,
0000
0000
0000
0000
,
0000
0000
0000
0000
,
0000
0000
0000
0000
,
1000
0000
0000
1000
0000
0000
0000
0000
,
0001
0000
0000
0001
0000
0000
0000
0000
,
0100
0100
0100
0000
,
0010
0010
0010
0000
,
1000
0000
0000
1000
0000
0000
0000
0000
,
0001
0000
0000
0001
0000
0000
0000
0000
,
0100
0100
0100
0000
,
0010
0010
0010
0010
,
0010
0000
1000
0000
,
0010
0100
0001
0100
,
0010
0000
0100
0000
,
0001
1000
0100
0010
,
0001
0000
0010
0000
,
0001
1000
0010
0100
,
0001
0000
1000
0000
,
0010
0100
0001
0010
,
1002
0000
1000
0000
,
0103
0000
0001
1000
,
2100
0000
0010
0000
,
3100
0100
1001
0000
,
0012
0000
1000
0000
,
0013
0001
1000
0010
,
0120
1000
0130
0000
,
0210
0001
0310
0000
,
0100
0100
0010
0010
,
1002
0000
2003
0000
,
3001
0000
1000
0000
,
0010
0000
1000
0000
,
0100
0000
1000
0000
,
0010
0100
0001
0010
,
0001
1000
0010
0100
,
0001
0000
0010
0000
,
0001
0000
1000
0000
,
0100
1000
0100
0010
,
0100
1000
0001
1000
,
0010
0100
0010
0001
,
0010
0100
0001
1000
,
0001
0100
0010
0000
,
1000
0000
0010
0000
,
1000
0000
0010
0000
,
0100
0000
0001
0000
,
0100
0000
0001
0000
,
1000
0000
0001
0000
,
0010
0000
0100
0000
,
1000
0001
1000
0010
,
0100
0001
1000
0100
,
0020
0000
0000
0030
,
0002
0000
0000
0003
,
2000
0000
0000
3000
,
0200
0000
0000
0300
,
2000
0000
0000
3000
,
0020
0000
0000
0030
,
0200
0000
0000
0300
,
0002
0000
0000
0003
,
1000
0000
1000
0000
,
1000
1000
0001
0001
,
0100
0000
0100
0000
,
0100
0100
0010
0010
,
0001
0000
0010
0000
,
1000
0010
0001
0010
,
1000
0000
0100
0000
,
0001
0100
1000
0100
,
0001
0100
1000
0010
,
0100
0001
0011
1001
,
0220
0000
0000
0330
,
2000
0000
0000
3000
,
0002
0000
0000
0003
,
2000
0000
0000
3000
,
0200
0000
0000
0300
,
2000
0000
0000
3000
,
0020
0000
0000
0030
,
0100
0100
0100
0100
,
0100
0001
0100
0001
,
1000
0010
1000
0010
,
0100
0001
1000
0010
,
1000
0001
0010
0100
,
1000
0000
1000
0100
,
0010
0001
0100
0010
,
1000
0000
0001
0010
,
0100
1000
0001
0010
,
0001
0000
0001
0000
,
1000
0000
1000
0000
,
0010
0100
0010
0001
,
0010
0000
1000
0000
0010
0000
1000
0001
;

//---------------dance-single - ----------------
#NOTES:
     dance-single:
     :
     Medium:
     10:
     0.000000,0.000000,0.000000,0.000000,0.000000,0.000000,0.000000,0.000000,0.000000,0.000000,0.000000,0.000000,0.000000,0.000000,0.000000,0.000000,0.000000,0.000000,0.000000,0.000000,0.000000,0.000000:
0000
0000
0000
0000
,
0000
0000
0000
0000
,
0000
0000
0000
0000
,
0000
0000
0000
0000
,
0002
0000
0000
1003
0000
0000
0000
0000
,
2000
0000
0010
3010
0000
0000
0010
0000
,
0200
0000
0000
0301
0000
0000
0001
0000
,
2000
0000
0000
3100
0000
1000
0001
0000
,
0020
0000
0000
0031
0000
0000
0000
0000
,
0002
0000
0000
1000
1003
0000
0100
0000
,
1000
1010
0001
0101
,
0100
0010
0100
0000
0010
0100
0010
0000
,
1000
0100
0010
0001
,
0100
0110
1010
1100
,
0001
0000
0100
0001
0000
0100
0010
0000
,
1000
0000
0010
0100
0000
0001
0100
0000
,
0001
0010
0100
1000
,
0010
0110
1001
1100
,
0001
0000
1000
0010
0000
0100
0001
0000
,
0001
0010
0000
0001
1000
0000
0110
0000
,
2001
0000
0010
0000
,
3200
0000
0000
1000
1300
0000
1001
0000
,
0002
0000
0100
0000
,
0013
0000
0010
0000
0001
1000
0001
0000
,
1000
0100
1000
0000
0010
0100
0010
0000
,
0100
0001
0100
0000
0001
0010
0001
0000
,
1002
0000
0000
1003
0100
0000
1000
0000
,
1001
0000
0001
0010
0000
0010
0001
0000
,
1001
0100
1001
0010
,
1001
0000
0000
0010
0100
0000
0000
0100
,
0010
1000
0010
0001
,
0010
1000
0100
0001
,
0100
1000
0001
0010
,
0001
0000
1000
0000
0010
0000
0100
0001
,
0010
1000
0010
0001
,
0100
0010
1000
0100
,
0001
0000
0100
0000
1000
0000
0001
1000
,
0100
0000
1000
0001
0010
0001
1000
0000
,
0001
0100
0001
0010
,
0100
1000
0100
0010
,
0100
1000
0001
0010
,
0100
0010
0001
1000
,
0002
0000
0000
1000
0000
1003
0000
0000
,
2000
0000
0000
0010
0000
3010
0000
0000
,
0010
0000
0010
0100
0000
0100
0001
0000
,
0001
1000
0001
0000
1000
0001
1000
0000
,
0020
0000
0000
1000
0000
1030
0000
0000
,
0200
0000
0000
0001
0000
0301
0000
0001
,
1000
0100
0020
0002
0000
0000
0033
0000
,
1001
0010
1001
0100
,
1002
0000
0000
1003
0010
0000
1000
0000
,
0001
1000
0000
0001
0010
0000
0001
0000
,
2000
0000
0000
0010
0000
0000
3001
0000
,
0102
0000
0000
1000
0000
0010
0013
0000
,
1002
0000
0000
1003
0001
0000
0010
0000
,
0001
1000
0000
1000
0100
0000
1000
0000
,
0010
0100
0000
0100
0001
0000
0001
0010
,
0000
0010
0100
0000
0100
1000
0000
1000
,
0001
1000
0010
1000
,
0100
0001
1100
1001
,
0110
0010
0001
0010
,
1010
0000
1000
0000
1000
0001
1000
0000
,
0001
0000
0100
0001
0100
0000
0001
0010
,
0001
0000
0001
1000
0000
1000
0001
0000
,
2010
0000
0000
3010
0100
0000
0010
0000
,
1002
0000
0000
0103
0001
0000
0010
0001
,
0010
0001
1000
0100
,
0010
0001
0010
0000
0001
1000
0001
0000
,
2001
0000
0000
0000
0000
0000
0000
0010
,
3020
0000
1000
0000
,
0230
0000
0000
0000
0001
0000
0000
0010
,
0320
0000
0100
0000
,
2030
0000
0000
0000
0001
0000
0000
0100
,
3200
0000
0000
0000
0010
0000
0000
1000
,
1300
0000
0100
0000
1000
0001
0000
0001
,
1000
0001
1000
0001
1000
0001
0100
0000
,
0010
1000
0100
1000
,
0010
0100
0010
0001
,
0010
1000
0100
0001
,
0100
1000
0010
0100
,
0002
0000
0000
1000
0000
1003
0000
0000
,
2000
0000
0000
0010
0000
3010
0000
0000
,
1001
0000
1000
0010
0000
0010
0100
0000
,
0100
0001
0000
0001
0010
0001
1000
0000
,
0002
0000
0000
0100
0000
0103
0000
0001
,
2000
0000
0000
0100
0000
3100
0000
1000
,
0001
0010
0200
2000
0000
0000
0300
0000
,
0001
0000
3001
0000
1000
0001
1000
1001
;

//---------------dance-single - ----------------
#NOTES:
     dance-single:
     :
     Hard:
     13:
     0.672603,0.728407,0.381300,0.248674,0.132626,568.000000,522.000000,46.000000,30.000000,0.000000,0.000000,0.672603,0.728407,0.381300,0.248674,0.132626,568.000000,522.000000,46.000000,30.000000,0.000000,0.000000:
// measure 0
0000
0000
0000
0000
,  // measure 1
0000
0000
0000
0000
,  // measure 2
0000
0000
0000
0000
,  // measure 3
0000
0000
0000
0000
,  // measure 4
1001
0000
0000
1001
0000
0000
1000
0100
,  // measure 5
1100
0000
0000
1100
0000
0000
1000
0000
,  // measure 6
1001
0000
0000
0000
0000
0000
0000
0000
0000
0011
0000
0000
0001
0000
0000
0000
1000
0000
0000
0000
0010
0000
0000
0000
,  // measure 7
0110
0000
0100
0101
0000
0000
1001
0000
,  // measure 8
0110
0000
0000
0110
0000
0000
0010
1000
,  // measure 9
1001
0000
0000
0011
0000
0001
0100
0000
,  // measure 10
0110
0000
0000
0000
0000
0000
0010
0000
0000
1000
0000
0000
0001
0000
0000
0000
0010
0000
0000
0000
0100
0000
0000
0000
,  // measure 11
1000
0100
0010
0100
1000
0001
0020
0000
,  // measure 12
0031
0010
0001
1000
0100
0010
0001
0000
,  // measure 13
1000
0001
0000
0000
0101
0000
0000
0000
0001
1000
0000
0000
1100
0000
0000
0000
,  // measure 14
1000
0010
0100
0001
0010
0100
1000
0000
,  // measure 15
0010
1000
0000
0000
0010
0000
0100
0001
0000
0000
0010
0000
0100
0000
1000
0000
,  // measure 16
0002
0000
1003
0001
0100
0001
0010
0000
,  // measure 17
0001
0010
0000
0000
0110
0000
0000
0000
1000
0100
0000
0000
0101
0000
0000
0000
,  // measure 18
0100
1000
0010
0100
0001
0010
0100
1000
,  // measure 19
0001
1000
0000
0000
0100
0000
1000
0001
0000
0000
0001
0000
0010
0000
0100
0000
,  // measure 20
2000
0000
0000
0010
0010
0000
0000
0001
,  // measure 21
3001
1000
0000
0000
1100
0000
0000
0000
1000
0001
0000
0000
0101
0000
0000
0000
,  // measure 22
0002
0000
0000
1000
1000
0000
0000
0010
,  // measure 23
0013
0001
0000
0000
0101
0000
0000
0000
0100
0000
0010
0000
1000
0000
0000
0000
,  // measure 24
2001
0000
0000
0010
0010
0000
0100
3100
,  // measure 25
0000
1000
0100
0010
0001
0100
0001
0000
,  // measure 26
1002
1000
0000
0010
0010
0000
0000
0100
,  // measure 27
0103
0000
0001
0010
0000
0001
0100
0010
,  // measure 28
1000
0010
0000
0000
0110
0000
0000
0000
0001
0100
0000
0000
0110
0000
0000
0000
,  // measure 29
1001
1000
1100
0000
1001
0001
0011
0000
,  // measure 30
0001
0100
0001
0100
0001
1000
0100
1000
,  // measure 31
0100
1000
0010
0100
0010
0100
0010
0001
,  // measure 32
0010
0001
0010
1000
0010
1000
0010
0100
,  // measure 33
0001
0100
0001
0100
0010
0100
0010
0100
,  // measure 34
1000
0100
1000
0100
0001
0100
1000
0100
,  // measure 35
0001
0010
1000
0010
0001
0010
1000
0100
,  // measure 36
0010
0010
0001
1000
0001
0001
0000
0001
,  // measure 37
1000
1000
0100
0100
1000
0010
1000
0001
,  // measure 38
0100
0010
0100
0001
0010
0001
1000
0100
,  // measure 39
1000
0001
0010
0001
0100
0010
1000
0010
,  // measure 40
0100
0010
0001
0010
0100
0010
1000
0100
,  // measure 41
1000
0100
0010
0100
1000
0010
0001
0010
,  // measure 42
2000
0000
0001
3001
0000
1000
0000
0001
,  // measure 43
1000
0000
1000
0020
0000
0001
0000
0100
,  // measure 44
0130
0000
0010
1000
0000
1000
0100
0000
,  // measure 45
0100
0010
0001
0010
0100
1000
0001
0000
,  // measure 46
1000
0001
0010
0002
0000
1000
0000
0100
,  // measure 47
0103
0001
0010
0200
0000
0001
0000
1300
,  // measure 48
0100
0100
0100
0200
0000
0000
0300
0000
,  // measure 49
1100
1001
0011
0110
,  // measure 50
2001
0000
0000
3001
0020
0000
0001
0000
,  // measure 51
0031
0100
0000
0010
1000
0100
0010
0001
,  // measure 52
0100
0100
0010
1000
0001
0001
1000
0100
,  // measure 53
1000
1000
0010
0001
0010
0010
1000
0100
,  // measure 54
1000
1000
0001
1000
1000
0010
0100
0100
,  // measure 55
0010
0100
0100
0001
0010
0100
1000
0001
,  // measure 56
1000
1000
0001
0010
0010
0001
1000
1000
,  // measure 57
0100
0000
0010
0000
0010
0000
0010
0000
0001
0000
1000
0001
1000
0000
0001
1000
,  // measure 58
0002
0000
0000
1000
1000
0000
0000
0010
,  // measure 59
0013
0001
0000
0000
1001
0000
0000
0000
1000
0100
0000
0000
0110
0000
0000
0000
,  // measure 60
2100
0000
0000
0001
0001
0000
0000
0010
,  // measure 61
3010
1000
0000
0000
1100
0000
0000
0000
1000
0001
0000
0000
0110
0000
0000
0000
,  // measure 62
0102
0100
0000
0010
0010
0000
1000
1003
,  // measure 63
0000
0001
0010
0100
1000
0100
0010
0000
,  // measure 64
2100
0100
0000
0001
0001
0000
0000
0010
,  // measure 65
3010
0000
1000
0010
0000
0100
0001
0010
,  // measure 66
0001
0010
0000
0000
1001
0000
0000
0000
1000
0100
0000
0000
1001
0000
0000
0000
,  // measure 67
0100
0010
0100
0000
0002
0000
0000
0000
1003
0010
1000
0000
0200
0000
0000
0000
,  // measure 68
2300
0010
0001
0010
,  // measure 69
3200
1000
0001
1000
,  // measure 70
0320
0001
0100
1000
,  // measure 71
0032
1000
0010
1000
,  // measure 72
0203
0000
0000
0010
0010
0000
1000
0000
,  // measure 73
0302
0000
0000
1000
1000
0000
0100
0000
,  // measure 74
0013
0000
0011
0000
0001
1000
0000
1000
,  // measure 75
0100
0000
0010
0000
0100
0000
1000
0000
0001
0000
0100
0000
0001
1000
0001
1000
,  // measure 76
0001
0010
0001
0010
0001
1000
0100
1000
,  // measure 77
0100
0010
0001
0010
0001
0100
1000
0100
,  // measure 78
1000
0100
0001
0010
1000
0010
1000
0010
,  // measure 79
0001
1000
0100
0010
0001
0010
0100
1000
,  // measure 80
0001
1000
0100
0020
0000
0001
0000
0100
,  // measure 81
0130
0000
0100
2000
0000
0001
0000
0010
,  // measure 82
3010
0000
1000
0010
0000
0010
0100
0000
,  // measure 83
0001
0000
0100
0000
0010
0000
1000
0000
0001
0000
1000
0000
0100
1000
0100
0000
,  // measure 84
1000
0010
0200
0001
0000
0010
0000
0001
,  // measure 85
0301
0100
0020
1000
0000
0001
0000
1030
,  // measure 86
0010
0010
0010
0020
0000
0000
0030
0000
,  // measure 87
1000
0001
0000
0000
0011
0000
0000
0000
1000
0001
1000
0000
0010
0000
0110
0000
;

//---------------dance-single - ----------------
#NOTES:
     dance-single:
     :
     Beginner:
     4:
     0.000000,0.000000,0.000000,0.000000,0.000000,0.000000,0.000000,0.000000,0.000000,0.000000,0.000000,0.000000,0.000000,0.000000,0.000000,0.000000,0.000000,0.000000,0.000000,0.000000,0.000000,0.000000:
0000
0000
0000
0000
,
0000
0000
0000
0000
,
0000
0000
0000
0000
,
0000
0000
0000
0000
,
1000
0000
0000
0000
,
1000
0000
0000
0000
,
1000
0000
0000
0000
,
1000
0000
0000
0000
,
0001
0000
0000
0000
,
0001
0000
0000
0000
,
0001
0000
0000
0000
,
0001
0000
0000
0000
,
1000
0000
1000
0000
,
1000
0000
0000
0000
,
1000
0000
1000
0000
,
1000
0000
0000
0000
,
0001
0000
0001
0000
,
0001
0000
0000
0000
,
0001
0000
0001
0000
,
0001
0000
0000
0000
,
1000
0000
1000
0000
,
1000
0000
0000
0000
,
1000
0000
1000
0000
,
1000
0000
0000
0000
,
0001
0000
0001
0000
,
0001
0000
0000
0000
,
0001
0000
0001
0000
,
0001
0000
0000
0000
,
1000
1000
1000
1000
,
1000
0000
1001
0000
,
0100
0000
0000
0000
,
0100
0000
0000
0000
,
0010
0000
0000
0000
,
0010
0000
0000
0000
,
0100
0000
0000
0000
,
0100
0000
0000
0000
,
0010
0000
0000
0000
,
0010
0000
0000
0000
,
1000
0000
0000
0000
,
1000
0000
0000
0000
,
0001
0000
0000
0000
,
0001
0000
0000
0000
,
1000
0000
0000
0000
,
1000
0000
0000
0000
,
0001
0000
0000
0000
,
0001
0000
0000
0000
,
1000
0000
0000
0000
,
1000
0000
0000
0000
,
1000
1000
1000
0000
,
1001
0000
0000
0000
,
0010
0000
0000
0000
,
0010
0000
0000
0000
,
0010
0000
0000
0000
,
0010
0000
0000
0000
,
0100
0000
0000
0000
,
0100
0000
0000
0000
,
0100
0000
0000
0000
,
0100
0000
0000
0000
,
0001
0000
0001
0000
,
0001
0000
0000
0000
,
0001
0000
0001
0000
,
0001
0000
0000
0000
,
1000
0000
1000
0000
,
1000
0000
0000
0000
,
1000
0000
1000
0000
,
1000
0000
0000
0000
,
0010
0010
0010
0010
,
0010
0000
1001
0000
,
0110
0000
0000
0000
,
0010
0000
0000
0000
,
0010
0000
0000
0000
,
0100
0000
0000
0000
,
0100
0000
0000
0000
,
0001
0000
0000
0000
,
0001
0000
0000
0000
,
1000
0000
0000
0000
,
1000
1000
1000
0000
,
1000
0000
0000
0000
,
0001
0001
0001
0000
,
0001
0000
0000
0000
,
1000
1000
1000
0000
,
1000
0000
0000
0000
,
0001
0001
0001
0000
,
0001
0000
0000
0000
,
0100
0100
0100
0000
,
0100
0000
0000
0000
,
0010
0010
0010
0000
,
0010
0000
0100
0000
;

//---------------dance-double - ----------------
#NOTES:
     dance-double:
     :
     Easy:
     7:
     0.000000,0.000000,0.000000,0.000000,0.000000,0.000000,0.000000,0.000000,0.000000,0.000000,0.000000,0.000000,0.000000,0.000000,0.000000,0.000000,0.000000,0.000000,0.000000,0.000000,0.000000,0.000000:
00000000
00000000
00000000
00000000
,
00000000
00000000
00000000
00000000
,
00000000
00000000
00000000
00000000
,
00000000
00000000
00000000
00000000
,
10000000
00000000
00000000
10000000
00000000
00000000
00000000
00000000
,
00010000
00000000
00000000
00010000
00000000
00000000
00000000
00000000
,
00100000
00100000
00100000
00001000
,
00010000
00010000
00010000
00000010
,
00000100
00000000
00000000
00000100
00000000
00000000
00000000
00000000
,
00000010
00000000
00000000
00000010
00000000
00000000
00000000
00000000
,
00000100
00000100
00000100
00000010
,
00010000
00010000
00010000
00001000
,
00010000
00000000
00010000
00000000
,
00001000
00010000
00001000
01000000
,
00100000
00000000
00100000
00000000
,
10000000
00000000
10000000
00000000
,
00010000
00000000
00010000
00000000
,
01000000
00001000
00010000
00001000
,
00010000
00000000
00010000
00000000
,
00000010
00000000
00000010
00000000
,
00000100
00000001
00000100
00000010
,
00001000
00000000
00001000
00000000
,
00001000
00000100
00010000
00001000
,
00010000
00000000
00010000
00000000
,
00001000
00001000
00001000
00000000
,
00010000
00000000
01000000
00000000
,
10000000
10000000
10000000
00000000
,
00100000
00000000
01000000
00000000
,
00010000
00010000
10000000
10000000
,
00010000
00000000
10010000
00000000
,
00011000
00000000
00010000
00000000
,
00000100
00000000
00010000
00000000
,
00000010
00000000
00000100
00000000
,
00000001
00000000
00001000
00000000
,
00000100
00000100
00000100
00001000
,
00000100
00000100
00000100
00010000
,
00001000
00010000
00001000
00000000
,
00100000
00100000
00100000
00100000
,
00100000
00000000
00010000
00000000
,
10000000
00000000
01000000
00000000
,
00100000
00000000
01000000
00000000
,
10000000
00000000
00010000
00000000
,
00100000
00100000
00100000
00001000
,
00010000
00010000
00010000
00001000
,
00010000
00010000
00010000
00000010
,
00000100
00000001
00001000
00000000
,
00001000
00001000
00001000
00000100
,
00010000
00010000
00010000
00001000
,
00010000
00010000
00010000
00010000
,
00011000
00101000
00100000
00010000
,
20020000
00000000
00000000
30030000
,
00020000
00000000
00000000
00030000
,
00200000
00000000
00000000
00300000
,
00002000
00000000
00000000
00003000
,
00020000
00000000
00000000
00030000
,
00002000
00000000
00000000
00003000
,
00000020
00000000
00000000
00000030
,
00000002
00000000
00000000
00000003
,
00001000
00001000
00001000
00000000
,
00000010
00000000
00001000
00000000
,
00000100
00000100
00000100
00000000
,
00010000
00000000
00001000
00000000
,
00010000
00010000
00010000
00001000
,
00100000
00010000
10000000
00000000
,
01000000
01000000
01000000
10000000
,
01000000
00100000
00010000
00000000
,
00110000
00101000
00011000
00010010
,
00000100
00001001
00000010
00000100
,
00002002
00000000
00000000
00003003
,
00002000
00000000
00000000
00003000
,
00000200
00000000
00000000
00000300
,
00020000
00000000
00000000
00030000
,
00002000
00000000
00000000
00003000
,
00200000
00000000
00000000
00300000
,
01000000
01000000
10000000
00000000
,
01000000
01000000
10000000
00010000
,
00100000
00010000
00100000
00000000
,
00001000
00010000
00001000
00000000
,
00010000
00000010
00010000
00000010
,
00000100
00000001
00001000
00000000
,
00000100
00000100
00000100
00001000
,
00000010
00000010
00000010
00001000
,
00000100
00000000
00010000
00000000
,
00001000
00000000
00100000
00000000
,
00010000
00010000
00010000
10000000
,
01000000
01000000
01000000
10000000
,
00100000
00100000
00100000
00100000
,
00100000
00000000
10000000
00000000
01000000
00000000
00100000
00010000
;

//---------------dance-double - ----------------
#NOTES:
     dance-double:
     :
     Medium:
     10:
     0.000000,0.000000,0.000000,0.000000,0.000000,0.000000,0.000000,0.000000,0.000000,0.000000,0.000000,0.000000,0.000000,0.000000,0.000000,0.000000,0.000000,0.000000,0.000000,0.000000,0.000000,0.000000:
00000000
00000000
00000000
00000000
,
00000000
00000000
00000000
00000000
,
00000000
00000000
00000000
00000000
,
00000000
00000000
00000000
00000000
,
00010000
01000000
00020000
00030000
,
00110000
00000000
00000000
00100000
00001000
00000000
00010000
00000000
,
00000010
00000100
00000020
00000000
,
00000130
00000001
00000200
00000000
,
00000301
00000100
00000002
00000003
,
00001001
00000000
00000000
00001000
00000100
00000000
00010000
00000000
,
00002000
00000000
00000000
00103000
00010000
00000000
10000000
00000000
,
02000000
00000000
00000000
13000000
00010000
00000000
10000000
00000000
,
00020000
00000000
00100000
00000000
00130000
00000000
00000000
00100000
,
00001000
00010000
00000010
00010000
,
00002000
00100000
00103000
00000000
,
00100000
00000000
00010000
10000000
00000000
10000000
01000000
00000000
,
20000000
00000000
00010000
00000000
30010000
00000000
00000000
00010000
,
00100000
00010000
00000010
00000100
,
00001000
00000000
00000000
00000001
00000000
00000000
00000100
00000000
,
00000000
00000010
00000000
00001000
00000001
00000000
00000011
00000000
,
00002001
00000000
00000000
00000000
00000100
00000000
00000000
00000010
,
00003010
00001000
00001100
00010100
,
00012000
00000000
00000000
00000000
00100000
00000000
00000000
00010000
,
00013000
00000000
00011000
00000000
00001000
00100000
01000000
00000000
,
10000000
01000000
10000000
00010000
,
00100000
00010000
01000000
00001000
,
01002000
00000000
00000000
00013000
00001000
00000000
00010000
00000000
,
00020010
00000000
00000000
00030010
00000100
00000000
00000001
00000100
,
00000101
00001100
00000110
00000101
,
00000001
00001000
00000001
00000000
00001000
00000100
00001000
00000000
,
00000200
00000000
00000000
00010000
00010300
00000000
00001000
00000000
,
00010000
00001000
01000000
00100000
,
02000000
00000000
00000000
00100000
03100000
00000000
10000000
00000000
,
01000000
00010000
01000000
00100000
,
00002000
00000000
00000000
00010000
00013000
00000000
00001000
00000000
,
00010000
00000010
00000001
00000010
,
00000200
00000000
00001000
00000000
00000001
00000301
00000000
00000100
,
00000010
00001000
00000100
00001000
00000010
00000100
00000010
00000000
,
00001000
00000100
00010000
00001000
,
00010000
00000100
00001000
00000100
,
00020000
00000000
00000000
01000000
01030000
00000000
00100000
00000000
,
00010000
00100000
00001000
01000000
,
00020000
00000000
00000000
10000000
00000000
10030000
00000000
00000000
,
20000000
00000000
00000000
00100000
00000000
30100000
00000000
00000000
,
10010000
00000000
00010000
01000000
00001000
00000000
00010000
00000000
,
00001000
00000000
00010000
00000010
00000100
00000000
00000001
00000000
,
00002000
00000000
00000000
00000001
00000000
00003001
00000000
00000000
,
00000002
00000000
00000000
00000010
00000000
00000013
00000000
00000001
,
00000010
00000100
00001000
00000002
00000000
00000000
00000000
00000000
,
00001003
00001100
00000100
00010100
,
00011000
00000000
00000000
00100000
00000000
00000000
00001000
00000000
,
01001000
00000000
00000000
01100000
00000000
00100000
10000000
01000000
,
00200000
00000000
00000000
01300000
00000000
00000000
10000000
00000000
,
00020000
00000000
00100000
00130000
00000000
00010000
00100000
00000000
,
00100000
00000000
00100000
00001000
00000000
00000000
00001000
00000000
,
00010000
00000000
00000010
00010000
00000000
00000000
00000010
00000000
,
00000100
00000000
00000001
00001000
00000001
00000000
00001000
00000000
,
00000100
00000000
00010000
00001000
00010000
00001000
00100000
00000000
,
00020000
00000000
00000000
10000000
10000000
00000000
00000000
01000000
,
01030000
00010000
10010000
00110000
,
00201000
00000000
00000000
00001000
00001000
00000000
00000000
00010000
,
00310000
00100000
00001000
00000010
,
00000002
00000000
00000000
00001000
00001000
00000000
00000100
00000103
,
00000000
00000001
00001000
00000000
00000100
00000000
00010000
00000000
,
00002000
00000000
00000000
00100000
00100000
00000000
00000000
00010000
,
00013000
00000000
00001000
00010000
00001000
00000000
00100000
00001000
,
00100000
00110000
10010000
11000000
,
10000000
01000000
00100000
00000000
01000000
10000000
00010000
00000000
,
00220000
00000000
00000000
00330000
,
00101000
00000000
00001000
00000000
,
00022000
00000000
00000000
00033000
,
00010010
00000000
00000000
00000010
00000100
00000000
00000001
00000000
,
00002002
00000000
00000000
00003003
,
00011000
00000000
00000000
00010000
00001000
00000000
00100000
00000000
,
00010000
00000000
10000000
00000000
01000000
10000000
00000000
10000000
,
00010000
00100000
00010000
10000000
01000000
00100000
00010000
00000000
,
10000000
00010000
00100000
00001000
,
00100000
00001000
00010000
00000010
,
00010000
00000010
00000100
00000001
,
00001000
00000100
00010000
00000100
,
00002000
00000000
00000000
00000100
00000000
00003100
00000000
00001000
,
00000200
00000000
00000000
00010000
00000000
00010300
00000000
00000100
,
00010000
00000000
00010000
00001000
00000000
00001000
01000000
00000000
,
01000000
00100000
01000000
00000000
00100000
10000000
00100000
00000000
,
20000000
00000000
00000000
00010000
00000000
30010000
00000000
00000000
,
00020000
00000000
00000000
00100000
00000000
00100000
00000000
00130000
,
00010000
00100000
01000000
20000000
00000000
00000000
30000000
00000000
,
10010000
00000000
00110000
00000000
00100000
00001000
00010000
00011000
;

//---------------dance-double - ----------------
#NOTES:
     dance-double:
     :
     Hard:
     13:
     0.000000,0.000000,0.000000,0.000000,0.000000,0.000000,0.000000,0.000000,0.000000,0.000000,0.000000,0.000000,0.000000,0.000000,0.000000,0.000000,0.000000,0.000000,0.000000,0.000000,0.000000,0.000000:
00000000
00000000
00000000
00000000
,
00000000
00000000
00000000
00000000
,
00000000
00000000
00000000
00000000
,
00000000
00000000
00000000
00000000
,
10020000
00000000
00000000
10030000
00100000
00000000
01100000
00000000
,
01000000
00001000
00000000
00001000
00010000
00001000
00000000
00010000
,
00000020
00000000
00001000
00001000
00000000
00000000
00000130
00000000
,
00002000
00000000
00000001
00000001
00000000
00000000
00003010
00000000
,
00001002
00000000
00000000
00001003
00000100
00000000
00010100
00000000
,
00001000
00010000
00000000
00010000
00001000
01000000
00100000
00000000
,
00100000
10100000
00100000
00110000
,
00100000
10000000
00100000
01000000
00010000
00100000
02000000
00000000
,
00100000
01000000
10000000
01000000
00010000
01000000
00100000
00001000
,
00100000
00000000
00000000
00000000
00001000
00100000
00000000
00000000
00100000
00010000
00000000
00000000
00010000
01000000
00000000
00000000
,
01000000
00000000
00010000
01000000
00000000
01000000
00001000
00010000
,
00000100
00000000
00000100
00001000
00000000
00001000
00000001
00000010
,
00000200
00000000
00000301
00000100
00000010
00000001
00001000
00000100
,
00010000
00000000
00000000
00000000
00001000
00010000
00000000
00000000
00010000
00001000
00000000
00000000
00001000
00100000
00000000
00000000
,
00100000
00000000
00010000
10000000
01000000
10000000
00010000
00000000
,
00010000
00100000
00000000
00100000
00101000
00000000
00011000
00000000
,
00010020
00000000
00000000
00001000
00001000
00000000
00000000
00000001
,
00000001
00000000
00000000
00001000
00001030
00000000
00000010
00010000
,
00002000
00000000
00000000
00100000
00100000
00000000
00000000
00010000
,
00013000
00000000
00000000
00000000
00001000
00000000
00000000
00000000
00010000
00001000
00010000
00000000
01000000
00000000
10000000
00000000
,
00010000
00000000
10000000
01000000
00010000
01000000
00100000
00010000
,
01000000
00001000
01000000
00000000
00011000
00000000
00010000
00000010
,
00000200
00000000
00000000
00000001
00000301
00000000
00001000
00000010
,
00010000
00001000
00010000
00000100
00000010
00000100
00010000
00000000
,
00011000
01001000
01100000
10010000
,
10000000
00100000
10100000
00000000
00010000
01000000
01010000
00000000
,
10000000
00100000
10000000
00100000
01000000
00001000
01000000
00001000
,
00010000
00001000
00020000
00000000
00030010
00000100
00000010
00001000
,
00000200
00000000
00010300
00001000
01000000
00100000
02000000
00000000
,
03100000
10000000
00100000
00010000
00100000
01000000
00001000
01000000
,
00020000
00000000
00130000
00010000
00100000
00001000
00010000
00000100
,
00000020
00000000
00000031
00000100
00000020
00000000
00001030
00000100
,
00020000
00000000
00001000
00000000
00031000
00100000
00000000
00010000
,
10000000
01000000
00100000
01000000
10000000
00010000
00100000
00001000
,
00010000
00001000
00010000
00001000
00010000
00000010
00010000
00000010
,
00000100
00000010
00000100
00000001
00001000
00000010
00020000
00000000
,
00031000
00010000
00000200
00000000
00010300
00001000
00200000
00000000
,
00310000
00100000
01000000
10000000
01000000
00100000
02000000
00000000
,
13000000
00000000
00020000
01000000
00000000
01000000
00000000
01030000
,
00010000
00000000
00010000
00200000
00000000
00001000
00000000
00301000
,
00100000
00000000
00100000
00010000
00000000
00010000
10000000
00000000
,
10000000
01000000
00000000
01000000
00100000
00001000
00010000
00000000
,
00001000
00010000
00000100
00020000
00000000
00030100
00000000
00000100
,
00001000
00000010
00000001
00000020
00000000
00001030
00000000
00001000
,
00000100
00000100
00000100
00000200
00000000
00000000
00000300
00000000
,
00010100
00011000
00101000
01001000
,
01200000
00000000
00000000
10300000
01000000
00000000
10000000
00000000
,
00010000
00100000
01000000
10000000
01000000
00100000
01000000
00010000
,
01000000
01000000
10000000
00100000
01000000
01000000
00001000
00010000
,
00001000
00001000
00010000
00000010
00000100
00000100
00000001
00000010
,
00000100
00000100
00001000
00000010
00000010
00001000
00000100
00000100
,
00001000
00000001
00000001
00000010
00000100
00000100
00001000
00000100
,
00010000
00001000
00001000
00100000
00010000
00010000
00100000
00001000
,
00001000
00000000
00100000
00000000
00010000
00000000
01000000
00000000
00100000
00000000
10000000
00000000
01000000
10000000
01000000
10000000
,
02000000
00000000
00000000
00010000
00010000
00000000
00000000
10000000
,
13000000
00000000
10000000
00100000
01000000
00001000
00010000
00000000
,
00010020
00000000
00000000
00000100
00000100
00000000
00000000
00001000
,
00001030
00000000
00001000
00000100
00010000
00000100
00000010
00000000
,
00000012
00000000
00000000
00001000
00001003
00000000
00001000
00000100
,
00000000
00000100
00010000
00001000
01000000
00100000
00010000
00000000
,
20100000
00000000
00000000
00010000
00010000
00000000
00000000
00100000
,
30100000
00000000
10000000
00010000
00000000
00010000
01000000
00001000
,
01001000
00101000
00011000
00010100
,
00010010
00000010
00000100
00000000
00000101
00000100
00000010
00000000
,
00002010
00000010
00000100
00000010
,
00003200
00010000
00001000
00010000
,
00002300
00003100
00001200
00010300
,
00020100
00000000
00031000
00000000
00012000
00000000
00000000
00100000
,
00203000
00000000
00000000
00000000
01000000
00000000
00000000
00010000
,
00320000
00000000
10030000
00000000
00120000
00100000
00000000
10030000
,
00010000
00000000
00100000
00000000
01000000
10000000
00000000
01000000
,
00100000
01000000
10000000
00100000
00010000
00100000
10000000
00010000
,
00200000
00000000
00310000
00100000
00010000
01000000
00010000
01000000
,
00002000
00000000
00013000
00000100
00000010
00000001
00001000
00000100
,
00020000
00000000
00031000
00100000
00020000
00000000
10030000
00010000
,
02000000
00000000
03100000
01000000
00001000
01000000
00200000
00000000
,
10300000
00000000
00100000
10000000
00000000
10010000
00000000
00010000
,
00100000
00000000
00100000
00001000
00000000
00011000
00000000
00010000
,
00000010
00000000
00000010
00000100
00000000
00000100
00000001
00000000
,
00000001
00000010
00010000
00000010
00000100
00001000
00000002
00000000
,
00001003
00000100
00001000
00000200
00000000
00010300
00000000
00010000
,
00001000
01000000
00200000
00010000
00000000
10000000
00000000
01300000
,
00100000
00100000
00100000
00200000
00000000
00000000
00300000
00000000
,
10100000
00000000
00000000
00000000
10010000
00000000
00000000
00000000
01000000
00010000
01000000
00000000
00001000
00000000
00011000
00000000
;
