#VERSION:0.83;
#TITLE:MY DRUM MACHINE;
#SUBTITLE:;
#ARTIST:LORN;
#TITLETRANSLIT:;
#SUBTITLETRANSLIT:;
#ARTISTTRANSLIT:;
#GENRE:IDM;
#ORIGIN:;
#TAGS:;
#CREDIT:YonabearCWY;
#BANNER:MY DRUM MACHINE.png;
#BACKGROUND:MY DRUM MACHINE-bg.png;
#PREVIEWVID:;
#JACKET:MY DRUM MACHINE-jacket.png;
#CDIMAGE:;
#DISCIMAGE:;
#LYRICSPATH:;
#CDTITLE:SLEEPING DOGS.png;
#MUSIC:MY DRUM MACHINE.ogg;
#OFFSET:-0.009000;
#SAMPLESTART:42.215187;
#SAMPLELENGTH:15.000000;
#SELECTABLE:YES;
#DISPLAYBPM:125.000000;
#BPMS:0.000000=125.029991
,88.000000=124.979996
,147.750000=125.029991
;
#STOPS:147.750000=0.480000
;
#DELAYS:;
#WARPS:;
#TIMESIGNATURES:0.000000=4=4
;
#TICKCOUNTS:0.000000=4
;
#COMBOS:0.000000=1
;
#SPEEDS:0.000000=1.000000=0.000000=0
;
#SCROLLS:0.000000=1.000000
;
#LABELS:0.000000=Song Start
;
#BGCHANGES:16.000=cube7.mp4=0.800=1=0=1===CrossFade==,
24.000=lines4.mp4=0.800=0=0=1=====,
32.000=cube12.mp4=0.800=0=0=1=====,
40.000=lines4.mp4=0.800=0=0=1=====,
48.000=text11.mp4=0.800=0=0=1=====,
52.000=lines4.mp4=0.800=0=0=1=====,
53.000=text11.mp4=0.800=0=0=1=====,
54.000=lines4.mp4=0.800=0=0=1=====,
55.000=text11.mp4=0.800=0=0=1=====,
56.000=text17.mp4=1.600=0=0=1=====,
63.500=text17.mp4=0.001=0=0=1=====,
64.000=text13.mp4=0.900=0=0=1=====,
72.000=light5.mp4=1.400=0=0=1=====,
79.500=light5.mp4=0.001=0=0=1=====,
80.000=light6.mp4=1.000=0=0=1=====,
86.000=mesh1.mp4=1.000=0=0=1=====,
88.000=ddr13.mp4=0.800=0=0=1=====,
96.000=helix1.mp4=1.000=0=0=1=====,
104.000=ddr13.mp4=0.800=0=1=1=StretchRewind====,
112.000=helix1r.mp4=1.000=0=0=1=====,
120.000=ddr13.mp4=0.800=0=1=1=StretchRewind====,
128.000=helix1.mp4=1.000=0=1=1=StretchRewind====,
136.000=ddr13.mp4=0.800=0=1=1=StretchRewind====,
144.000=helix1r.mp4=0.800=0=1=1=StretchRewind====,
147.750=helix1r.mp4=0.001=0=0=1=====,
148.500=mesh1.mp4=1.000=0=1=1=StretchRewind====,
151.000=ring11.mp4=1.000=0=0=1=====,
159.000=tunnel3.mp4=1.200=0=0=1=====,
167.000=ring11.mp4=1.000=0=0=1=====,
175.000=tunnel3.mp4=1.200=0=0=1=====,
183.000=lines4.mp4=0.800=0=1=1=StretchRewind====,
191.000=text11.mp4=0.800=0=1=1=StretchRewind====,
199.000=light5.mp4=0.800=0=1=1=StretchRewind====,
207.000=light6.mp4=0.800=0=1=1=StretchRewind====,
214.500=MY DRUM MACHINE-bg.png=1.000=0=0=1=====,
99999=-nosongbg-=1.000=0=0=0 // don't automatically add -songbackground-
;
#KEYSOUNDS:;
#ATTACKS:
;

//---------------dance-single - ----------------
#NOTEDATA:;
#CHARTNAME:BEGINNER;
#CHARTHASH:3443870071;
#STEPSTYPE:dance-single;
#BANNER:;
#DESCRIPTION:;
#CHARTSTYLE:;
#DIFFICULTY:Beginner;
#METER:2;
#METERF:2.000000;
#LASTSECONDHINT:103.195831;
#RADARVALUES:0.000000,0.000000,0.000000,0.000000,0.000000,0.000000,0.000000,0.000000,0.000000,0.000000,0.000000,0.000000,0.000000,0.000000,0.000000,0.000000,0.000000,0.000000,0.000000,0.000000,0.000000,0.000000,0.000000,0.000000,0.000000,0.000000,0.000000,0.000000;
#CREDIT:YonabearCWY;
#DISPLAYBPM:125.000000;
#NOTES:
0000
0000
0000
0000
,
0000
0000
0000
0000
,
0000
0000
0000
0000
,
0000
0000
0000
0000
,
1000
1000
0000
0000
,
0001
0001
0000
0000
,
1000
1000
0000
0000
,
0001
0001
0000
0000
,
0100
0100
0000
0000
,
0010
0010
0000
0000
,
0100
0100
0000
0000
,
0010
0010
0000
0000
,
1001
0000
0000
0000
,
0100
0100
0100
0100
,
0100
0000
0100
0000
,
0100
0000
0000
0000
,
0010
0000
0010
0000
,
0010
0000
0000
0000
,
1000
0000
1000
0000
,
1000
0000
0000
0000
,
0001
0000
0001
0000
,
0001
0000
0000
0000
,
1000
1000
1000
0000
,
0000
0000
0000
0000
,
0001
0001
0001
0000
,
0000
0000
0000
0000
,
1000
1000
1000
0000
,
0000
0000
0000
0000
,
0001
0001
0001
0000
,
0000
0000
0000
0000
,
0100
0100
0100
0000
,
0000
0000
0000
0000
,
0010
0010
0010
0000
,
0000
0000
0000
0000
,
0100
0100
0100
0000
,
0000
0000
0000
0000
,
0010
0010
0010
0000
,
0000
0000
0000
1000
,
1000
0000
0000
1000
,
1000
0000
0000
0001
,
0001
0000
0000
0001
,
0001
0000
0000
0100
,
0100
0000
0000
0100
,
0100
0000
0000
0010
,
0010
0000
0000
0010
,
0010
0000
0000
1000
,
0000
1000
0000
1000
,
0000
0000
0000
0001
,
0000
0001
0000
0001
,
0000
0000
0000
0100
,
0000
0100
0000
0100
,
0000
0000
0000
0010
,
0000
0010
0000
0010
,
0000
1001
1001
0000
;

//---------------dance-single - ----------------
#NOTEDATA:;
#CHARTNAME:BASIC;
#CHARTHASH:2774862615;
#STEPSTYPE:dance-single;
#BANNER:;
#DESCRIPTION:;
#CHARTSTYLE:;
#DIFFICULTY:Easy;
#METER:7;
#METERF:7.000000;
#LASTSECONDHINT:103.435776;
#RADARVALUES:0.000000,0.000000,0.000000,0.000000,0.000000,0.000000,0.000000,0.000000,0.000000,0.000000,0.000000,0.000000,0.000000,0.000000,0.000000,0.000000,0.000000,0.000000,0.000000,0.000000,0.000000,0.000000,0.000000,0.000000,0.000000,0.000000,0.000000,0.000000;
#CREDIT:YonabearCWY;
#DISPLAYBPM:125.000000;
#NOTES:
0000
0000
0000
0000
,
0000
0000
0000
0000
,
0000
0000
0000
0000
,
0000
0000
0000
0000
,
1000
1000
0000
0110
,
0001
0001
0000
0110
,
1000
1000
0000
1100
,
0001
0001
0000
0101
,
1000
1001
0000
0010
,
0010
0100
0000
1001
,
0100
0100
0000
0011
,
0001
1001
0000
0100
,
0110
0010
0010
0010
,
0010
1010
0010
0011
,
1001
0000
0010
0100
0010
0000
1000
0000
,
0010
0100
0001
0010
,
1001
0000
0100
0010
0100
0000
0001
0000
,
0010
0001
1000
0010
,
0110
0000
1000
0001
1000
0000
0001
0000
,
0100
0001
0010
0100
,
0110
0000
0001
1000
0001
0000
0100
0000
,
0010
1000
0002
2003
,
3200
0001
0010
0001
,
0310
0000
0001
0100
0001
0000
1000
0000
,
0020
0001
1000
0001
,
1030
0000
0100
0010
0100
0000
0010
0000
,
0002
1000
0023
0001
,
0130
0000
1000
0001
1000
0000
0001
0000
,
0020
0100
0032
1000
,
0013
0000
0001
1000
0001
0000
0110
0000
,
2000
0001
0100
0001
,
3100
0000
1000
0100
0001
0000
1100
0000
,
0002
1000
0010
1000
,
0013
0000
0001
0010
1000
0000
0110
0000
,
1000
0001
1000
0000
0010
0000
0100
0000
,
0001
0010
0001
0000
1000
0000
0100
0000
,
0010
0000
0100
0000
0010
0000
0000
0000
0100
0000
0000
0000
2002
0000
0000
3003
,
0000
0000
0100
0000
0010
0000
0000
0010
0000
0000
0000
0000
1001
0000
0000
0000
,
0100
0100
0000
1001
,
0010
0010
0000
0110
,
1000
1000
0000
0110
,
0001
0001
0000
1000
,
1000
0101
0000
0001
,
0001
1010
0000
0100
,
0100
1100
0000
0010
,
0010
0011
0000
1000
,
1000
0001
0001
0010
,
0010
0100
0200
1300
,
1000
0001
0001
0010
,
0010
0100
0200
0310
,
0010
0001
0001
1000
,
1000
0010
0020
0130
,
0100
0001
0001
1000
,
1000
0000
0100
0000
0100
1001
0000
0000
;

//---------------dance-single - ----------------
#NOTEDATA:;
#CHARTNAME:DIFFICULT;
#CHARTHASH:1692769418;
#STEPSTYPE:dance-single;
#BANNER:;
#DESCRIPTION:;
#CHARTSTYLE:;
#DIFFICULTY:Medium;
#METER:10;
#METERF:10.000000;
#LASTSECONDHINT:103.435776;
#RADARVALUES:0.000000,0.000000,0.000000,0.000000,0.000000,0.000000,0.000000,0.000000,0.000000,0.000000,0.000000,0.000000,0.000000,0.000000,0.000000,0.000000,0.000000,0.000000,0.000000,0.000000,0.000000,0.000000,0.000000,0.000000,0.000000,0.000000,0.000000,0.000000;
#CREDIT:YonabearCWY;
#DISPLAYBPM:125.000000;
#NOTES:
0000
0000
0000
0000
,
0000
0000
0000
0000
,
0000
0000
0000
0000
,
0000
0000
0000
0000
,
1010
0000
0001
0010
0001
0000
0100
0100
,
0001
0010
0100
1000
,
0101
0000
1000
0010
1000
0000
0010
0010
,
0100
0000
0001
0000
1000
0100
1001
0000
,
0010
0010
0101
0000
0010
1000
0010
0000
,
0100
0001
1000
0010
,
0100
0100
1010
0000
0001
0010
0001
0000
,
1000
0000
0100
0000
0010
0001
0010
0001
,
2000
0001
0001
0001
,
3001
1000
0000
0000
0010
0100
0000
0000
0001
1000
0000
0000
0010
0100
0000
0000
,
1000
0100
0010
0100
0001
0000
0110
0000
,
0001
0010
1000
0010
0100
0000
1000
0001
,
0000
0010
0001
0010
0100
0000
1010
0000
,
0100
0010
0001
1000
0001
0010
0100
0000
,
1000
0001
0010
1000
0010
0000
0101
0000
,
1000
0000
0001
0100
0010
1000
0100
0010
,
0000
0001
1000
0100
0010
0000
1100
0000
,
0001
0100
0001
1000
0010
0010
0100
0100
,
0001
0000
1000
0000
0200
0000
0000
0000
0310
0000
0001
0000
0010
0000
0001
0100
,
0000
0010
2000
0000
0100
0100
0100
0000
,
3002
0000
0000
0000
0010
0000
0000
0000
1003
0000
0010
0000
1000
0000
0001
0100
,
0000
0010
0200
0000
0001
0000
1000
0000
,
0302
0000
1000
0000
0010
0010
0013
0000
,
0100
1000
0001
0000
0010
0000
1001
0000
,
0100
0000
0010
0000
2000
0000
0000
0000
3001
0000
0100
0000
0001
0000
0100
0010
,
0000
1000
0200
0000
0010
0010
0310
0000
,
0001
0000
1000
0000
0010
0000
1000
0000
0010
0000
0010
0000
0010
0000
1000
0010
,
0000
0100
0001
0000
0110
0000
1000
0000
,
0001
0000
0100
0000
0001
0000
0100
0000
0010
0000
0010
0000
0010
0000
1000
0001
,
0000
0010
0100
0000
1000
1000
1000
0000
,
0001
0100
0001
0010
0001
1000
0100
1000
,
0010
1001
0100
1010
,
0100
0000
0010
0000
0001
0000
1000
0000
0001
0000
0010
0000
0100
0000
1000
0001
,
0000
0000
0100
0000
0100
0000
0001
1000
0000
0000
0000
0000
1002
0000
0000
0000
,
0013
0000
0100
0000
1000
0000
0100
0000
0010
0000
0000
0001
0200
0000
0000
0000
,
0310
1000
0010
0000
0100
0000
2001
0000
,
3100
0000
0010
0000
0001
0000
0010
0000
0100
0000
0000
1000
0020
0000
0000
0000
,
0001
0000
0100
0100
0130
0000
0001
0100
,
0001
0100
0010
1000
0010
1000
0100
0010
,
0001
1000
0001
1000
0100
0100
0000
1000
,
0010
1000
0010
0100
0001
0100
0001
0010
,
0001
0010
0100
1000
0100
1000
0001
0001
,
0000
0011
0000
1000
0000
1010
0000
0001
,
0000
0101
0000
0100
0000
0120
0000
1030
,
0000
0110
0000
0001
0000
0110
0000
1000
,
0000
0101
0000
0001
1000
0001
0000
1001
,
0000
0100
0000
1001
0000
0010
0000
1100
,
0000
0010
0000
0101
0000
0100
0000
1010
,
0000
0100
0000
0011
0000
0001
0000
1000
,
0001
1000
0001
0010
0100
1001
0000
0000
;

//---------------dance-single - ----------------
#NOTEDATA:;
#CHARTNAME:EXPERT;
#CHARTHASH:2938607529;
#STEPSTYPE:dance-single;
#BANNER:;
#DESCRIPTION:;
#CHARTSTYLE:;
#DIFFICULTY:Hard;
#METER:14;
#METERF:14.000000;
#LASTSECONDHINT:103.435776;
#RADARVALUES:0.610512,0.556486,0.226415,0.283019,0.386792,453.000000,429.000000,24.000000,30.000000,0.000000,0.000000,0.000000,0.000000,0.000000,0.610512,0.556486,0.226415,0.283019,0.386792,453.000000,429.000000,24.000000,30.000000,0.000000,0.000000,0.000000,0.000000,0.000000;
#CREDIT:YonabearCWY;
#DISPLAYBPM:125.000000;
#NOTES:
// measure 0
0000
0000
0000
0000
,  // measure 1
0000
0000
0000
0000
,  // measure 2
0000
0000
0000
0000
,  // measure 3
0000
0000
0000
0000
,  // measure 4
1000
0000
0001
0000
1000
0000
0010
0100
0000
0100
0001
0000
1000
0000
0100
0000
,  // measure 5
0010
0000
0001
0000
0100
0000
0001
1000
0001
1000
0001
0000
0010
0000
0100
1000
,  // measure 6
0001
0000
1000
0000
0100
0000
1000
0001
0000
0001
1000
0000
0010
0000
0100
0000
,  // measure 7
0001
0000
0010
0000
0100
0000
1000
0100
1000
0100
1000
0000
0201
0000
0000
0000
,  // measure 8
0310
0000
1000
0000
1002
0000
0000
0000
0013
0000
0001
1000
0100
0000
1000
0000
,  // measure 9
0001
0000
0010
0000
0100
0000
1000
0001
0000
0001
0010
0000
0100
0000
1000
0100
,  // measure 10
0010
0000
0001
0000
1000
0000
0001
0010
0000
0010
0100
0000
1000
0000
0010
0000
,  // measure 11
0100
0000
0001
0000
0010
0000
0100
1000
0000
1000
0001
1000
0001
0000
1000
0100
,  // measure 12
0002
0100
0100
0103
,  // measure 13
1000
0001
0100
0000
0001
1000
0010
0000
1000
0010
0100
0000
0001
0010
0100
1000
,  // measure 14
0100
1000
0010
1000
0010
0001
0010
0001
,  // measure 15
0010
0000
0100
0000
0010
0000
1000
0000
0010
0000
0100
0000
0001
1000
0002
0000
,  // measure 16
0000
0013
0001
1000
0100
1000
0100
0010
,  // measure 17
0100
0000
0010
0000
0001
0000
0010
0000
0100
0000
1000
0001
0010
0000
0200
0000
,  // measure 18
0000
1300
0101
0001
1000
0010
1000
0010
,  // measure 19
0001
0000
0010
0000
0100
0000
1000
0000
0100
0000
0010
0000
0100
0001
0200
0000
,  // measure 20
0000
0310
1001
0100
0010
0001
0010
1000
,  // measure 21
0010
0000
0001
0000
0100
0000
0010
0000
1000
0100
1000
0100
0001
0100
0001
0100
,  // measure 22
2000
0000
0100
0000
3002
0000
0000
0000
0103
0000
0100
0000
0100
0000
0100
0001
,  // measure 23
0000
0011
2010
0000
3100
0010
0001
1000
,  // measure 24
0002
0000
0010
0000
2003
0000
0000
0000
3010
0000
0010
0000
0010
0000
0010
1000
,  // measure 25
0000
0000
0110
0000
2001
0000
0000
0000
3100
0000
0010
0001
1000
0000
0001
0000
,  // measure 26
0010
0000
0100
0000
0100
0000
0100
0000
1000
0000
0001
0100
0000
0100
0010
0000
,  // measure 27
2100
0000
0000
0000
3001
0000
0010
0000
0100
0000
1000
0001
1000
0001
1000
0000
,  // measure 28
0100
0000
0010
0000
0010
0000
0010
0000
0001
0000
0100
0000
0100
0000
0001
1000
,  // measure 29
0000
0000
0110
0000
0102
0000
0000
0000
1003
0000
0010
0100
0010
0100
0010
0000
,  // measure 30
2000
0000
0001
0000
3020
0000
0000
0000
0130
0000
0100
0000
0100
0000
0100
0010
,  // measure 31
0000
0000
1010
0000
0102
0000
0000
0000
1003
0000
0100
0010
0001
0000
1000
0000
,  // measure 32
0002
0000
1000
0000
0203
0000
0000
0000
0301
0000
0001
0000
0001
0000
0001
0010
,  // measure 33
0000
0000
1100
0000
0012
0000
0000
0000
1003
0000
0001
0010
0001
0010
0001
0000
,  // measure 34
0100
0000
0010
0000
0010
0000
0010
0000
1000
0000
0001
0100
0000
0100
0010
0000
,  // measure 35
0102
0000
0000
0000
1003
0000
0010
0000
0001
0000
0010
0100
0010
0100
0010
0000
,  // measure 36
1000
0000
0100
0000
0100
0000
0100
0000
0010
0000
0001
0000
0001
0000
1000
0001
,  // measure 37
0000
0000
0110
0000
0110
0000
0002
2000
0000
0000
3003
0000
1001
0000
0100
0000
,  // measure 38
0020
0000
0000
0000
0031
0000
0001
0000
0010
0001
0000
0001
1000
0000
0100
0000
,  // measure 39
0012
0000
0000
0000
0103
0000
0100
0000
0100
0000
0000
0010
1001
0000
0010
0000
,  // measure 40
0200
0000
0000
0000
1300
0000
1000
0000
0001
0100
0000
0100
0010
0000
1000
0000
,  // measure 41
0210
0000
0001
0000
0301
0000
0000
1000
0100
0000
0000
0001
0100
0000
1000
0000
,  // measure 42
0100
0000
0010
0000
0010
0001
0000
0001
1000
0000
0010
0000
0100
0000
0001
0000
,  // measure 43
0010
0000
0100
0000
0100
1000
0000
0001
0100
0001
0100
0000
0010
0000
1000
0000
,  // measure 44
0100
0000
0010
0000
0010
0100
0000
0100
1000
0000
0001
0100
0010
0000
0100
0000
,  // measure 45
0001
0000
0010
0000
0010
0001
0000
1000
0010
1000
0010
1000
0010
0000
0100
0000
,  // measure 46
0001
0100
1000
0100
0001
0010
0100
0010
,  // measure 47
1000
0000
0010
0000
0001
0100
0000
0000
0010
2000
0010
0000
3100
0000
0010
0000
,  // measure 48
0001
1000
0100
0010
0100
0001
1000
0010
,  // measure 49
0001
0000
0010
0000
0100
1000
0000
0001
0100
0002
0100
0000
0013
0000
0001
0000
,  // measure 50
1000
0001
0010
0100
0001
1000
0001
0100
,  // measure 51
0010
0000
0001
0000
1000
0010
0000
0100
0001
0200
0000
0000
0310
0000
1000
0000
,  // measure 52
0100
0000
1000
0000
0001
0000
0010
0000
0001
0000
1000
0000
0001
0000
0100
0001
,  // measure 53
1000
0001
1000
0000
1010
0000
0001
1000
0010
0000
1001
0000
0000
0000
0000
0000
;
