#TITLE:MVA;
#SUBTITLE:;
#ARTIST:L.E.D.-G;
#TITLETRANSLIT:;
#SUBTITLETRANSLIT:;
#ARTISTTRANSLIT:;
#GENRE:SPEED CORE;
#CREDIT:YonabearCWY;
#BANNER:MVA.png;
#BACKGROUND:MVA-bg.png;
#LYRICSPATH:;
#CDTITLE:pop'n music.png;
#MUSIC:MVA.ogg;
#OFFSET:-1.815000;
#SAMPLESTART:5.448555;
#SAMPLELENGTH:15.000000;
#SELECTABLE:YES;
#DISPLAYBPM:540.000000;
#BPMS:0.000000=540.000000
,537.000000=1080.000000
,553.000000=270.000000
,617.000000=540.000000
;
#STOPS:
;
#BGCHANGES:1.000=arrows1-fast.mp4=2.000=0=0=1===CrossFade_Fastest==,
33.000=fire1.mp4=2.000=0=0=1=====,
65.000=tunnel3-fast.mp4=2.000=0=0=1=====,
97.000=tunnel2-fast.mp4=2.000=0=0=1=====,
145.000=arrows1-fast.mp4=2.000=0=0=1=====,
149.000=tunnel2-fast.mp4=2.000=0=0=1=====,
153.000=arrows1-fast.mp4=2.000=0=0=1=====,
155.000=tunnel2-fast.mp4=2.000=0=0=1=====,
157.000=arrows1-fast.mp4=2.000=0=0=1=====,
159.000=tunnel2-fast.mp4=2.000=0=0=1=====,
161.000=text15-fast.mp4=2.000=0=0=1=====,
193.000=wheel2-fast.mp4=2.000=0=0=1=====,
225.000=tunnel15-fast.mp4=2.000=0=0=1=====,
257.000=timer1.mp4=2.000=0=0=1=====,
289.000=fire3.mp4=4.000=0=0=1=====,
321.000=fire1.mp4=2.000=0=0=1=====,
353.000=smoke2.mp4=3.000=0=0=1=====,
385.000=timer1.mp4=2.000=0=1=1=StretchRewind====,
401.000=wheel2-fast.mp4=2.000=0=1=1=StretchRewind====,
417.000=tunnel2-fast.mp4=2.000=0=1=1=StretchRewind====,
449.000=tunnel3-fast.mp4=2.000=0=1=1=StretchRewind====,
481.000=tunnel15-fast.mp4=2.000=0=1=1=StretchRewind====,
513.000=fire1.mp4=2.000=0=1=1=StretchRewind====,
537.000=fire1-fast.mp4=2.000=0=0=1=====,
553.000=fire3.mp4=1.000=0=1=1=StretchRewind====,
585.000=tunnel2.mp4=1.000=0=0=1=====,
613.000=fire6.mp4=1.000=0=0=1=====,
617.000=fire6.mp4=2.000=0=0=1=====,
649.000=smoke2.mp4=4.000=0=1=1=StretchRewind====,
681.000=fire1.mp4=2.000=0=1=1=StretchRewind====,
745.000=arrows1-fast.mp4=2.000=0=1=1=StretchRewind====,
753.000=timer1.mp4=2.000=0=1=1=StretchRewind====,
761.000=arrows1-fast.mp4=2.000=0=0=1=====,
763.000=timer1.mp4=2.000=0=0=1=====,
765.000=arrows1-fast.mp4=2.000=0=0=1=====,
767.000=timer1.mp4=2.000=0=0=1=====,
769.000=arrows1-fast.mp4=2.000=0=0=1=====,
771.000=timer1.mp4=2.000=0=0=1=====,
777.000=tunnel2-fast.mp4=2.000=0=1=1=StretchRewind====,
809.000=arrows1-fast.mp4=2.000=0=1=1=StretchRewind====,
825.000=tunnel2-fast.mp4=2.000=0=0=1=====,
829.000=arrows1-fast.mp4=2.000=0=0=1=====,
833.000=tunnel2-fast.mp4=2.000=0=0=1=====,
835.000=arrows1-fast.mp4=2.000=0=0=1=====,
837.000=tunnel2-fast.mp4=2.000=0=0=1=====,
839.000=arrows1-fast.mp4=2.000=0=0=1=====,
841.000=text15-fast.mp4=2.000=0=1=1=StretchRewind====,
873.000=wheel2-fast.mp4=2.000=0=1=1=StretchRewind====,
905.000=fire1.mp4=2.000=0=1=1=StretchRewind====,
937.000=timer1.mp4=2.000=0=1=1=StretchRewind====,
953.000=fire3.mp4=4.000=0=1=1=StretchRewind====,
969.000=MVA-bg.png=1.000=0=0=1=====,
99999=-nosongbg-=1.000=0=0=0 // don't automatically add -songbackground-
;
#KEYSOUNDS:;
#ATTACKS:;

//---------------dance-single - ----------------
#NOTES:
     dance-single:
     BEGINNER:
     Beginner:
     12:
     0.000000,0.000000,0.000000,0.000000,0.000000,0.000000,0.000000,0.000000,0.000000,0.000000,0.000000,0.000000,0.000000,0.000000,0.000000,0.000000,0.000000,0.000000,0.000000,0.000000,0.000000,0.000000:
0000
1001
0000
0000
,
0000
1001
0000
0000
,
0000
0110
0000
0000
,
0000
0110
0000
0000
,
0000
0001
0000
0001
,
0000
1000
0000
1000
,
0000
0010
0000
0000
,
0000
0110
0000
0000
,
0000
1000
0000
0001
,
0000
1000
0000
0001
,
0000
1000
0000
0001
,
0000
1000
0000
0001
,
0000
0010
0000
0100
,
0000
0010
0000
0100
,
0000
0010
0000
0100
,
0000
0010
0000
0100
,
0000
0010
0000
0001
,
0000
0010
0000
1000
,
0000
0010
0000
0001
,
0000
0100
0000
0010
,
0000
0000
1010
0000
,
0000
0101
0000
0000
,
1001
0000
0000
0100
,
0000
0010
0000
0100
,
0000
0010
0000
0000
,
0000
0010
0000
0000
,
0000
0100
0000
0000
,
0000
0100
0000
0000
,
0000
0001
0000
0000
,
0000
0001
0000
0000
,
0000
1000
0000
0000
,
0000
1000
0000
0000
,
0000
0110
0000
0000
,
0000
0110
0000
0000
,
0000
1001
0000
0000
,
0000
1001
0000
0000
,
0000
0100
0000
0010
,
0000
0100
0000
0010
,
0000
1000
0000
0001
,
0000
1000
0000
0001
,
0000
0010
0000
0000
,
0000
0010
0000
0000
,
0000
0001
0000
1000
,
0000
0010
0000
0100
,
0000
0001
0000
0000
,
0000
0001
0000
0000
,
0000
0001
0000
0010
,
0000
0100
0000
1000
,
0000
0100
0000
0000
,
0000
0100
0000
0000
,
0000
1000
0000
0010
,
0000
0100
0000
0001
,
0000
0010
0000
0010
,
0000
0001
0000
0001
,
0000
1000
0000
0010
,
0000
0100
0000
0001
,
0000
1000
0000
0010
,
0000
1000
0000
0010
,
0000
1000
0000
0010
,
0000
1000
0000
0010
,
0000
1000
0000
0100
,
0000
1000
0000
0100
,
0000
1000
0000
0100
,
0000
1000
0000
0100
,
0000
0010
0000
0001
,
0000
0010
0000
0001
,
0000
0010
0000
0001
,
0000
0010
0000
0001
,
0000
0000
1001
0000
,
0000
0011
0000
0000
,
0101
0000
0000
0110
,
0000
0010
0000
1000
,
0000
1002
0000
0000
,
0000
1003
0000
0000
,
0000
2001
0000
0000
,
0000
3001
0000
0000
,
0000
0120
0000
0000
,
0000
0130
0000
0000
,
0000
0210
0000
0000
,
0000
0310
0000
0000
,
0000
1000
0000
1000
,
0000
1000
0000
0000
,
0000
0001
0000
0001
,
0000
0001
0000
0000
,
0000
0100
0000
0100
,
0000
0100
0000
0000
,
0000
0010
0000
0010
,
0000
0010
0000
0000
,
0000
0100
0000
0000
,
0000
0100
0000
0010
,
0000
0100
0000
0000
,
0000
0010
0000
1000
,
0000
0010
0000
0000
,
0000
1000
0000
0001
,
0000
1000
0000
0000
,
0000
0001
0000
0010
,
0000
0001
0000
0000
,
0000
0100
0000
0001
,
0000
0010
0000
0000
,
0000
0100
0000
0010
,
0000
2002
0000
0000
,
0000
0000
0000
3003
,
0000
1001
0000
0000
,
0000
0110
0000
0000
,
0000
1000
0000
1000
,
0000
1000
0000
0000
,
0000
0001
0000
0000
,
0000
0001
0000
0000
,
0000
0010
0000
0010
,
0000
0010
0000
0000
,
0000
0100
0000
0000
,
0000
0100
0000
0000
,
0000
1000
0000
1000
,
0000
1000
0000
0000
,
0000
0010
0000
0100
,
0000
0001
0000
0000
,
0000
0010
0000
0010
,
0000
0010
0000
0000
,
0000
0001
0000
0010
,
0000
0100
0000
0000
,
0000
1000
0000
0001
,
0000
0010
0000
0000
,
0000
0100
0000
0100
,
0000
0100
0000
0000
,
0000
1000
0000
0100
,
0000
0010
0000
0000
,
0000
0001
0000
0001
,
0000
0001
0000
0000
,
0000
1000
0000
0000
,
0000
0001
0000
0000
,
0000
1000
0000
0000
,
0000
0001
0000
0000
,
0000
1000
0000
0001
,
0000
1000
0000
0001
,
0000
2000
0000
0000
,
0000
0000
0000
0000
,
0000
0000
0000
0000
,
0000
0000
0000
3000
,
0000
2002
0000
0000
,
0000
0000
0000
0000
,
3003
0220
0000
0000
,
0000
0000
0000
0000
,
0330
2002
0000
0000
,
0000
0000
0000
0000
,
3003
0220
0000
0000
,
0000
0000
0000
0000
,
0330
1000
0000
1000
,
0000
0001
0000
0001
,
0000
0010
0000
0010
,
0000
0100
0000
0100
,
0000
0010
0000
0010
,
0000
0001
0000
0001
,
0000
1000
0000
1000
,
0000
0001
0000
0110
,
0000
1000
0000
0000
,
0000
0010
0000
0000
,
0000
1000
0000
0000
,
0000
0010
0000
0000
,
0000
0100
0000
0000
,
0000
0001
0000
0000
,
0000
0100
0000
0000
,
0000
0001
0000
0000
,
0000
1001
0000
0000
,
0000
1001
0000
0000
,
0000
0110
0000
0000
,
0000
0110
0000
0000
,
0000
1100
0000
0000
,
0000
1100
0000
0000
,
0000
0011
0000
0000
,
0000
0012
0000
0000
,
0000
2003
0000
0000
,
0000
3000
0000
0000
,
0000
2000
0000
0000
,
0000
3000
0000
0000
,
0000
0002
0000
0000
,
0000
0003
0000
0000
,
0000
0002
0000
0000
,
0000
0003
0000
0000
,
0000
0020
0000
0000
,
0000
0030
0000
0000
,
0000
0020
0000
0000
,
0000
0030
0000
0000
,
0000
0200
0000
0000
,
0000
0300
0000
0000
,
0000
0200
0000
0000
,
0000
0300
0000
0000
,
0000
2002
0000
0000
,
0000
0000
0000
3003
,
0000
0220
0000
0000
,
0000
0000
0000
0330
,
0000
1001
0000
0000
,
0000
1001
0000
0000
,
0000
0110
0000
0000
,
0000
0110
0000
0000
,
0000
0001
0000
0000
,
0000
0001
0000
0000
,
0000
0001
0000
0100
,
0000
0001
0000
0000
,
0000
1000
0000
0000
,
0000
1000
0000
0000
,
0000
1000
0000
0010
,
0000
1000
0000
0000
,
0000
0010
0000
0000
,
0000
0010
0000
0000
,
0000
0100
0000
0010
,
0000
0100
0000
0000
,
0000
1001
0000
0000
,
0000
1001
0000
0000
,
0000
0010
0000
0010
,
0000
0010
0000
0010
,
0000
0010
0000
0000
,
0000
1000
0000
0000
,
0000
0010
0000
0100
,
0000
0010
0000
0100
,
0000
0001
0000
0000
,
0000
0001
0000
0000
,
0000
0010
0000
0001
,
0000
0010
0000
0001
,
0000
1000
0000
0000
,
0000
1000
0000
0000
,
0000
1000
0000
0010
,
0000
0100
0000
0001
,
0000
0010
0000
0000
,
0000
0001
0000
0000
,
0000
1000
0000
0000
,
0000
0010
0000
0000
,
0000
0100
0000
0001
,
0000
0100
0000
0001
,
0000
0010
0000
0001
,
0000
0010
0000
0100
,
0000
1000
0000
0100
,
0000
1000
0000
0001
,
0000
1000
0000
0001
,
0000
0100
0000
0010
,
0000
1000
0000
0010
,
0000
1000
0000
0010
,
0000
0100
0000
0010
,
0000
0100
0000
0001
,
0000
0000
1001
0000
,
0000
0011
0000
0000
,
1100
0000
0000
0110
,
0000
0000
1000
0000
,
2002
0000
0000
0000
,
0000
0000
0000
0000
,
0000
0000
0000
0000
,
0000
0000
0000
0000
,
3003
0000
0000
0000
;

//---------------dance-single - ----------------
#NOTES:
     dance-single:
     BASIC:
     Easy:
     15:
     0.000000,0.000000,0.000000,0.000000,0.000000,0.000000,0.000000,0.000000,0.000000,0.000000,0.000000,0.000000,0.000000,0.000000,0.000000,0.000000,0.000000,0.000000,0.000000,0.000000,0.000000,0.000000:
0000
1001
0000
0000
,
0000
0110
0000
0000
,
0000
1100
0000
0000
,
0000
0011
0000
0000
,
0000
0110
0000
0110
,
0000
1001
0000
1001
,
0000
0010
0000
0100
,
0000
2002
0000
3003
,
0000
0001
0100
0001
,
0100
0001
0010
0001
,
0010
0001
1000
0010
,
1000
0010
1000
0001
,
1000
0001
0100
0010
,
0100
0010
1000
0001
,
0010
0001
0010
0100
,
1000
0100
0000
0100
,
0000
0100
1000
0010
,
1000
0010
0100
0001
,
0010
0001
1000
0010
,
1000
0100
0010
0001
,
0100
0000
0110
0000
,
0000
1010
0000
0000
,
0101
0000
0000
0100
,
0000
0001
0000
0010
,
0000
0100
1000
0100
,
0000
1000
0000
0001
,
0000
0100
0000
0010
,
0000
0100
0000
0001
,
0010
0001
0000
0010
,
0000
0001
0000
1000
,
0000
0010
0000
0100
,
0000
0001
0000
0001
,
0000
0010
0001
0010
,
0000
0100
0000
0010
,
0000
0100
0000
1000
,
0000
0001
0000
1000
,
0010
1000
0000
1000
,
0000
0001
0000
0001
,
0000
0110
0000
0110
,
0000
1001
0000
1001
,
0000
0001
0010
0000
,
0001
0010
0000
0001
,
0010
0000
0001
0010
,
0000
0001
1000
0001
,
0000
1000
0010
0000
,
1000
0010
0000
1000
,
0010
0000
1000
0010
,
0000
1000
0001
1000
,
0000
0010
0100
0000
,
0100
0010
0000
0010
,
0100
0000
0100
0010
,
1000
0010
0000
0100
,
0000
0001
1000
0000
,
1000
0001
0000
0001
,
1000
0000
1000
0001
,
0010
0001
0000
0010
,
0000
0100
1000
0010
,
1000
0010
0100
0001
,
0100
0001
0010
0001
,
0100
0010
1000
0100
,
1000
0100
0010
0001
,
1000
0001
1000
0010
,
0100
0010
0100
0001
,
0010
0001
0000
0001
,
0000
0001
1000
0100
,
0010
0001
0010
0100
,
1000
0010
0100
0010
,
1000
0010
0100
0010
,
1000
0000
1010
0000
,
0000
0101
0000
0000
,
0110
0000
0000
1000
,
0000
0001
0000
0010
,
0000
1100
0000
0000
,
2200
0000
0000
3300
,
0000
0011
0000
0000
,
0022
0000
0000
0033
,
0000
0110
0000
0000
,
0220
0000
0000
0330
,
0000
1001
0000
0000
,
2002
0000
0000
3003
,
0000
1000
0000
0010
,
0000
2020
0000
3030
,
0000
0001
0000
0100
,
0000
0202
0000
0303
,
0000
1000
0000
0001
,
0000
0220
0000
0330
,
0000
0010
0000
0100
,
0000
2002
0000
3003
,
0000
1000
0000
1000
,
0000
0010
0000
1000
,
0000
0001
0000
0001
,
0000
0100
0000
0001
,
0000
0010
0000
0010
,
0000
0100
0000
1000
,
0000
0001
0000
0001
,
0000
1000
0010
1000
,
0000
0010
0000
0010
,
0000
0100
0000
0001
,
0000
0010
0000
0010
,
0000
0001
0000
0100
,
0000
2002
0000
0000
,
0000
0000
0000
3003
,
0000
0110
0000
1000
,
0001
0000
0200
0000
,
0000
0310
1000
0010
,
0000
1000
0000
0001
,
0000
0100
0000
0001
,
0000
0100
0000
0010
,
0000
1000
0001
1000
,
0000
0001
0000
0010
,
0000
0100
1000
0100
,
0000
0010
0000
0001
,
0000
1000
0001
1000
,
0000
0001
0000
0100
,
0000
0001
0000
0010
,
0000
0100
0000
1000
,
0000
0001
0100
0001
,
0000
0010
0000
0001
,
0000
1000
0010
1000
,
0000
2001
0000
0000
,
0000
3010
0000
0010
,
0000
0010
0000
0100
,
0000
0001
0000
0001
,
0000
0001
0000
1000
,
0000
0100
0000
0100
,
0000
0100
0000
0010
,
0000
1001
0000
0010
,
0000
0100
0000
0010
,
0000
0001
0000
0010
,
0000
0001
0000
0010
,
0000
0100
0000
0010
,
0000
0100
0000
1000
,
0000
0001
0000
1000
,
0001
1000
0001
1000
,
0001
2000
0000
0000
,
0000
0000
0000
0000
,
0000
0000
0000
0000
,
0000
0000
0000
3000
,
0000
0220
0000
0000
,
0000
0000
0000
0000
,
0330
2200
0000
0000
,
0000
0000
0000
0000
,
3300
0202
0000
0000
,
0000
0000
0000
0000
,
0303
2002
0000
0000
,
0000
0000
0000
0000
,
3003
2000
0000
0001
,
0000
3010
0100
0002
,
0000
0023
0000
0100
,
0000
0031
1000
0020
,
0000
0230
0000
1000
,
0000
0301
1000
0002
,
0000
2003
0000
0010
,
0000
3100
0010
2001
,
0000
3001
0000
0001
,
0000
0001
0000
0001
,
0000
0010
0000
0010
,
0000
0010
0000
0010
,
0000
0100
0000
0100
,
0000
0100
0000
0100
,
0000
1000
0000
1000
,
0000
1000
0000
1000
,
0000
2002
0000
0000
,
0000
0000
0000
3003
,
0000
2020
0000
0000
,
0000
0000
0000
3030
,
0000
0202
0000
0000
,
0000
0000
0000
0303
,
0000
0220
0000
0330
,
0000
1002
0000
0000
,
0000
1003
0000
0010
,
0000
1000
0020
0000
,
0000
0130
0000
0001
,
0000
0100
0002
0000
,
0000
0013
0000
0100
,
0000
0010
0200
0000
,
0000
1300
0000
0001
,
1000
0002
0000
0000
,
0000
0013
0000
0001
,
0000
0100
0002
0000
,
0000
0013
0000
0100
,
0000
1000
0020
0000
,
0000
0130
0000
0001
,
0000
0010
0100
0010
,
0000
0100
0000
1000
,
0000
0001
1000
0001
,
0000
0220
0000
0000
,
0000
0000
0000
0330
,
0000
2002
0000
0000
,
0000
0000
0000
3003
,
0000
1100
0000
0000
,
0000
0011
0000
0000
,
0000
0100
0000
0010
,
0000
0100
0000
0001
,
0000
1000
0000
1000
,
0000
0010
0000
0010
,
0000
0100
0000
0100
,
0000
0001
0000
0010
,
0000
0100
0000
0100
,
0000
1000
0000
1000
,
0000
0010
0000
0100
,
0000
0001
0010
0001
,
0000
1000
0000
1000
,
0000
0001
0000
0001
,
0000
1000
0000
0010
,
0000
0100
0000
0100
,
0000
0001
0010
0001
,
0000
1000
0010
1000
,
0000
0001
0000
0100
,
0000
0010
0000
1000
,
0000
0010
1000
0000
,
0010
1000
0000
0010
,
1000
0000
0010
1000
,
0000
0010
0000
0100
,
0000
0001
0010
0000
,
0001
0010
0000
0001
,
0010
0000
0001
0010
,
0000
0001
1000
0001
,
0000
1000
0010
0000
,
0100
0010
0000
1000
,
0010
0000
1000
0001
,
0000
0100
0000
0001
,
0000
0010
0100
0000
,
0010
1000
0000
0100
,
0010
0000
0001
1000
,
0000
0010
0000
0100
,
0000
0001
0010
0001
,
0010
0100
1000
0100
,
1000
0001
1000
0001
,
0100
0010
0100
0010
,
1000
0010
1000
0100
,
0010
0100
0010
0001
,
1000
0001
1000
0010
,
0100
0001
0010
0100
,
1000
0001
1000
0010
,
0100
0001
0010
0100
,
1000
0001
0100
0010
,
1000
0100
0010
0001
,
1000
0000
0101
0000
,
0000
0011
0000
0000
,
1001
0000
0000
0010
,
0000
0100
0000
0010
,
0000
2002
0000
0000
,
0000
0000
0000
0000
,
0000
0000
0000
0000
,
0000
0000
0000
0000
,
3003
0000
0000
0000
;

//---------------dance-single - ----------------
#NOTES:
     dance-single:
     DIFFICULT:
     Medium:
     16:
     0.000000,0.000000,0.000000,0.000000,0.000000,0.000000,0.000000,0.000000,0.000000,0.000000,0.000000,0.000000,0.000000,0.000000,0.000000,0.000000,0.000000,0.000000,0.000000,0.000000,0.000000,0.000000:
0000
1002
0000
0000
,
0203
0010
0000
0000
,
0302
0100
0000
0000
,
1003
0020
0000
0130
,
0001
0100
0000
0100
,
0000
0010
0000
0010
,
0000
1001
0000
0110
,
0000
1002
0000
0000
,
0000
1003
0010
1000
,
0010
0100
0001
0100
,
0001
0010
0001
0010
,
0100
0010
0100
1000
,
0001
1000
0001
0000
,
0001
0010
0000
0010
,
0100
0000
0100
1000
,
0000
1000
0001
1000
,
0001
0010
0100
0010
,
0100
0010
0001
0010
,
0100
1000
0001
1000
,
0010
1000
0001
0100
,
0010
0000
1010
0000
,
0000
0011
0000
0000
,
1001
0000
0000
0110
,
0000
1010
0000
0101
,
0000
1000
0010
1000
,
0000
0010
0000
0100
,
0000
0001
0000
0010
,
0000
0001
0000
1000
,
0000
0010
0100
0010
,
0000
1000
0000
0100
,
0000
0001
0000
0100
,
0000
1001
0000
1001
,
0000
0010
0100
0001
,
0000
0010
0000
0001
,
0000
0100
0000
0001
,
0000
0010
0000
0001
,
0000
1000
0100
0010
,
0000
0100
0010
0001
,
0000
0110
0000
0110
,
0000
1001
0000
1001
,
0000
1000
0010
0000
,
0010
0100
0000
0100
,
0001
0000
0001
0010
,
0001
0010
0100
0001
,
0100
1000
0001
0000
,
0001
1000
0000
1000
,
0010
0000
0010
0100
,
0001
0100
0010
1000
,
0010
0100
0001
0000
,
0001
0010
0000
0010
,
0100
0000
0100
1000
,
0100
0010
0001
1000
,
0001
1000
0010
1000
,
0000
0001
0100
0000
,
0100
0010
0000
0010
,
1000
0010
0100
0001
,
0010
0100
1000
0001
,
0100
0001
1000
0010
,
1000
0100
0010
0100
,
0010
0001
1000
0001
,
0100
0010
1000
0000
,
1000
0100
0000
0100
,
0001
0000
0001
0100
,
1000
0100
0010
0100
,
1000
0100
1000
0001
,
1000
0010
0100
0001
,
0100
0010
0001
0010
,
0100
0010
1000
0010
,
0100
0000
0110
0000
,
0000
0101
0000
0000
,
1001
0000
0000
1100
,
0000
0011
0000
0110
,
0000
1001
0000
0000
,
2002
0000
0000
3003
,
0000
1100
0000
0000
,
2200
0000
0000
3300
,
0000
0011
0000
0000
,
0022
0000
0000
0033
,
0000
0110
0000
0000
,
0220
0000
0000
0330
,
0000
1010
0000
1000
,
0001
0200
0000
0000
,
0300
0011
0000
0001
,
1000
0020
0000
0000
,
0030
1100
0000
0001
,
0010
0200
0000
0000
,
0300
0101
0000
0000
,
1010
0000
0010
0100
,
0010
0100
0000
0001
,
0000
0010
0000
0001
,
0000
1000
0000
0010
,
0000
0100
0000
1000
,
0000
0100
0000
0010
,
0000
0100
0000
0010
,
0000
1001
0000
1010
,
0000
0101
0000
1001
,
0000
0110
0000
1000
,
0000
0001
0000
1000
,
0000
0011
0000
0001
,
0000
0100
0000
0010
,
0000
2002
0000
0000
,
0000
0000
0000
3003
,
0000
1002
0000
0103
,
0010
0000
0210
0000
,
0000
0302
0000
0013
,
0100
0010
0000
0100
,
0000
2000
0000
3001
,
1000
0001
0000
0100
,
0000
0010
1000
0010
,
2000
0000
0000
0010
,
0000
3001
0100
0001
,
0100
0010
0000
1001
,
0000
0100
0001
0010
,
0000
0011
0000
1001
,
0000
1000
0100
0010
,
0000
0101
0000
1001
,
0000
0010
0100
0001
,
0000
0110
0000
1001
,
0000
0001
0100
0000
,
0100
0010
0000
0010
,
1000
0001
0010
0100
,
0000
1100
0000
1001
,
0000
0010
0100
0001
,
0000
0011
0000
1001
,
0000
1000
0100
0001
,
0000
1100
0000
0101
,
0000
0001
0010
1000
,
0000
0011
0000
0110
,
0000
1000
0000
1000
,
0000
0001
0000
0001
,
0000
0010
0000
0010
,
0000
0100
0000
0100
,
0000
1000
0001
1000
,
0001
1000
0001
1000
,
0001
2000
0000
0000
,
0000
0000
0000
0000
,
0000
0000
0000
0000
,
0000
0000
0000
3000
,
0000
2002
0000
0000
,
0000
0000
0000
0000
,
3003
0220
0000
0000
,
0000
0000
0000
0000
,
0330
2020
0000
0000
,
0000
0000
0000
0000
,
3030
0022
0000
0000
,
0000
0000
0000
0000
,
0033
2001
0000
3001
,
0010
0002
0000
0103
,
0010
0200
0000
0301
,
1000
0002
0000
0013
,
0100
0020
0000
0031
,
1000
0200
0000
0310
,
0001
2000
0000
3010
,
0100
0101
1001
0120
,
0000
1030
0000
1000
,
0000
1000
0000
1000
,
0000
0100
0000
0100
,
0000
0100
0000
0100
,
0000
0010
0000
0010
,
0000
0010
0000
0010
,
0000
0001
0000
0001
,
0000
0001
0000
0001
,
0000
0100
0000
0100
,
0000
0101
0000
1001
,
0000
0010
0000
0010
,
0000
1010
0000
1100
,
0000
0001
0000
0001
,
0000
0011
0000
1001
,
0000
0110
0000
1010
,
0000
0210
0000
0000
,
0000
0301
1000
0001
,
1000
0020
0000
0000
,
0000
0130
0001
0100
,
0001
2000
0000
0000
,
0000
3100
0010
0100
,
0010
0002
0000
0000
,
0000
0013
0100
0010
,
0001
2000
0000
0000
,
0000
3010
0100
0010
,
0001
0020
0000
0000
,
0000
1030
0010
0100
,
0010
0200
0000
0000
,
0000
0301
1000
0010
,
0100
0020
0000
0000
,
0000
1030
0100
0001
,
0100
2000
0000
3000
,
0000
2002
0000
0000
,
0000
0000
0000
3003
,
0000
0220
0000
0000
,
0000
0000
0000
0330
,
0000
1001
0000
0001
,
0000
0101
0000
0001
,
0000
1001
0000
1000
,
0000
1010
0000
1001
,
0000
0001
0010
0001
,
0000
0100
0000
0010
,
0000
1000
0000
0010
,
0000
0100
0000
0001
,
0000
0010
0100
0010
,
0000
0100
0000
1000
,
0000
0001
0000
1000
,
0000
0100
1000
0100
,
0010
0001
0100
0010
,
0000
1000
0000
0001
,
0000
1000
0000
0010
,
0000
1000
0100
0010
,
0001
1000
0001
0000
,
1000
0001
1000
0000
,
0000
0101
0000
0011
,
0000
1001
0000
1010
,
0000
0020
0100
0000
,
0230
0001
0000
0302
,
0010
0000
0013
0001
,
1000
0010
1000
0100
,
1000
0002
0100
0000
,
0203
0010
0000
0320
,
1000
0000
2030
0100
,
0000
3100
0010
0001
,
0000
2000
0001
0000
,
3002
1000
0000
0203
,
0010
0000
0320
0100
,
0000
0130
0001
0010
,
0001
2000
0100
0000
,
3200
0010
0000
0320
,
0001
0000
0031
1000
,
0000
1000
0001
1000
,
0010
0100
0001
0000
,
0001
0010
0000
0010
,
0100
0000
0100
1000
,
0100
0001
0100
1000
,
0010
0100
0001
0000
,
0001
0010
0000
0010
,
1000
0000
1000
0010
,
0001
0010
1000
0010
,
0100
0010
0001
0100
,
0000
0100
0010
0000
,
0010
1000
0000
1000
,
0100
0010
0001
1000
,
0010
0100
0001
1000
,
0000
0001
1000
0000
,
0010
0100
0000
0010
,
0100
0001
1000
0100
,
0010
2002
0000
0000
,
0000
0000
0000
0000
,
0000
0000
0000
0000
,
0000
0000
0000
0000
,
3003
0000
0000
0000
;

//---------------dance-single - ----------------
#NOTES:
     dance-single:
     EXPERT:
     Hard:
     19:
     0.000000,0.000000,0.000000,0.000000,0.000000,0.000000,0.000000,0.000000,0.000000,0.000000,0.000000,0.000000,0.000000,0.000000,0.000000,0.000000,0.000000,0.000000,0.000000,0.000000,0.000000,0.000000:
0000
2001
0000
0000
,
3100
0020
0000
0000
,
0031
2000
0000
0000
,
3001
0200
0000
0310
,
1000
1010
0000
1001
,
0000
0011
0000
0101
,
0000
0110
0000
1100
,
0000
1002
0000
0000
,
0000
1003
0001
0010
,
0001
0100
0010
0100
,
0001
1000
0010
1000
,
0100
0010
0001
0100
,
0001
0010
0100
1000
,
0001
1000
0010
0100
,
0001
0000
0001
1000
,
0000
1000
0010
0000
,
0010
0100
0001
0100
,
0001
0010
0001
0010
,
0100
1000
0001
1000
,
0010
0100
0001
1000
,
0010
0000
0000
0000
0010
1000
0020
0000
,
0000
0000
0130
0001
0200
0000
0000
0000
,
0301
0010
0002
0000
0000
0000
1003
0000
,
0001
0010
0100
1000
,
0001
1000
0010
1000
,
0000
1100
0000
1001
,
0000
0011
0000
0101
,
0000
0110
0000
0010
,
0100
0101
0000
0011
,
0000
0110
0000
1010
,
0000
1001
0000
0101
,
0000
0110
0000
1100
,
0000
1000
0001
0101
,
0000
0011
0000
1001
,
0000
0110
0000
1010
,
0000
1100
0000
0101
,
0000
0001
0010
0001
,
0000
1000
0010
1000
,
0000
0001
1000
0001
,
1000
0100
0010
0100
,
0010
0002
1000
0000
,
2003
0010
0000
3020
,
0100
0000
0130
0001
,
0010
0001
1000
0010
,
1000
0200
0010
0000
,
0320
0001
0000
0032
,
1000
0000
1003
0001
,
0010
0001
0100
1000
,
0100
0001
1000
0010
,
1000
0001
0100
0001
,
0020
0000
0130
1000
,
0100
0001
0100
1000
,
0010
0100
0001
1000
,
0000
1000
0010
0000
,
0010
0100
0000
0100
,
0001
0000
0001
0010
,
0100
1000
0100
1000
,
0010
0100
0010
0100
,
0001
0010
0001
0010
,
1000
0010
1000
0010
,
0001
0100
0010
1000
,
0100
1000
0100
0001
,
0100
0001
0100
1000
,
0010
1000
0010
0100
,
0010
0100
0001
0100
,
0001
0010
0001
1000
,
0010
1000
0100
0001
,
0100
0010
0001
0010
,
0100
0000
0000
0000
1000
0010
2000
0000
,
0000
0000
3001
0010
0002
0000
0000
0000
,
0103
0010
0100
0000
0001
0000
1000
0000
,
0010
1000
0100
0010
,
0001
2002
0000
3003
,
1002
0000
1003
0010
,
0000
0022
0000
0033
,
0021
0000
0031
1000
,
0000
1200
0000
2300
,
0010
0000
3010
0100
,
0000
0201
0000
0302
,
0010
0000
0013
0100
,
1000
2001
0000
3100
,
0001
0100
0000
1100
,
0000
1002
0000
0013
,
1000
0010
0000
0011
,
0000
2001
0000
3010
,
1000
0100
0010
0100
,
0000
1002
0000
0103
,
0001
0000
0010
0000
0100
0000
0010
0100
,
0010
0100
0010
0000
0000
0000
0011
0000
,
0000
1001
0000
1010
,
0000
0110
0000
0101
,
0000
0110
0000
1001
,
0000
1100
0000
0101
,
0000
1100
0000
0011
,
0000
1000
0001
0010
,
0100
1000
0001
1000
,
0010
1100
0000
1001
,
0000
0110
0000
1001
,
0000
0101
0000
1010
,
0000
0011
0000
1100
,
0000
2002
0000
0000
,
0000
0000
0000
3003
,
0000
0120
0000
2030
,
0001
3000
0210
0000
,
0000
0301
0010
0100
,
1000
0001
1000
0100
,
0010
0200
0000
1300
,
0001
0100
0001
0010
,
0001
2000
0000
3001
,
0100
0001
0010
0001
,
1000
0010
0000
0110
,
0000
0101
0000
0011
,
0000
0001
1000
0010
,
0001
0010
1000
0100
,
0010
0002
0000
1003
,
0010
0100
0001
0010
,
0100
2000
0000
3010
,
0100
0001
0100
0010
,
1000
0001
0000
0001
,
1000
0000
0001
1000
0001
1000
0001
1000
,
0001
0100
0000
2100
,
0000
3100
0010
0001
,
0010
0100
0000
0021
,
0000
0031
1000
0010
,
1000
0001
0000
0210
,
0000
0301
0100
0010
,
0100
1000
0000
0102
,
0000
0013
0100
0001
,
0100
0010
0001
1000
,
0001
0010
0100
1000
,
0001
1000
0010
0100
,
0001
0100
0010
1000
,
0001
0000
1000
0001
1000
0001
1000
0001
,
1000
0001
1000
0001
1000
0001
1000
0001
,
1000
0001
2000
0000
0000
0000
0000
0000
,
0000
0000
0000
0000
,
0000
0000
0000
0000
,
0000
0000
0000
3000
,
0000
2002
0000
0000
,
0000
0000
0000
0000
,
3003
0220
0000
0000
,
0000
0000
0000
0000
,
0330
2020
0000
0000
,
0000
0000
0000
0000
,
3030
0202
0000
0000
,
0000
0000
0000
0000
,
0303
0020
1000
0001
,
2030
3200
0001
1000
,
0320
0032
1000
0023
,
0230
0302
2003
3020
,
0032
0010
1000
0010
,
2003
0001
0100
0001
,
3020
1000
0001
1000
,
0031
1001
0000
0210
,
0000
0301
0100
0001
,
0100
1000
0100
1000
,
0100
0001
0100
0001
,
0100
1000
0100
1000
,
0100
0010
0001
0010
,
0001
0010
1000
0010
,
1000
0010
0001
0010
,
0001
0010
1000
0010
,
1000
0010
0100
0001
,
0010
0100
1000
0100
,
0001
0100
1000
0001
,
0010
1000
0010
0001
,
1000
0100
0010
0100
,
1000
0001
0100
0010
,
0100
0001
0100
1000
,
0100
0020
0000
0000
,
0000
0000
0130
0010
0100
0000
0001
0000
,
0010
0001
1000
0010
,
1000
0000
0010
0100
0010
0000
1000
0000
,
0001
0100
0001
1000
,
0001
0000
1000
0001
1000
0000
0001
0000
,
0100
0001
0010
0001
,
0010
0000
0100
1000
0100
0000
1000
0000
,
0010
0100
0001
0100
,
0010
0000
1000
0001
1000
0001
1000
0000
,
0010
0100
0001
0010
,
0001
0000
0100
0001
0100
0001
0100
0000
,
0010
1000
0100
0010
,
0001
0000
0010
0100
0010
0100
0010
0000
,
0100
1000
0001
1000
,
0010
1001
0000
0000
,
0000
0000
0100
0010
0100
0010
0100
0010
,
0100
0020
0200
0000
0000
0000
0000
0000
,
0000
0000
0000
0330
,
0000
2002
0000
0000
,
0000
0000
0000
3003
,
0000
1100
0000
0101
,
0000
0011
0000
1010
,
0000
1001
0000
0110
,
0000
0000
1000
0001
1000
0001
1000
0001
,
1000
0001
1000
0000
0010
0000
0110
0000
,
0000
0101
0000
0011
,
0000
1100
0000
0011
,
0000
1010
0000
0101
,
0000
1000
0010
1010
,
0000
0101
0000
0011
,
0000
1100
0000
0011
,
0000
1001
0000
0110
,
0000
0001
0010
1010
,
0000
0101
0000
1010
,
0000
0110
0000
1001
,
0000
0110
0000
1100
,
0000
0001
1000
0010
,
0100
0001
0010
0001
,
1000
0010
1000
0100
,
0010
0001
1000
0010
,
1000
0002
0100
0000
,
0203
0010
0000
0320
,
1000
0000
1030
0100
,
0001
0100
1000
0010
,
0100
0002
1000
0000
,
2003
0010
0000
3020
,
0100
0000
0130
0001
,
0010
0100
1000
0001
,
1000
0000
0010
1000
0010
0000
0100
0000
,
0001
0100
0001
0010
,
0200
0000
1300
0001
,
0010
1000
0010
0001
,
1000
0000
0100
0010
0100
0000
0010
0000
,
0001
1000
0010
0100
,
0002
0000
1003
0010
,
0100
0001
0010
0100
,
1000
0001
0010
0001
,
1000
0010
1000
0001
,
0100
0001
1000
0100
,
0010
0100
1000
0001
,
0100
0010
0001
0010
,
0100
0010
1000
0100
,
0001
0100
1000
0010
,
0100
0000
0001
0010
0001
0000
0010
0001
,
0010
0001
1000
0010
,
0100
0001
0010
0100
,
1000
0001
1000
0010
,
0100
0000
0010
1000
0010
0000
1000
0010
,
1000
0000
0000
0000
0001
0100
0002
0000
,
0000
0000
0013
0100
0020
0000
0000
0000
,
0130
1000
0200
0000
0000
0000
1300
0000
,
0001
0100
0010
1000
,
0001
2002
0000
0000
,
0000
0000
0000
0000
,
0000
0000
0000
0000
,
0000
0000
0000
0000
,
3003
0000
0000
0000
;

//---------------dance-single - ----------------
#NOTES:
     dance-single:
     CHALLENGE:
     Challenge:
     20:
     1.334166,2.079125,0.929690,0.667687,0.016903,1105.000000,995.000000,110.000000,79.000000,0.000000,0.000000,1.334166,2.079125,0.929690,0.667687,0.016903,1105.000000,995.000000,110.000000,79.000000,0.000000,0.000000:
// measure 0
0000
1002
0000
0000
,  // measure 1
0013
0200
0000
0000
,  // measure 2
1300
0002
0000
0000
,  // measure 3
0103
0020
0000
1030
,  // measure 4
0001
0011
0000
0110
,  // measure 5
0000
1010
0000
0101
,  // measure 6
0000
1001
0000
0110
,  // measure 7
0000
0000
1000
0001
1000
0001
1000
0001
,  // measure 8
1000
0001
1000
0000
0001
0000
0100
0000
,  // measure 9
0010
0100
0001
1000
,  // measure 10
0010
0100
0001
0100
,  // measure 11
1000
0100
0001
1000
,  // measure 12
0100
0010
0001
0100
,  // measure 13
0010
1000
0001
0100
,  // measure 14
0001
0010
0001
1000
,  // measure 15
0010
0000
0100
0010
0100
0000
0010
0100
,  // measure 16
0010
1000
0100
0010
,  // measure 17
0100
0010
0001
0100
,  // measure 18
0001
0010
0100
1000
,  // measure 19
0001
0010
1000
0010
,  // measure 20
0200
0000
0000
0000
1300
0010
2000
0000
,  // measure 21
0000
0000
3001
0010
0002
0000
0000
0000
,  // measure 22
0103
0010
0200
0000
0000
0000
0301
1000
,  // measure 23
0001
1000
0001
0010
0100
0010
0100
1000
,  // measure 24
0100
0010
0001
0000
1000
0000
1010
0000
,  // measure 25
0000
1001
0000
0101
,  // measure 26
0000
0011
0000
1001
,  // measure 27
0000
0110
0000
1010
,  // measure 28
1000
0001
0010
0000
0000
0000
0011
0000
,  // measure 29
0000
0101
0000
0110
,  // measure 30
0000
1010
0000
1100
,  // measure 31
0000
0000
1000
0001
0100
0000
0001
0010
,  // measure 32
0100
1000
0001
0101
,  // measure 33
0000
0110
0000
1010
,  // measure 34
0000
0110
0000
0101
,  // measure 35
0000
0011
0000
1010
,  // measure 36
0000
1001
0010
0100
,  // measure 37
0010
1001
0100
0010
,  // measure 38
0100
0000
1000
0001
0100
0001
0010
0001
,  // measure 39
0100
0001
1000
0100
1000
0100
0010
0001
,  // measure 40
0010
0001
2000
0000
0100
0000
0000
0000
,  // measure 41
3200
0010
0000
0320
,  // measure 42
0001
0000
0031
1000
,  // measure 43
0010
0001
0010
1000
,  // measure 44
0010
0200
0001
0000
,  // measure 45
0302
0010
0000
0023
,  // measure 46
0100
0000
0130
1000
,  // measure 47
0001
1000
0100
0001
,  // measure 48
0100
2000
0001
0000
,  // measure 49
3020
0100
0000
2030
,  // measure 50
0001
0000
3100
0010
,  // measure 51
0001
1000
0010
0100
,  // measure 52
0001
0010
0001
0100
,  // measure 53
0010
1000
0100
0010
,  // measure 54
0001
0100
0010
0100
,  // measure 55
0001
1000
0001
1000
0100
0010
0100
0010
,  // measure 56
0001
1000
0100
0000
0010
0000
0001
0000
,  // measure 57
1000
0001
0010
0100
,  // measure 58
0001
0100
0010
0001
,  // measure 59
1000
0010
0100
0001
,  // measure 60
0100
0010
1000
0001
,  // measure 61
0010
1000
0010
0001
,  // measure 62
1000
0001
0100
1000
,  // measure 63
0100
0000
0001
1000
0001
0000
1000
0001
,  // measure 64
1000
0010
0001
0010
,  // measure 65
1000
0100
0010
0100
,  // measure 66
1000
0100
0001
0100
,  // measure 67
0010
0100
1000
0001
,  // measure 68
0200
0000
0000
0000
0301
0010
0002
0000
,  // measure 69
0000
0000
0013
0100
0020
0000
0000
0000
,  // measure 70
0130
1000
0100
0000
1000
0001
1000
0000
,  // measure 71
0010
0000
0100
0001
0100
0001
0010
0100
,  // measure 72
1000
0001
2000
0000
0000
0000
3020
0000
,  // measure 73
0100
0000
0130
0001
,  // measure 74
0000
1002
0000
0023
,  // measure 75
0100
0000
0130
2000
,  // measure 76
0000
3001
0010
0100
,  // measure 77
2000
0000
3100
0002
,  // measure 78
0000
0103
1000
0100
,  // measure 79
0001
0100
0010
0001
,  // measure 80
1000
1002
0000
2003
,  // measure 81
0010
0000
3010
0100
,  // measure 82
0000
0102
0000
2003
,  // measure 83
0010
0000
3010
0002
,  // measure 84
0000
0013
1000
0010
,  // measure 85
0200
0000
0301
1000
,  // measure 86
0000
0110
0000
1001
,  // measure 87
0000
0000
0011
0000
0000
0000
1000
0001
,  // measure 88
1000
0001
1000
0000
0000
0000
1100
0000
,  // measure 89
0000
1010
0000
1001
,  // measure 90
0000
0101
0000
0011
,  // measure 91
0000
1001
0000
0110
,  // measure 92
0000
0101
0001
0100
,  // measure 93
0010
1000
0100
0011
,  // measure 94
0000
1001
0010
0100
,  // measure 95
1000
0100
0010
0001
,  // measure 96
1000
1100
0000
0110
,  // measure 97
0000
0000
0101
0000
0000
0000
0001
1000
,  // measure 98
0010
1000
0010
0000
0000
0000
0110
0000
,  // measure 99
0000
0000
0101
0000
0000
0000
1000
0001
,  // measure 100
0010
0002
2000
0000
0000
0000
0000
0000
,  // measure 101
0000
0000
0000
3003
,  // measure 102
0000
1001
0000
0100
,  // measure 103
0010
0000
0000
0000
0010
0000
1000
0001
,  // measure 104
1000
0001
1000
0000
0001
0000
0010
0000
,  // measure 105
0200
0000
1300
0100
,  // measure 106
0001
0100
1000
0010
,  // measure 107
0200
0000
0001
0310
,  // measure 108
0100
1000
0001
1000
,  // measure 109
0020
0000
0000
1030
,  // measure 110
0001
0100
0001
1000
,  // measure 111
0010
0100
0001
0010
,  // measure 112
0100
1100
1000
0001
,  // measure 113
0000
0101
0000
0001
,  // measure 114
0010
0110
0100
1000
,  // measure 115
0000
1001
0000
0010
,  // measure 116
1000
1001
0001
0100
,  // measure 117
0001
0011
0000
1001
,  // measure 118
1000
0010
0120
0000
,  // measure 119
1030
0000
0001
1000
0001
0010
0001
0100
,  // measure 120
0001
1000
0010
0000
1000
0000
0101
0000
,  // measure 121
0000
0110
0000
1000
,  // measure 122
0001
0010
0100
1100
,  // measure 123
0000
0011
0000
1000
,  // measure 124
0001
0010
0001
0101
,  // measure 125
0000
1001
0000
0010
,  // measure 126
0100
1100
1000
0001
,  // measure 127
0101
0001
1000
0001
,  // measure 128
0100
0110
0010
1000
,  // measure 129
0010
1000
0100
0010
,  // measure 130
0100
0010
0001
1000
,  // measure 131
0001
0100
1000
0100
,  // measure 132
0001
0000
1000
0001
1000
0001
1000
0001
,  // measure 133
1000
0001
1000
0001
1000
0001
1000
0001
,  // measure 134
1000
0001
1000
0000
0001
0000
1000
0000
,  // measure 135
0001
1000
0001
1000
,  // measure 136
0001
1000
0001
1000
,  // measure 137
0001
1000
0001
1000
,  // measure 138
0002
2000
0000
0000
,  // measure 139
0000
0000
0000
0000
,  // measure 140
3003
0220
0000
0000
,  // measure 141
0000
0000
0000
0000
,  // measure 142
0330
2200
0000
0000
,  // measure 143
0000
0000
0000
0000
,  // measure 144
3300
0022
0000
0000
,  // measure 145
0000
0000
0000
0000
,  // measure 146
0033
0000
0201
0000
0302
1000
0013
0000
,  // measure 147
0110
0000
0021
0000
0032
0010
0103
0000
,  // measure 148
1100
0000
1002
0000
2003
0010
3001
0000
,  // measure 149
0210
0000
0302
1000
0103
0010
0100
0000
,  // measure 150
0011
0000
0210
0000
2300
0001
3010
0000
,  // measure 151
0101
0000
0021
0000
0230
1000
0310
0000
,  // measure 152
1002
0000
0203
0001
0310
0100
2000
0000
,  // measure 153
3001
0000
1000
0000
1001
0000
0000
0000
0110
0000
0000
0000
0001
1000
0001
1000
,  // measure 154
0001
1000
0001
1000
0001
0000
0010
0000
0001
0000
0000
0000
0010
0000
0001
0000
,  // measure 155
0010
0000
0001
0010
0001
0000
0010
0001
,  // measure 156
0010
0000
0001
1000
0001
0000
1000
0001
,  // measure 157
1000
0000
0001
1000
0001
0000
1000
0001
,  // measure 158
1000
0000
0010
0100
0010
0000
1000
0010
,  // measure 159
1000
0000
0010
0100
0010
0000
0100
0001
,  // measure 160
0100
0000
0010
1000
0010
0000
1000
0100
,  // measure 161
1000
0000
0001
0100
0001
0000
0100
0010
,  // measure 162
0100
0000
0001
0010
0100
1000
0100
1000
,  // measure 163
0100
0010
0001
0000
1000
0000
0010
0000
,  // measure 164
0100
0000
0001
0010
0001
0010
0100
1000
,  // measure 165
0100
1000
0001
1000
0001
0000
0100
0000
,  // measure 166
0010
0000
1000
0001
0010
0100
0010
0100
,  // measure 167
1000
0001
1000
0001
0010
0001
0100
0001
,  // measure 168
1000
0010
1000
0100
0010
0001
0100
0010
,  // measure 169
1000
0001
0100
0010
,  // measure 170
1000
0000
0001
0010
0001
0010
0100
1000
,  // measure 171
0100
1000
0001
1000
0001
0100
0010
0100
,  // measure 172
0010
1000
0010
1000
0100
0010
0100
0010
,  // measure 173
0001
0010
0001
1000
0001
1000
0001
0100
,  // measure 174
0001
1000
0001
0010
0001
0100
0001
1000
,  // measure 175
0010
1000
0100
0010
0001
0100
0010
1000
,  // measure 176
0001
0010
0100
1000
0010
0100
0001
1000
,  // measure 177
0001
1000
0100
0010
0100
0010
0001
1000
,  // measure 178
0001
1000
0100
0001
0100
1000
0001
1000
,  // measure 179
0001
0010
1000
0010
0001
1000
0001
1000
,  // measure 180
0010
0100
0010
1000
0001
0100
0001
1000
,  // measure 181
0010
1000
0100
0010
0001
0100
0001
0010
,  // measure 182
0100
1000
0001
1000
0010
0100
0010
1000
,  // measure 183
0100
0001
0100
1000
0001
0100
0010
0100
,  // measure 184
0001
1000
0010
0001
0010
1000
0001
0100
,  // measure 185
0010
0100
0001
1000
0001
1000
0001
1000
,  // measure 186
0100
0220
0000
0000
,  // measure 187
0000
0000
0000
0330
,  // measure 188
0000
2002
0000
0000
,  // measure 189
0000
0000
0000
3003
,  // measure 190
0000
1100
0000
1001
,  // measure 191
0000
0011
0000
0101
,  // measure 192
0000
0110
0000
1001
,  // measure 193
0000
0000
0010
0100
0010
0100
0010
0100
,  // measure 194
0010
0100
0001
0000
0010
0000
0100
0000
,  // measure 195
0000
1100
0000
1010
,  // measure 196
0000
0110
0000
0101
,  // measure 197
0000
0011
0000
1001
,  // measure 198
0010
0100
0001
0000
0000
0000
0110
0000
,  // measure 199
0000
1100
0000
0101
,  // measure 200
0000
0011
0000
1001
,  // measure 201
0000
0000
1000
0010
0100
0000
0001
0100
,  // measure 202
1000
0101
0000
0011
,  // measure 203
0000
1001
0000
1010
,  // measure 204
0000
1100
0000
1001
,  // measure 205
0000
0000
0110
0000
0000
0000
0001
1000
,  // measure 206
0010
1000
0001
0000
0100
0000
0001
0000
,  // measure 207
0010
0001
1000
0010
,  // measure 208
1000
0000
0100
1000
0100
1000
0100
0010
,  // measure 209
0100
0010
0001
0010
0001
1000
0010
1000
,  // measure 210
0001
0100
0002
0000
0010
0000
0000
0000
,  // measure 211
0013
2000
0000
3020
,  // measure 212
0001
0000
0031
1000
,  // measure 213
0010
0100
0001
1000
,  // measure 214
0100
0002
0100
0000
,  // measure 215
0103
2000
0000
3010
,  // measure 216
0200
0000
0301
1000
,  // measure 217
0001
0000
1000
0010
0001
0000
0001
0010
,  // measure 218
1000
0020
0100
0000
,  // measure 219
0130
0002
0000
1003
,  // measure 220
0200
0000
0310
0001
,  // measure 221
1000
0010
0100
0001
,  // measure 222
0010
0100
1000
0001
,  // measure 223
1000
0010
0100
0001
,  // measure 224
1000
0010
1000
0001
,  // measure 225
0100
0010
0100
0010
1000
0010
0100
0010
,  // measure 226
0001
0010
0100
0010
,  // measure 227
0100
1000
0100
0001
,  // measure 228
0100
0001
0010
0100
,  // measure 229
1000
0001
1000
0001
,  // measure 230
0100
0001
0010
0001
,  // measure 231
1000
0010
1000
0100
,  // measure 232
0010
0001
0100
0001
,  // measure 233
0010
0000
0001
0100
1000
0000
1000
0100
,  // measure 234
0001
0100
0010
1000
,  // measure 235
0010
0100
0001
1000
,  // measure 236
0100
0001
0100
1000
,  // measure 237
0010
0100
0001
0010
,  // measure 238
0001
0000
1000
0010
2000
0000
0000
0000
,  // measure 239
3001
0100
0002
0000
0000
0000
0013
0100
,  // measure 240
0010
0000
0100
0000
1000
0001
1000
0001
,  // measure 241
0010
0001
0100
0001
1000
0001
1000
0001
,  // measure 242
0010
0100
2002
0000
0000
0000
0000
0000
,  // measure 243
0000
0000
0000
0000
,  // measure 244
0000
0000
0000
0000
,  // measure 245
0000
0000
0000
0000
,  // measure 246
3003
0000
0000
0000
;
