#VERSION:0.83;
#TITLE:MUSIC;
#SUBTITLE:;
#ARTIST:DJ EVIL & DJ SIN;
#TITLETRANSLIT:;
#SUBTITLETRANSLIT:;
#ARTISTTRANSLIT:;
#GENRE:;
#ORIGIN:;
#TAGS:;
#CREDIT:;
#BANNER:MUSIC.png;
#BACKGROUND:MUSIC-bg.png;
#PREVIEWVID:;
#JACKET:MUSIC-jacket.png;
#CDIMAGE:;
#DISCIMAGE:;
#LYRICSPATH:;
#CDTITLE:Dance Mania Speed G2.png;
#MUSIC:MUSIC.ogg;
#OFFSET:-7.080000;
#SAMPLESTART:56.483028;
#SAMPLELENGTH:15.000000;
#SELECTABLE:YES;
#DISPLAYBPM:170.000000;
#BPMS:0.000000=169.940002
;
#STOPS:;
#DELAYS:;
#WARPS:;
#TIMESIGNATURES:0.000000=4=4
;
#TICKCOUNTS:0.000000=4
;
#COMBOS:0.000000=1
;
#SPEEDS:0.000000=1.000000=0.000000=0
;
#SCROLLS:0.000000=1.000000
;
#LABELS:0.000000=Song Start
;
#BGCHANGES:12.000=bluey1.mp4=1.000=1=0=1===CrossFade==,
28.000=cyber1.mp4=1.000=0=0=1=====,
44.000=lines4.mp4=1.000=0=0=1=====,
60.000=cyber2.mp4=1.000=0=0=1=====,
71.500=circle1.mp4=1.000=0=0=1=====,
76.000=tunnel11.mp4=1.000=0=0=1=====,
84.000=bluey2.mp4=1.000=0=0=1=====,
92.000=tunnel12.mp4=1.000=0=0=1=====,
100.000=bubble2.mp4=1.000=0=0=1=====,
108.000=heart2.mp4=1.000=0=0=1=====,
116.000=heart4.mp4=1.000=0=0=1=====,
124.000=colors2.mp4=1.000=0=0=1=====,
136.000=circle1.mp4=1.000=0=0=1=====,
140.000=dance6.mp4=1.600=0=0=1=====,
148.000=tunnel11.mp4=1.000=0=1=1=StretchRewind====,
156.000=colors1.mp4=1.000=0=0=1=====,
164.000=tunnel12.mp4=1.000=0=1=1=StretchRewind====,
172.000=lines4.mp4=1.000=0=1=1=StretchRewind====,
180.000=cyber1.mp4=1.000=0=1=1=StretchRewind====,
188.000=bluey1.mp4=1.000=0=1=1=StretchRewind====,
192.000=bluey2.mp4=1.000=0=1=1=StretchRewind====,
196.000=bluey1.mp4=1.000=0=0=1=====,
204.000=light1.mp4=1.000=0=0=1=====,
220.000=bubble2.mp4=1.000=0=1=1=StretchRewind====,
236.000=cyber2.mp4=1.000=0=1=1=StretchRewind====,
252.000=colors1.mp4=1.000=0=1=1=StretchRewind====,
264.000=bluey2.mp4=1.000=0=0=1=====,
268.000=MUSIC-bg.png=1.000=0=0=1=====,
99999=-nosongbg-=1.000=0=0=0 // don't automatically add -songbackground-
;
#KEYSOUNDS:;
#ATTACKS:
;

//---------------dance-single - ----------------
#NOTEDATA:;
#CHARTNAME:;
#CHARTHASH:3939414220;
#STEPSTYPE:dance-single;
#BANNER:;
#DESCRIPTION:;
#CHARTSTYLE:;
#DIFFICULTY:Beginner;
#METER:3;
#METERF:3.000000;
#LASTSECONDHINT:101.701630;
#RADARVALUES:0.135710,0.192872,0.047978,0.076765,0.000000,99.000000,94.000000,5.000000,8.000000,0.000000,0.000000,0.000000,0.000000,0.000000,0.135710,0.192872,0.047978,0.076765,0.000000,99.000000,94.000000,5.000000,8.000000,0.000000,0.000000,0.000000,0.000000,0.000000;
#CREDIT:;
#DISPLAYBPM:170.000000;
#NOTES:
0000
0000
0000
0000
,
0000
0000
0000
0000
,
0000
0000
0000
0000
,
1000
0000
0000
0000
,
1000
0000
0000
0000
,
0001
0000
0000
0000
,
0001
0000
0000
0000
,
1000
0000
0000
0000
,
1000
0000
0000
0000
,
0001
0000
0000
0000
,
0001
0000
0000
0000
,
1000
1000
1000
0000
,
1000
0000
0000
0000
,
0001
0001
0001
0000
,
0001
0000
0000
0000
,
1000
1000
1000
0000
,
1000
0000
0000
0000
,
0001
0001
0001
0000
,
0000
0000
0000
0000
,
0100
0000
0100
0000
,
0100
0000
0000
0000
,
0010
0000
0010
0000
,
0010
0000
0000
0000
,
1000
0000
1000
0000
,
1000
0000
0000
0000
,
0001
0000
0001
0000
,
0001
0000
0000
0000
,
0100
0000
0100
0000
,
0100
0000
0000
0000
,
0010
0000
0010
0000
,
0010
0000
0000
0000
,
1000
0000
1000
0000
,
1000
0000
0000
0000
,
0001
0000
0001
0000
,
0001
0000
0000
0000
,
1000
1000
1000
0000
,
1000
0000
0000
0000
,
0100
0100
0100
0000
,
0100
0000
0000
0000
,
0010
0010
0010
0000
,
0010
0000
0000
0000
,
0001
0001
0001
0000
,
0001
0000
0000
0000
,
1000
1000
1000
0000
,
1000
0000
0000
0000
,
0100
0100
0100
0000
,
0100
0000
0000
0000
,
0010
0010
0010
0000
,
0010
0000
0000
0000
,
0001
0001
0001
0000
,
0001
0000
0000
0000
,
2002
0000
0000
0000
,
3003
0000
0000
0000
,
0100
0000
0000
0000
,
0100
0000
0000
0000
,
2002
0000
0000
3003
,
0000
0000
0000
0000
,
0010
0000
0000
0000
,
0010
0000
0000
0000
,
0220
0000
0000
0330
,
0000
0000
0000
0000
,
0100
0000
0100
0000
,
0100
0000
0000
0000
,
0220
0000
0000
0330
,
0000
0000
0000
0000
,
0010
0000
0010
0000
,
0010
0000
0000
0000
,
1001
0000
0000
0000
;

//---------------dance-single - ----------------
#NOTEDATA:;
#CHARTNAME:;
#CHARTHASH:3587744513;
#STEPSTYPE:dance-single;
#BANNER:;
#DESCRIPTION:;
#CHARTSTYLE:;
#DIFFICULTY:Easy;
#METER:5;
#METERF:5.000000;
#LASTSECONDHINT:101.701630;
#RADARVALUES:0.219329,0.289309,0.115148,0.134339,0.000000,160.000000,148.000000,12.000000,14.000000,0.000000,0.000000,0.000000,0.000000,0.000000,0.219329,0.289309,0.115148,0.134339,0.000000,160.000000,148.000000,12.000000,14.000000,0.000000,0.000000,0.000000,0.000000,0.000000;
#CREDIT:;
#DISPLAYBPM:170.000000;
#NOTES:
0000
0000
0000
0000
,
0000
0000
0000
0000
,
0000
0000
0000
0000
,
1001
0000
0001
0100
,
0010
0000
1000
0010
,
0100
0000
0100
0000
,
0010
0000
0010
0000
,
1001
0000
0001
0010
,
0100
0000
1000
0100
,
0010
0000
0001
0000
,
0001
0001
1000
1000
,
0010
0000
1000
0010
,
0001
0000
0001
0010
,
1000
0000
0010
0000
,
0100
0000
0001
0000
,
1000
0000
1000
0100
,
0001
0000
0001
0100
,
1000
0000
0010
0000
,
0000
0000
0000
0000
,
1000
1000
0100
0100
,
0010
0010
0001
0001
,
1000
0000
1000
0000
,
0001
0000
0001
0000
,
0010
0010
0001
0001
,
0100
0100
0010
0010
,
1000
0000
1000
0000
,
0001
0000
0001
0000
,
0010
0010
0100
0100
,
1000
1000
0001
0001
,
0100
0000
0100
0000
,
0010
1000
0010
0100
,
0001
0001
0010
0010
,
0001
0001
1000
1000
,
0100
0000
1000
0010
,
0100
0000
0001
0100
,
1001
0000
0010
0010
,
0010
0000
0100
0100
,
0100
0000
0001
0000
,
0010
0000
0100
0000
,
1001
0000
0010
0010
,
0010
0000
0100
0100
,
0100
0000
0001
0000
,
1000
0000
0010
0000
,
0110
0000
1000
1000
,
1000
0000
0001
0001
,
0001
0000
1000
0000
,
0010
0000
0100
0000
,
0110
0000
0100
0100
,
0100
0000
0010
0010
,
0010
0000
1000
0000
,
2002
0000
0000
3003
,
0220
0000
0000
0000
,
0000
0000
0000
0330
,
2000
0000
0000
3000
,
0002
0000
0000
0003
,
2002
0000
0000
0000
,
0000
0000
0000
3003
,
0200
0000
0000
0300
,
0020
0000
0000
0030
,
2002
0000
0000
0000
,
0000
0000
0000
3003
,
1000
0000
0000
0000
,
1000
0000
0000
0000
,
2002
0000
0000
3003
,
0001
0000
0001
0000
,
1000
0000
1000
0000
,
0010
0000
0010
0000
,
1001
0000
0000
0000
;

//---------------dance-single - ----------------
#NOTEDATA:;
#CHARTNAME:;
#CHARTHASH:868726621;
#STEPSTYPE:dance-single;
#BANNER:;
#DESCRIPTION:;
#CHARTSTYLE:;
#DIFFICULTY:Medium;
#METER:8;
#METERF:8.000000;
#LASTSECONDHINT:101.701630;
#RADARVALUES:0.386567,0.450035,0.105552,0.134339,0.000000,282.000000,271.000000,11.000000,14.000000,0.000000,0.000000,0.000000,0.000000,0.000000,0.386567,0.450035,0.105552,0.134339,0.000000,282.000000,271.000000,11.000000,14.000000,0.000000,0.000000,0.000000,0.000000,0.000000;
#CREDIT:;
#DISPLAYBPM:170.000000;
#NOTES:
0000
0000
0000
0000
,
0000
0000
0000
0000
,
0000
0000
0000
0000
,
1000
0010
0000
0100
0001
0000
0010
0000
,
0001
0100
0000
0001
1000
0000
0010
0000
,
1000
0100
1000
0000
0010
0000
0100
0000
,
0001
0010
0001
0000
1000
0000
0010
0100
,
0001
0010
0000
0001
1000
0000
0100
0000
,
1000
0100
0000
0010
0001
0000
0100
0000
,
0010
1000
0010
0000
1000
0000
1001
0000
,
0100
0001
0100
0000
0010
0000
1001
0000
,
0010
0100
0010
0000
1000
0010
0000
0000
,
0100
0001
0100
0000
0001
0010
0000
0001
,
1000
0100
1000
0000
0010
0000
0100
0000
,
0010
1000
0010
0000
0100
0000
0010
0000
,
0100
0001
0100
0000
0001
1000
0000
0000
,
1000
0100
1000
0000
0001
0010
0000
0001
,
1000
0100
1000
0000
0010
0000
1001
0000
,
0000
0000
0000
0000
,
1000
0100
0000
1000
0001
1000
0000
0001
,
0010
0001
0000
0100
0001
0100
0000
0001
,
0010
0001
0100
0010
,
1000
0100
0010
0001
,
1000
0010
0000
0100
0001
0100
0000
0001
,
1000
0001
0000
0100
0010
0100
0000
0010
,
1000
0010
0001
0010
,
1000
0010
0100
0010
,
1000
0001
1000
0000
0001
0100
0001
0000
,
0100
0010
0100
0000
0001
1000
0001
0000
,
1000
0100
0000
0010
0000
0001
0000
0010
,
0000
1000
0000
0010
0000
0001
0000
1000
,
0001
0100
0001
0000
0010
0001
0010
0000
,
0001
1000
0001
0000
0100
0010
0100
0000
,
0010
1000
0000
0010
0000
0100
0000
0002
,
2000
0000
0000
3003
,
1000
0100
0001
0000
0001
0100
1000
0000
,
0010
0000
0100
0001
0100
0010
0100
0000
,
0001
0010
0100
1000
0000
0000
0100
0000
,
0010
0001
1000
0001
,
1000
0010
0001
0000
0001
0010
1000
0000
,
0010
0100
0001
0100
0010
0000
1000
0000
,
1001
0000
0001
0010
0100
0000
1000
0000
,
0100
0010
0001
1000
,
0001
0100
0010
0000
0010
0100
0001
0000
,
1000
0000
0100
0001
0100
1000
0100
0000
,
1000
0100
0010
0001
0000
0000
0001
0000
,
1000
0001
0010
0001
,
0100
0001
1000
0000
1000
0001
0100
0000
,
0010
0000
1000
0000
0010
0100
0010
1000
,
1010
0010
0110
0100
,
0202
0000
0000
0303
,
2002
0000
0000
0000
,
0000
0000
0000
3003
,
0200
0000
0000
0300
,
0020
0000
0000
0030
,
2002
0000
0000
0000
,
0000
0000
0000
3003
,
0200
0000
0000
0300
,
0020
0000
0000
0030
,
0220
0000
0000
0000
,
0000
0000
0000
0330
,
1000
0000
1000
0100
,
0010
0000
0001
0010
,
0100
0000
0000
0000
1000
0001
1000
0000
,
0001
0000
0100
0000
0010
0100
0010
0000
,
1000
0000
0100
0000
0010
0001
0010
0000
,
0100
0000
1000
0000
0001
1000
0100
0010
,
1001
0000
0000
0000
;

//---------------dance-single - ----------------
#NOTEDATA:;
#CHARTNAME:;
#CHARTHASH:1090265634;
#STEPSTYPE:dance-single;
#BANNER:;
#DESCRIPTION:;
#CHARTSTYLE:;
#DIFFICULTY:Hard;
#METER:12;
#METERF:12.000000;
#LASTSECONDHINT:101.701630;
#RADARVALUES:0.605896,0.610762,0.134339,0.086361,0.249487,442.000000,428.000000,14.000000,9.000000,0.000000,0.000000,0.000000,0.000000,0.000000,0.605896,0.610762,0.134339,0.086361,0.249487,442.000000,428.000000,14.000000,9.000000,0.000000,0.000000,0.000000,0.000000,0.000000;
#CREDIT:;
#DISPLAYBPM:170.000000;
#NOTES:
// measure 0
0000
0000
0000
0000
,  // measure 1
0000
0000
0000
0000
,  // measure 2
0000
0000
0000
0000
,  // measure 3
1000
0000
0100
0000
0000
0000
1000
0000
0001
0000
0000
0010
0000
0000
0001
0000
,  // measure 4
0100
0000
0001
0000
0000
0010
0000
0000
0001
0000
0000
1000
0000
0000
0100
0000
,  // measure 5
1000
0000
0100
0000
0000
0000
1000
0000
0001
0000
0000
0010
0000
0000
0001
0000
,  // measure 6
0010
0000
0100
0000
0000
1000
0000
0000
0100
0000
0000
1000
0000
0001
0100
0000
,  // measure 7
0010
0000
0100
0000
0000
0000
0010
0000
1000
0000
0000
0010
0000
0000
0100
0000
,  // measure 8
0001
0000
0010
0000
0000
0001
0000
0000
1000
0000
0000
0100
0000
0000
0010
0000
,  // measure 9
0001
0000
1000
0000
0000
0100
0000
0000
0010
0000
0000
0100
0000
0000
1000
0000
,  // measure 10
0001
0000
0010
0000
0000
0001
0000
0000
1000
0000
0000
0001
0000
0000
1000
0000
,  // measure 11
0100
0010
1000
0010
0100
1000
0000
0001
,  // measure 12
0100
0000
0010
0000
0100
0000
0001
0000
1000
0000
0001
0100
0000
0000
0010
0000
,  // measure 13
1000
0000
0001
0000
0000
0001
0000
0000
0010
0000
0000
0010
0000
0000
0100
0000
,  // measure 14
1000
0000
0001
0000
0000
0001
0000
0000
1000
0000
0000
1000
0000
0010
0100
0000
,  // measure 15
0010
1000
0010
0100
0001
0100
0000
0001
,  // measure 16
1000
0100
0010
0100
1000
0001
0000
1000
,  // measure 17
0100
0000
0010
0000
0000
0010
0000
0000
0001
0000
0000
0001
0000
0000
1001
0000
,  // measure 18
0000
0000
0000
0000
,  // measure 19
0001
0000
1000
0000
0100
0000
1000
0000
0100
0000
0000
0010
0000
0000
0001
0000
,  // measure 20
1000
0100
1000
0100
0001
0100
1000
0010
,  // measure 21
0100
0000
0001
0000
0100
0000
0001
0000
1000
0000
0000
0010
0000
0000
0100
0000
,  // measure 22
0001
0000
0010
0000
0001
0000
0010
0000
1000
0000
0000
0010
0000
0001
1000
0000
,  // measure 23
0100
0000
0010
0000
0100
0000
0010
0000
0001
0000
0000
1000
0000
0000
0001
0000
,  // measure 24
0100
0010
0100
0010
1000
0010
0001
0010
,  // measure 25
1000
0000
0100
0000
1000
0000
0001
0000
1000
0000
0000
0010
0000
0000
0100
0000
,  // measure 26
0001
0000
1000
0000
0100
0000
1000
0000
0100
0000
0000
1000
0000
0001
0100
0000
,  // measure 27
0010
0010
0000
1000
0100
1000
0000
0001
,  // measure 28
0100
0000
0010
0000
1000
0000
0100
0000
1000
0000
0001
0100
0000
0000
0010
0000
,  // measure 29
0100
0100
0000
0001
1000
0001
0000
1000
,  // measure 30
0100
0000
0010
0000
0001
0000
0010
0000
0100
0000
1000
0001
0000
1000
0001
0000
,  // measure 31
0010
0010
0000
0001
0100
0001
0000
1000
,  // measure 32
0100
0000
0010
0000
0100
0000
1000
0000
0001
0000
0010
0001
0000
0000
1000
0000
,  // measure 33
0001
0000
0001
0000
0000
0010
0000
0000
0001
0000
0000
1000
0000
0010
1000
0000
,  // measure 34
0100
0000
0100
0000
0000
1000
0000
0000
0010
0000
1000
0001
0000
1000
0001
0000
,  // measure 35
0010
0001
0010
0001
1000
0100
1000
0100
,  // measure 36
0010
0100
0010
0001
1000
1000
1000
1000
,  // measure 37
0101
0000
1000
0100
0001
0100
1000
0000
,  // measure 38
0100
0010
0000
0000
0010
0001
0000
0000
0001
0000
1000
0000
1100
0000
0000
0000
,  // measure 39
1000
0010
1000
0010
0100
0001
0100
0001
,  // measure 40
1000
0000
0001
0000
0010
0000
0000
0000
0001
0000
1000
0000
0100
0000
1000
0010
,  // measure 41
0000
0100
0100
0100
0100
0010
1000
0010
,  // measure 42
0000
0100
0001
0100
0010
0000
1001
0000
,  // measure 43
0001
0010
0001
0010
0100
0010
0100
1000
,  // measure 44
0100
1000
0001
0100
0010
0010
0010
0010
,  // measure 45
0110
0000
0001
0010
1000
0010
0001
0000
,  // measure 46
0100
0010
0000
0000
1000
0010
0000
0000
0100
0000
0001
0000
1001
0000
0000
0000
,  // measure 47
1100
0100
0010
0100
0010
0001
0010
0001
,  // measure 48
1001
0000
0001
0000
0100
0000
0000
0000
0010
0000
1000
0000
0010
0000
0100
0001
,  // measure 49
0000
0010
0010
0010
0010
0001
1000
0001
,  // measure 50
0000
1000
0010
1000
0001
0100
0100
0100
,  // measure 51
0220
0000
0000
0300
,  // measure 52
2030
0000
0000
0001
0001
0000
0010
0000
,  // measure 53
3200
0000
0000
1000
1300
0100
0010
0000
,  // measure 54
0001
0010
0000
0001
1000
0100
0010
0001
,  // measure 55
2000
0001
0000
0010
3010
1000
0002
0000
,  // measure 56
2003
0100
0000
0010
3010
1000
0200
0000
,  // measure 57
1300
0100
0010
0001
0100
0010
1000
0001
,  // measure 58
0010
0100
1000
0001
0100
0010
1000
0001
,  // measure 59
0101
0102
0000
1000
1000
0000
0000
1000
,  // measure 60
1000
0000
0000
1000
1000
0000
0000
1000
,  // measure 61
1003
0000
0001
0000
0000
0010
0000
0000
0001
0000
0000
1000
0000
0000
0100
0000
,  // measure 62
1000
0000
0100
0000
0000
1000
0000
0000
0010
0000
0000
0100
0000
0000
0001
0000
,  // measure 63
0010
0000
0100
0000
1000
0000
0001
0010
0000
0000
1001
0000
0000
0000
1000
0000
,  // measure 64
0001
0000
0010
0000
0001
0000
1000
0100
0000
0000
1100
0000
0000
0000
0010
0000
,  // measure 65
0100
0001
0010
0100
1000
0010
0100
0001
,  // measure 66
1000
0100
0010
0001
0100
0010
1000
0001
,  // measure 67
1001
0000
0000
0000
;
