#TITLE:MOSQUITO;
#SUBTITLE:;
#ARTIST:DJ ALIGATOR PROJECT;
#TITLETRANSLIT:;
#SUBTITLETRANSLIT:;
#ARTISTTRANSLIT:;
#GENRE:;
#CREDIT:;
#BANNER:MOSQUITO.png;
#BACKGROUND:MOSQUITO-bg.png;
#LYRICSPATH:;
#CDTITLE:Dance Mania EX3.png;
#MUSIC:MOSQUITO.ogg;
#OFFSET:-0.025000;
#SAMPLESTART:13.737288;
#SAMPLELENGTH:15.000000;
#SELECTABLE:YES;
#DISPLAYBPM:140.000000;
#BPMS:0.000000=139.990005
;
#STOPS:32.000000=1.275000,
161.000000=1.290000,
197.000000=0.215000,
200.500000=0.215000,
204.000000=0.215000,
211.500000=0.215000,
215.000000=0.215000,
218.500000=0.215000
;
#BGCHANGES:16.000=aliens1.mp4=1.000=1=0=1===CrossFade==,
24.000=green1.mp4=1.000=0=0=1=====,
26.000=vortex1.mp4=1.000=0=0=1=====,
28.000=green1.mp4=1.000=0=0=1=====,
29.000=vortex1.mp4=1.000=0=0=1=====,
30.000=green1.mp4=1.000=0=0=1=====,
31.000=vortex1.mp4=1.000=0=0=1=====,
32.000=blackhole2.mp4=1.400=0=0=1=====,
33.000=blackhole1.mp4=1.000=0=0=1=====,
41.000=amoeba3.mp4=1.000=0=0=1=====,
49.000=amoeba1.mp4=1.000=0=0=1=====,
57.000=amoeba4.mp4=1.000=0=0=1=====,
65.000=worms1.mp4=1.000=0=0=1=====,
73.000=geometry1.mp4=1.000=0=0=1=====,
81.000=virus1.mp4=1.000=0=0=1=====,
89.000=honeycomb1.mp4=1.000=0=0=1=====,
97.000=blizzard1.mp4=1.000=0=0=1=====,
113.000=blackhole1.mp4=1.000=0=1=1=StretchRewind====,
129.000=amoeba1.mp4=1.000=0=1=1=StretchRewind====,
137.000=amoeba3.mp4=1.000=0=1=1=StretchRewind====,
145.000=amoeba4.mp4=1.000=0=1=1=StretchRewind====,
153.000=green1.mp4=1.000=0=1=1=StretchRewind====,
155.000=vortex1.mp4=1.000=0=1=1=StretchRewind====,
157.000=green1.mp4=1.000=0=0=1=====,
158.000=vortex1.mp4=1.000=0=0=1=====,
159.000=green1.mp4=1.000=0=0=1=====,
160.000=vortex1.mp4=1.000=0=0=1=====,
161.000=blackhole2.mp4=1.400=0=1=1=StretchRewind====,
162.000=aliens1.mp4=1.000=0=1=1=StretchRewind====,
170.000=blackhole1.mp4=1.000=0=1=1=StretchRewind====,
178.000=amoeba3.mp4=1.000=0=1=1=StretchRewind====,
186.000=amoeba4.mp4=1.000=0=1=1=StretchRewind====,
190.000=blackhole1.mp4=1.000=0=0=1=====,
194.000=aliens1.mp4=1.000=0=1=1=StretchRewind====,
197.000=aliens1.mp4=0.001=0=0=1=====,
197.500=amoeba1.mp4=1.000=0=1=1=StretchRewind====,
200.500=amoeba1.mp4=0.001=0=0=1=====,
201.000=geometry1.mp4=1.000=0=1=1=StretchRewind====,
204.000=geometry1.mp4=0.001=0=0=1=====,
204.500=geometry1.mp4=1.000=0=0=1=====,
208.500=green1.mp4=1.000=0=1=1=StretchRewind====,
211.500=green1.mp4=0.001=0=0=1=====,
212.000=blizzard1.mp4=1.000=0=1=1=StretchRewind====,
215.000=blizzard1.mp4=0.001=0=0=1=====,
215.500=worms1.mp4=1.000=0=1=1=StretchRewind====,
218.500=worms1.mp4=0.001=0=0=1=====,
219.000=virus1.mp4=1.000=0=1=1=StretchRewind====,
223.000=MOSQUITO-bg.png=1.000=0=0=1=====,
99999.000=-nosongbg-=1.000=0=0=0=StretchNoLoop====,
99999=-nosongbg-=1.000=0=0=0 // don't automatically add -songbackground-
;
#KEYSOUNDS:;
#ATTACKS:;

//---------------dance-single - ----------------
#NOTES:
     dance-single:
     :
     Beginner:
     4:
     0.163116,0.246114,0.047975,0.019190,0.000000,119.000000,114.000000,5.000000,2.000000,0.000000,0.000000,0.163116,0.246114,0.047975,0.019190,0.000000,119.000000,114.000000,5.000000,2.000000,0.000000,0.000000:
0000
0000
0000
0000
,
0000
0000
0000
0000
,
0000
0000
0000
0000
,
0000
0000
0000
0000
,
1000
0000
0000
0000
,
1000
0000
0000
0000
,
0001
0000
0000
0000
,
0001
0000
0000
0000
,
1001
0100
0000
0000
,
0000
0100
0000
0000
,
0000
0010
0000
0000
,
0000
0010
0000
0100
,
0100
0010
0000
0000
,
0000
0010
0000
0000
,
0000
1000
0000
0000
,
0000
1000
0000
0001
,
0001
1000
0000
0100
,
0000
0010
0000
0100
,
0000
1000
0000
0001
,
0000
0100
0000
0010
,
0010
1000
0000
0001
,
0000
0100
0000
0001
,
0000
0010
0000
0001
,
0000
1001
0000
0000
,
0000
0010
0010
0010
,
0000
0010
0000
0000
,
0000
0100
0100
0100
,
0000
0100
0000
0000
,
0000
0001
0001
0001
,
0000
0001
0000
0000
,
0000
1000
1000
1000
,
0000
1000
0000
0000
,
0000
0010
0010
0010
,
0000
0010
0010
0010
,
0000
0100
0100
0100
,
0000
0100
0100
0100
,
0000
0001
0001
0001
,
0000
0001
0001
0001
,
0000
1000
1000
1000
,
0000
1000
1000
1000
,
0000
1001
0010
0000
,
0010
0000
0010
0000
,
0000
0000
0100
0000
,
0100
0000
0100
0000
,
0001
0001
1000
0000
,
1000
0000
1000
0000
,
0000
0000
0001
0000
,
0001
0000
1001
0000
,
0000
0000
0100
0100
,
0100
0000
0000
0100
0000
0100
0000
0100
,
0000
0010
0010
0010
,
0000
0010
0000
0010
0000
0010
0000
0000
,
0000
0100
0000
0100
0000
0100
0000
0000
,
0100
0000
0100
0000
0100
0000
0000
0010
,
0000
0010
0000
0010
0000
0000
0010
0000
,
0010
0010
0010
2002
,
0000
0000
0000
0000
,
3003
0000
0000
0000
;

//---------------dance-single - ----------------
#NOTES:
     dance-single:
     :
     Easy:
     7:
     0.263180,0.355498,0.220687,0.057571,0.000000,192.000000,169.000000,23.000000,6.000000,0.000000,0.000000,0.263180,0.355498,0.220687,0.057571,0.000000,192.000000,169.000000,23.000000,6.000000,0.000000,0.000000:
0000
0000
0000
0000
,
0000
0000
0000
0000
,
0000
0000
0000
0000
,
0000
0000
0000
0000
,
1000
0000
1000
0000
,
0001
0001
0010
0100
,
0010
0000
0010
0000
,
0001
1000
0100
0010
,
1001
0001
0000
0001
,
0000
1000
1000
0100
,
0010
0001
0000
0010
,
0000
0001
1000
0100
,
0010
0100
0000
1000
,
0000
0001
1000
0010
,
0100
0001
0000
0100
,
0000
0010
0100
0010
,
0001
0010
1000
0010
,
0100
0001
0000
0001
,
0000
1000
0100
0010
,
0100
0001
0000
0100
,
0000
1000
0010
0001
,
0010
0100
0000
0001
,
0000
1000
0001
0010
,
0100
1000
0100
0010
,
0100
1001
0001
0001
,
0000
1000
1000
1000
,
0000
0110
0010
0010
,
0000
0100
0100
0100
,
0000
0002
1000
1003
,
0000
2000
0010
3010
,
0000
0120
0100
0130
,
0000
0201
0001
0301
,
0000
0001
1000
1100
,
0000
1000
0001
0101
,
0000
0100
0010
0110
,
0000
0010
0100
0110
,
0000
1000
1000
1000
,
0101
0001
0001
0001
,
1010
0010
0010
0010
,
1001
0100
0100
0100
,
1001
0110
0010
0000
,
0010
0000
0100
0000
,
0001
0001
1000
0000
,
1000
0000
0100
0000
,
0100
0100
0010
0000
,
0001
0000
1000
0000
,
0001
0001
0100
0000
,
0010
0000
1001
0000
,
0000
0100
0100
0000
0010
0000
1000
0000
,
0001
0000
1001
1000
0000
0100
0000
0010
,
0000
1001
0010
0000
0100
0000
0010
0000
,
1001
0100
0000
0010
0000
0100
0000
1001
,
0000
0001
0000
0010
0000
0100
0000
1001
,
1000
0000
0100
0000
0010
0000
1001
0010
,
0000
0001
0000
0010
0000
1001
0100
0000
,
1000
0100
1000
2002
,
0000
0000
0000
0000
,
3003
0000
0000
0000
;

//---------------dance-single - ----------------
#NOTES:
     dance-single:
     :
     Medium:
     9:
     0.387916,0.382844,0.163116,0.124736,0.000000,283.000000,266.000000,17.000000,13.000000,0.000000,0.000000,0.387916,0.382844,0.163116,0.124736,0.000000,283.000000,266.000000,17.000000,13.000000,0.000000,0.000000:
0000
0000
0000
0000
,
0000
0000
0000
0000
,
0000
0000
0000
0000
,
0000
0000
0000
0000
,
0000
1000
0000
1000
0000
1000
0000
0001
,
0000
0001
0000
0001
0000
0100
0000
0100
,
0010
0000
0000
0010
0100
0000
0000
0100
,
0010
1000
0001
1000
,
1001
0000
0001
0010
0001
0000
0100
0001
,
0100
0000
0001
0010
0001
0000
1000
0001
,
2000
0000
3010
0100
0010
0000
1000
0010
,
1000
0000
0001
0100
0001
0000
0200
0000
,
0320
0000
1030
0100
0010
0000
0001
0010
,
0001
0000
0010
0100
1000
0000
0010
0100
,
0020
0000
1030
0001
0010
0000
0001
1000
,
0001
0000
0010
0001
1000
0000
0100
0010
,
0200
0000
1300
0000
0001
0010
0100
0010
,
0001
0000
1000
0000
0010
0100
0000
0001
,
0100
0000
0010
0000
1000
0100
0010
0100
,
1000
0000
0001
0000
0100
0001
2000
0000
,
3020
0000
0130
0000
0001
1000
0100
0010
,
0100
0000
1000
0000
0001
0100
0001
0000
,
1000
0000
0010
0000
0100
0001
0100
0010
,
0100
0000
0102
0000
0000
0000
0000
1003
,
1001
0110
0110
1001
,
0000
0100
0000
0100
0000
0001
0010
0000
,
0100
1100
1100
1001
,
0000
0010
0000
0010
0000
0001
1000
0000
,
0010
0000
0100
0000
0001
0000
0100
0001
,
0100
0000
0001
0000
1000
0000
0010
1000
,
0010
0000
1000
0000
0001
0000
0100
0010
,
0100
0000
0001
0000
1000
0000
0010
0100
,
0010
0000
1000
1000
0001
0000
1000
1000
,
0100
0000
1000
1000
0010
0000
0100
0100
,
0001
0000
0001
0001
1000
0000
0001
0001
,
0010
0000
0001
0001
0100
0000
0010
0010
,
1000
0000
0010
0100
0010
0000
0100
0010
,
0100
0000
0001
1000
0001
0000
1000
0001
,
1000
0001
0010
0100
,
1000
0000
0100
0010
0001
0010
0100
1000
,
0001
0000
1001
0000
0100
0000
0010
1000
,
0000
0001
0100
0000
0010
0000
1000
0001
,
1000
0000
0010
0000
0100
0000
0001
0010
,
0000
0001
1000
0000
0100
0000
0010
0001
,
0010
0100
1000
0100
0010
0000
0001
0100
,
0000
0001
1000
0000
0010
0000
1000
0100
,
1000
0000
0001
0100
0001
0000
0100
0010
,
0000
1000
0010
0000
0210
0000
0000
0000
,
0000
0310
1001
0000
0100
1000
0100
0000
,
1000
1002
0000
0000
,
0103
0010
0100
0000
0001
1000
0001
0000
,
0110
0100
0000
0010
0000
1000
0001
1000
,
0000
0010
0000
0100
0001
0000
1000
1020
,
0000
0000
0000
0000
0000
0130
0001
1000
,
0000
0001
0010
0001
0000
0110
1000
0000
,
0001
0100
0001
0000
1000
0000
2002
0000
,
0000
0000
0000
0000
,
3003
0000
0000
0000
;

//---------------dance-single - ----------------
#NOTES:
     dance-single:
     :
     Hard:
     12:
     0.566110,0.683650,0.335828,0.134331,0.196699,413.000000,378.000000,35.000000,14.000000,0.000000,0.000000,0.566110,0.683650,0.335828,0.134331,0.196699,413.000000,378.000000,35.000000,14.000000,0.000000,0.000000:
0000
0000
0000
0000
,
0000
0000
0000
0000
,
0000
0000
0000
0000
,
0000
0000
0000
0000
,
0000
1000
0000
0001
0000
0010
0000
1000
,
0000
0010
0000
0001
0000
0100
0000
0001
,
1000
0000
0001
0100
0001
0000
1000
0010
,
1000
0000
0110
0000
0001
1000
0001
0000
,
0110
0000
1000
0001
0010
0100
1000
0010
,
0100
0000
0000
0001
1000
0000
0100
0000
0010
0000
0100
0000
1000
0000
0001
0000
,
0200
0000
0301
0010
0001
1000
0010
0100
,
0010
0000
0000
1000
0001
0000
0010
0000
0100
0000
1000
0000
0010
0000
0100
0000
,
0010
0000
1000
0000
0001
0000
0000
1000
0010
0000
0100
0000
0001
0000
0010
0000
,
0100
1000
0001
0100
0010
1000
0100
0010
,
0002
0000
0000
1003
0100
0000
1000
0000
0010
0000
0001
0000
0010
0000
1000
0000
,
0010
0100
0010
1000
0001
0100
1000
0100
,
1001
0000
0000
0000
0010
0100
0010
0000
1000
0000
0010
0000
0100
0000
0001
0000
,
0010
0100
2000
0000
3001
1000
0100
0010
,
0100
0000
1000
0000
0002
0000
0000
0013
0100
0000
1000
0000
0100
0000
0010
0000
,
0001
0000
1000
0000
0020
0000
0000
0130
0001
0000
1000
0000
0001
0000
0010
0000
,
0001
1000
0001
0000
0020
0000
0000
0031
1000
0000
0010
0000
0100
0000
0010
0000
,
1000
0000
0010
0000
0100
0010
0100
0000
0001
0000
1000
0000
0100
0000
0010
0000
,
0001
0000
1000
0000
0200
0000
0000
1300
0010
0000
0100
0000
0001
0000
0100
0000
,
0010
0000
1000
0000
0001
0100
0001
0000
0010
0000
0001
0000
1000
0000
0100
0000
,
0011
1001
1100
2200
,
3300
1001
0000
1001
0000
0001
0010
0010
,
0010
0101
0101
2002
,
3003
0110
0000
0110
0000
1000
0001
0001
,
0001
0000
0101
0000
0101
0000
0001
1000
,
1000
1000
0000
0010
0000
0100
0001
0001
,
0001
0000
0110
0000
0110
0000
0010
1000
,
1000
1000
0000
0001
0000
0010
0100
0100
,
0100
0000
0000
0000
1000
0100
0000
0000
1000
0100
0000
0000
1000
0000
1000
0000
,
1001
0000
0000
0000
0001
0010
0000
0000
0001
0010
0000
0000
0001
0000
0001
0000
,
0101
0000
0000
0000
0010
0100
0000
0000
0010
1000
0000
0000
0100
0000
0010
0000
,
0011
0000
0000
0000
0001
0100
0000
0000
0001
1000
0000
0000
0010
0000
0100
0000
,
1001
0000
0001
0010
1000
0010
0001
0100
,
0110
0000
1000
0100
0001
0100
1000
0010
,
0110
0000
0001
1000
0100
0000
0010
0001
,
1000
0000
0000
0000
0010
0100
0010
0000
0100
0000
0001
0000
0001
0000
0001
0000
,
1001
0000
0000
0000
0110
0000
0000
0000
0001
1000
0000
0001
1000
0000
0010
0000
,
0100
0001
0010
0100
1000
0001
0100
0010
,
0010
0000
1000
0000
0100
0000
0010
0000
0001
0000
0000
1000
0100
0000
1000
0000
,
0001
0000
0010
0001
0100
0000
0010
1000
,
0100
0000
0010
0000
0001
0000
0100
0000
0010
0100
0000
0010
0100
0000
0001
0000
,
0010
0100
0010
0001
1000
0010
0100
0001
,
0001
0000
1000
0000
0010
0000
0100
0000
0001
0000
0000
0100
0010
0000
0100
0000
,
1000
0100
0001
0100
0210
0000
0000
1000
,
0000
0000
0301
0000
1001
0000
0000
0000
0001
0010
0001
0000
0100
0000
0010
0000
,
1000
0000
0100
0000
1001
0000
1000
0100
1000
0000
0010
0000
0100
0000
0001
0000
,
0010
0000
1001
0000
0001
0010
0001
0000
0100
0000
0010
0000
1000
0000
0001
0000
,
1001
0000
0100
0010
0100
0010
0100
0000
0001
0000
0010
0000
0100
0000
1000
0000
,
0010
0000
0100
0001
0100
0001
0100
0000
0001
0000
0010
0000
0100
0000
1100
0000
,
1000
0001
1000
0001
1000
0000
0010
0000
0100
0000
0001
0000
0011
0000
0001
1000
,
0001
1000
0001
0000
0100
0000
0010
0000
1000
0000
0110
0000
0001
1000
0001
1000
,
0001
1000
0001
0000
0100
0000
0010
0000
0010
0000
0100
0000
2002
0000
0000
0000
,
0000
0000
0000
0000
,
3003
0000
0000
0000
;

//---------------dance-double - ----------------
#NOTES:
     dance-double:
     :
     Hard:
     13:
     0.541437,0.628958,0.268662,0.057571,0.230282,395.000000,367.000000,28.000000,6.000000,0.000000,0.000000,0.541437,0.628958,0.268662,0.057571,0.230282,395.000000,367.000000,28.000000,6.000000,0.000000,0.000000:
// measure 0
00000000
00000000
00000000
00000000
,  // measure 1
00000000
00000000
00000000
00000000
,  // measure 2
00000000
00000000
00000000
00000000
,  // measure 3
00000000
00000000
00000000
00000000
,  // measure 4
00000000
00000001
00000000
00001000
00000000
00000010
00000000
00000100
,  // measure 5
00000000
00000010
00000000
00001000
00000000
00000001
00000000
00001000
,  // measure 6
00000100
00000000
00010000
00001000
00100000
00000000
00010000
10000000
,  // measure 7
01000000
10100000
01010000
10010000
,  // measure 8
01100000
00000000
00000000
00000000
00001000
00000000
00010000
00000000
00001000
00000000
00000000
00010000
00000000
00000100
00001000
00000000
,  // measure 9
00000010
00000000
00000100
00000000
00000001
00000000
00001000
00000000
00000100
00000000
00000000
00000010
00000000
00000001
00001000
00000000
,  // measure 10
00000100
00000000
00010000
00000000
00001000
00000000
00010000
00000000
00001000
00000000
00000000
00100000
00000000
00001000
01000000
00000000
,  // measure 11
00010000
10000000
01000000
00100000
01000000
10000000
00010000
00100000
,  // measure 12
01000000
00000000
00010000
00000000
00001000
00000000
00100000
00000000
00001000
00000000
00000000
00010000
00000000
00000100
00010000
00000000
,  // measure 13
00000100
00001000
00000010
00000100
00000010
00001000
00000001
00000010
,  // measure 14
00000100
00000000
00010000
00000000
00001000
00000000
00010000
00000000
00001000
00000000
00000000
01000000
00000000
00010000
00100000
00000000
,  // measure 15
00010000
10000000
01000000
00100000
00100000
01000000
00010000
00001000
,  // measure 16
00000010
00000000
00000001
00000000
00001000
00000000
00000010
00000000
00001000
00000000
00000000
00000010
00000000
00000100
00000010
00000000
,  // measure 17
00010000
00000100
00001000
00000100
00010000
00001000
00100000
00001000
,  // measure 18
00010000
00000000
00001000
00000000
01000000
00000000
00010000
00000000
01000000
00000000
00000000
00010000
00000000
10000000
01000000
00000000
,  // measure 19
00010000
00001000
01000000
00001000
00010000
00100000
01000000
00100000
,  // measure 20
00010000
00000000
00001000
00000000
00000010
00000000
00000001
00000000
00001000
00000000
00000000
00000010
00000000
00000100
00000001
00000000
,  // measure 21
00001000
00000100
00001000
00000000
00000010
00000000
00000100
00000000
00000010
00000000
00000000
00000100
00001000
00000000
00010000
00000000
,  // measure 22
00100000
00000000
10000000
00000000
00010000
00000000
01000000
00000000
00100000
00000000
00000000
10000000
00000000
00010000
01000000
00000000
,  // measure 23
00001000
00010000
00001000
00000000
00021000
00000000
00000000
00000000
00000000
00000000
00001000
00000000
00000000
00000000
00031000
00000000
,  // measure 24
00011000
00010010
00010010
00001010
,  // measure 25
00000000
00000100
00000000
00000010
00000000
00001000
00000100
00010000
,  // measure 26
00100000
01001000
01001000
00101000
,  // measure 27
00000000
00010000
00000000
10000000
00000000
01000000
00100000
00001000
,  // measure 28
00010000
00011000
00011000
00010100
,  // measure 29
00000000
00000100
00000000
00000010
00000000
00000001
00000100
00001000
,  // measure 30
00010000
00011000
00011000
00101000
,  // measure 31
00000000
10000000
00000000
00100000
00000000
10000000
00100000
00010000
,  // measure 32
00001000
00000000
00000000
00000000
00010000
00001000
00000000
00000000
00010000
00001000
00000000
00000000
00000010
00000000
00000001
00000000
,  // measure 33
00001000
00000000
00000000
00000000
00000010
00000100
00000000
00000000
00000010
00000100
00000000
00000000
00000001
00000000
00000100
00000000
,  // measure 34
00001000
00000000
00000000
00000000
00010000
00001000
00000000
00000000
00010000
00001000
00000000
00000000
00001000
00000000
01000000
00000000
,  // measure 35
00100000
00000000
00000000
00000000
10000000
00010000
00000000
00000000
00010000
10000000
00000000
00000000
00100000
00000000
00100000
00000000
,  // measure 36
00100000
00000000
10000000
01000000
00010000
01000000
00100000
00001000
,  // measure 37
00010000
00000000
00000100
00010000
00000100
00000010
00000100
00001000
,  // measure 38
00000001
00000000
00001000
00000010
00000010
00010000
00000100
00001000
,  // measure 39
00001000
00000100
00010000
00001000
00010000
00100000
01000000
00010000
,  // measure 40
10000000
00000000
00000000
00000000
01100000
00000000
00000000
00000000
00001000
00010000
00000000
00001000
00010000
00000000
00001000
00000000
,  // measure 41
00000000
00000000
00010000
00000000
00000100
00000000
00000010
00000000
00000001
00001000
00000000
00000001
00001000
00000000
00000010
00000000
,  // measure 42
00000100
00000000
00000001
00000100
00001000
00010000
00100000
01000000
,  // measure 43
00100000
00010000
00100000
01000000
00010000
10000000
01000000
00100000
,  // measure 44
00010000
01000000
00000000
00010000
01000000
00000000
00001000
00000000
00010000
00001000
00000000
00010000
00001000
00000000
00000010
00000000
,  // measure 45
00000000
00000000
00000001
00000000
00001000
00000000
00000100
00000000
00001000
00000010
00000000
00001000
00000010
00000000
00010000
00000000
,  // measure 46
00000100
00010000
00001000
00100000
00010000
10000000
01000000
00010000
,  // measure 47
00001000
00010000
01000000
00100000
00210000
00000000
00000000
00001000
,  // measure 48
00000000
00000000
00301000
00000000
00011000
00000000
00000000
00000000
00000010
00001000
00000010
00000000
00000100
00000000
00000001
00000000
,  // measure 49
00000010
00000000
00000100
00000000
00001100
00000000
00010000
00001000
00010000
00000000
00001000
00000000
00100000
00000000
01000000
00000000
,  // measure 50
10000000
00000000
10010000
00000000
01000000
00100000
01000000
00000000
00001000
00000000
00100000
00000000
00001000
00000000
00010000
00000000
,  // measure 51
00011000
00000000
00000010
00001000
00000100
00000000
00000010
00000000
00000001
00000000
00002000
00000000
00000000
00000000
00003020
00000000
,  // measure 52
00000000
00000000
00000130
00000010
00010000
00000000
00001000
00000000
00010000
00000000
00100000
00000000
01000000
00000000
10010000
00000000
,  // measure 53
00100000
10000000
00010000
00000000
10000000
00000000
01000000
00000000
00010000
00000000
00001000
00000000
00011000
00000000
00010000
00000010
,  // measure 54
00001000
00000000
00000010
00000000
00000100
00000000
00000001
00000000
00001000
00000000
00001100
00000000
00000100
00010000
00001000
00010000
,  // measure 55
00001000
00100000
00100000
01000000
10000000
01000000
20020000
00000000
,  // measure 56
00000000
00000000
00000000
00000000
,  // measure 57
30030000
00000000
00000000
00000000
;
