#TITLE:MGS2 mission R;
#SUBTITLE:;
#ARTIST:L.E.D.;
#TITLETRANSLIT:;
#SUBTITLETRANSLIT:;
#ARTISTTRANSLIT:;
#GENRE:;
#CREDIT:;
#BANNER:MGS2 mission R.png;
#BACKGROUND:MGS2 mission R-bg.png;
#LYRICSPATH:;
#CDTITLE:beatmania.png;
#MUSIC:MGS2 mission R.ogg;
#OFFSET:-0.100000;
#SAMPLESTART:44.609985;
#SAMPLELENGTH:15.000000;
#SELECTABLE:YES;
#BPMS:0.000000=150.000000
;
#STOPS:
;
#BGCHANGES:8.000=cube13.mp4=2.000=0=0=1===CrossFade_Fastest==,
16.000=tunnel3.mp4=2.000=0=0=1=====,
24.000=virus1.mp4=2.000=0=0=1=====,
28.000=geometry1.mp4=2.000=0=0=1=====,
32.000=cube8.mp4=1.200=0=0=1=====,
40.000=rotation4.mp4=2.000=0=0=1=====,
48.000=spikes7.mp4=2.000=0=0=1=====,
56.000=cyber2.mp4=2.000=0=0=1=====,
64.000=cube8.mp4=1.200=0=1=1=StretchRewind====,
68.000=virus1.mp4=2.000=0=1=1=StretchRewind====,
72.000=spikes7.mp4=2.000=0=1=1=StretchRewind====,
74.000=cube13.mp4=2.000=0=1=1=StretchRewind====,
76.000=cube8.mp4=1.200=0=0=1=====,
77.000=cube13.mp4=2.000=0=0=1=====,
78.000=cube8.mp4=1.200=0=0=1=====,
79.000=cube13.mp4=2.000=0=0=1=====,
80.000=geometry1.mp4=2.000=0=1=1=StretchRewind====,
88.000=tunnel3.mp4=2.000=0=1=1=StretchRewind====,
96.000=cyber2.mp4=2.000=0=1=1=StretchRewind====,
100.000=rotation4.mp4=2.000=0=1=1=StretchRewind====,
104.000=cyber2.mp4=2.000=0=0=1=====,
106.000=rotation4.mp4=2.000=0=0=1=====,
108.000=virus1.mp4=2.000=0=1=1=StretchRewind====,
112.000=cube13.mp4=2.000=0=1=1=StretchRewind====,
120.000=geometry1.mp4=2.000=0=1=1=StretchRewind====,
128.000=cube8.mp4=1.200=0=1=1=StretchRewind====,
136.000=tunnel3.mp4=2.000=0=1=1=StretchRewind====,
144.000=spikes7.mp4=2.000=0=1=1=StretchRewind====,
152.000=virus1.mp4=2.000=0=1=1=StretchRewind====,
156.000=geometry1.mp4=2.000=0=1=1=StretchRewind====,
160.000=cyber2.mp4=2.000=0=1=1=StretchRewind====,
168.000=cube13.mp4=2.000=0=1=1=StretchRewind====,
172.000=rotation4.mp4=2.000=0=1=1=StretchRewind====,
174.000=cube8.mp4=1.200=0=1=1=StretchRewind====,
176.000=geometry1.mp4=2.000=0=1=1=StretchRewind====,
180.000=tunnel3.mp4=2.000=0=1=1=StretchRewind====,
192.000=cyber2.mp4=2.000=0=1=1=StretchRewind====,
196.000=cube13.mp4=2.000=0=1=1=StretchRewind====,
200.000=rotation4.mp4=2.000=0=1=1=StretchRewind====,
204.000=virus1.mp4=2.000=0=1=1=StretchRewind====,
208.000=cube13.mp4=2.000=0=1=1=StretchRewind====,
210.500=geometry1.mp4=2.000=0=1=1=StretchRewind====,
212.000=cube8.mp4=1.200=0=1=1=StretchRewind====,
216.000=geometry1.mp4=2.000=0=1=1=StretchRewind====,
218.500=tunnel3.mp4=2.000=0=1=1=StretchRewind====,
220.000=cube8.mp4=1.200=0=0=1=====,
224.000=tunnel3.mp4=2.000=0=1=1=StretchRewind====,
226.500=rotation4.mp4=2.000=0=1=1=StretchRewind====,
228.000=cube13.mp4=2.000=0=1=1=StretchRewind====,
232.000=rotation4.mp4=2.000=0=0=1=====,
234.500=cyber2.mp4=2.000=0=1=1=StretchRewind====,
236.000=spikes7.mp4=2.000=0=1=1=StretchRewind====,
240.000=MGS2 mission R-bg.png=1.000=0=0=1=====,
99999=-nosongbg-=1.000=0=0=0 // don't automatically add -songbackground-
;
#KEYSOUNDS:;
#ATTACKS:;

//---------------dance-single - ----------------
#NOTES:
     dance-single:
     :
     Beginner:
     4:
     0.161923,0.245073,0.153171,0.000000,0.000000,111.000000,96.000000,15.000000,0.000000,0.000000,0.000000,0.161923,0.245073,0.153171,0.000000,0.000000,111.000000,96.000000,15.000000,0.000000,0.000000,0.000000:
0000
0000
0000
0000
,
0000
0000
0000
0000
,
1001
0000
0000
0000
,
0000
0000
0000
0000
,
1001
0000
0100
0000
,
0100
0000
0000
0000
,
1001
0000
0010
0000
,
0010
0000
0000
0000
,
1000
0000
1000
0000
,
1000
0000
0000
0000
,
0001
0000
0001
0000
,
1001
0000
0000
0000
,
0010
0000
0010
0000
,
0010
0000
0000
0000
,
0100
0000
0100
0000
,
0100
0000
0000
0000
,
0001
0000
0001
0000
,
0001
0000
0000
0000
,
1000
0000
1000
0000
,
1000
0000
0000
0000
,
1000
1000
1000
0000
,
0000
0000
0000
0000
,
0001
0001
0001
0000
,
0000
0000
0000
0000
,
1000
1000
1000
0000
,
0010
0010
0010
0000
,
0100
0100
0100
0000
,
0000
0000
0000
0000
,
0001
0000
0001
0000
,
1000
0100
1000
0000
,
0010
0000
0010
0000
,
0100
0000
0100
0000
,
0001
0000
0001
0000
,
1000
0010
1000
0000
,
0001
0000
0001
0000
,
1000
0000
1000
0000
,
1001
0000
1001
0000
,
1001
0000
0000
0000
,
0010
0000
0010
0000
,
0010
0000
0000
0000
,
0100
0000
0100
0000
,
0100
0000
0001
0000
,
0001
0000
0001
0000
,
0100
0000
0100
0000
,
1001
0000
1001
0000
,
1001
0000
0000
0000
,
0010
0000
0010
0000
,
0010
0000
1000
0000
,
1001
0000
0000
0000
,
1001
0000
0000
0000
,
1001
0000
1001
0000
,
0000
0000
0000
0000
,
0010
0010
0010
0000
,
0000
0000
0000
0000
,
0010
0010
0010
0000
,
0000
0000
0000
0000
,
0100
0100
0100
0000
,
0000
0000
0000
0000
,
0100
0100
0100
0000
,
0000
0000
0000
0000
,
1001
0000
0000
0000
;

//---------------dance-single - ----------------
#NOTES:
     dance-single:
     :
     Easy:
     6:
     0.259661,0.367610,0.194016,0.142959,0.000000,178.000000,159.000000,19.000000,14.000000,0.000000,0.000000,0.259661,0.367610,0.194016,0.142959,0.000000,178.000000,159.000000,19.000000,14.000000,0.000000,0.000000:
0000
0000
0000
0000
,
0000
0000
2000
0000
,
3100
0000
0000
0000
,
0002
0000
1003
0001
,
1001
0000
0010
0000
,
0010
0000
0100
0100
,
1001
0000
0010
0000
,
0010
0000
0100
0100
,
2002
3003
0010
1000
,
0100
0000
0010
0000
,
2002
3003
0010
0100
,
2002
0000
0000
3003
,
0010
0010
0010
0010
,
0010
0000
1000
0000
,
0010
0010
0010
0010
,
0010
0000
0100
0000
,
0001
0001
0001
0001
,
0001
0000
0100
0000
,
0010
1000
0100
0010
,
0001
0000
1000
0000
,
1001
0000
1001
0000
0000
2002
0000
0000
,
0000
0000
0000
0000
3003
0000
0000
0010
,
0100
0000
0110
0000
0000
0220
0000
0000
,
0000
0000
0000
0000
0330
0000
0000
1000
,
0001
0000
1001
0000
0000
0010
0000
0000
,
1001
0000
0000
0100
0000
0000
1001
0000
,
0010
1000
0100
0010
,
0001
0000
0000
0000
,
1000
1000
1000
1000
,
1000
0000
0000
0001
0000
0000
0000
0000
,
1000
0000
0010
0000
,
0100
0000
0001
0000
,
0010
0010
0010
0010
,
0010
0000
0000
0001
0000
0000
1000
0000
,
0100
0000
1000
0000
,
0001
0000
0010
0000
,
0001
0100
0010
1000
,
0100
0000
0010
0000
,
0001
0000
0000
1000
0000
0000
0010
0000
,
0100
0001
0010
0100
,
1001
0000
0010
0000
,
0100
0000
0001
0000
,
1000
0000
0100
0000
,
0001
0000
0100
0000
,
1000
0010
0100
0001
,
0010
0000
0100
0000
,
1000
0000
0010
0000
,
0100
0000
0000
0001
0000
0000
0010
0000
,
1100
1000
1000
1000
,
1001
0001
0001
0001
,
1001
0000
0220
0000
,
0330
0000
0000
0000
0000
0000
0000
0001
,
1000
0000
0010
0000
0000
0010
0000
0000
,
0100
0100
0001
0001
,
0010
0000
0100
0000
0000
1000
0000
0000
,
0100
0000
0000
0000
0010
0000
0000
0001
,
1000
0000
0010
0000
0000
0010
0000
0000
,
0100
0001
0010
0100
,
1000
0000
0001
0000
0000
1000
0000
0000
,
0010
0010
0010
0010
,
1001
0000
0000
0000
;

//---------------dance-single - ----------------
#NOTES:
     dance-single:
     :
     Medium:
     10:
     0.475558,0.459512,0.408455,0.255284,0.056163,326.000000,286.000000,40.000000,25.000000,0.000000,0.000000,0.475558,0.459512,0.408455,0.255284,0.056163,326.000000,286.000000,40.000000,25.000000,0.000000,0.000000:
0000
0000
0000
0000
,
0000
0000
0000
0000
1000
0100
1000
0100
,
1100
0000
0000
0000
0000
0000
0000
0001
,
0100
0000
0000
0010
0000
0000
1000
0000
0001
0000
1000
0000
0001
0000
1000
0000
,
1001
0000
0000
0010
0000
0000
0001
0000
0100
0000
0000
0010
0000
0000
1000
0000
,
0100
0000
0000
0010
0000
0000
0001
0000
1000
0000
0100
0000
0000
1000
0000
0000
,
0001
0000
0000
0010
0000
0000
0100
0000
1000
0000
0000
0100
0000
0000
0010
0000
,
0001
0000
0000
1000
0000
0000
0001
0000
0100
0000
0010
0000
0000
1001
0000
0000
,
0120
0000
1000
0000
0000
1030
0000
0001
,
0200
0001
1000
0301
,
0210
0000
0001
0000
0000
0301
0000
1000
,
2002
0000
0000
0000
3003
0000
0001
1000
,
2001
0000
0010
0000
0000
3010
0000
1000
,
0100
0010
0001
0000
1000
0001
1000
0000
,
0012
0000
1000
0000
0000
1003
0000
0001
,
0010
0100
1000
0000
0001
1000
0001
0000
,
0120
0000
1030
0100
0000
0010
0001
0000
,
1000
0100
0001
0000
0001
0100
1000
0000
,
0012
0000
1003
0001
0000
0010
0100
0000
,
1000
0010
0001
0000
0001
0010
1000
0000
,
0101
0000
2002
0000
3003
2002
0000
0000
,
0000
0000
0000
0000
0000
0000
3003
1000
,
1010
0000
0220
0000
0330
0220
0000
0000
,
0000
0000
0000
0000
0000
0000
0330
0001
,
0101
0000
1010
0000
0000
1001
0000
0000
,
0011
0000
0000
0101
0000
0000
0110
0000
,
1010
0001
0110
2002
,
3003
0000
0000
0000
,
0001
1000
0001
0000
1000
0001
1000
0000
,
0011
0000
0000
0101
0000
0100
0010
1000
,
0100
0010
0001
0000
0010
0100
1000
0000
,
0100
0010
0001
0010
1000
0010
0000
0000
,
0001
0100
0001
0000
1000
0010
1000
0000
,
0110
0000
0000
0101
0000
0000
1001
0000
,
0001
1000
0100
0000
0010
0001
1000
0000
,
0010
0100
0010
0001
0010
1000
0010
0100
,
0002
0000
0000
0000
1000
0000
0000
1000
0000
0000
1003
0000
0000
0000
0010
0000
,
2000
0000
0000
0000
0001
0000
0000
0001
0000
0000
3001
0000
1000
0000
0100
0000
,
0010
0001
0000
1000
0100
0000
0010
0001
,
1000
0000
0010
0100
0001
0100
0010
1000
,
1001
0000
0000
0001
0010
0001
0000
1000
,
0100
0000
0010
0001
0000
0100
0010
0000
,
1000
0001
0000
0010
0100
0000
1000
0100
,
0000
0010
0001
0010
1000
0010
0001
0100
,
0010
0000
1000
0002
0000
0013
0100
1000
,
0100
0010
0000
0011
0000
0001
1000
0200
,
0000
0000
0310
0001
0000
0010
0100
1000
,
0001
0100
0000
0010
1000
0000
0001
0100
,
0001
0000
1000
0010
0001
0000
0010
0000
,
1100
0000
0001
0100
1000
0000
0100
0000
,
0011
0000
0000
1000
0001
0000
0000
0010
,
0100
0000
0000
0000
0000
0000
0000
1000
,
1001
0000
0001
0001
0000
1000
1000
0000
,
1200
0010
1000
0301
,
0110
0000
1000
1000
0000
0010
0010
0000
,
0201
0000
1000
0000
0010
0000
0301
0100
,
0010
0000
1000
1000
0000
0100
0100
0000
,
0010
0001
0010
0000
0100
1000
0100
0000
,
0101
0000
0010
0010
0000
0100
0100
0000
,
0001
1000
0001
0000
1000
0001
1000
0000
,
1001
0000
0000
0000
;

//---------------dance-single - ----------------
#NOTES:
     dance-single:
     :
     Hard:
     13:
     0.582048,0.582048,0.265496,0.336975,0.372715,399.000000,373.000000,26.000000,33.000000,0.000000,0.000000,0.582048,0.582048,0.265496,0.336975,0.372715,399.000000,373.000000,26.000000,33.000000,0.000000,0.000000:
0000
0000
0000
0000
,
0000
0000
0000
0000
0000
0000
0000
0000
1000
0100
1000
0100
1000
0100
1000
0100
,
1000
0000
0000
0000
0000
0000
0000
0001
,
0100
0000
0000
0010
0000
0000
1000
0000
0001
1000
0001
1000
0001
1000
0001
1000
,
0001
0000
0000
1000
0000
0000
0100
0000
0010
0000
0000
0001
0000
0000
0010
0000
,
1000
0000
0000
0010
0000
0000
0001
0000
0100
0000
0010
0000
0000
1000
0000
0000
,
0001
0000
0000
0100
0000
0000
0010
0000
1000
0000
0000
0100
0000
0000
0010
0000
,
0001
0000
0000
1000
0000
0000
0010
0000
0100
0000
0001
0000
0000
1000
0001
0000
,
0020
0000
0000
0031
0000
0000
0001
0000
2000
0000
0000
0100
0000
0000
3001
0000
,
1000
0020
0001
0000
0031
0010
1000
0000
,
0020
0000
0000
1030
0000
0000
1000
0000
0200
0000
0000
0001
0000
0000
0310
0000
,
2002
0000
0000
0000
0000
0000
0000
0000
3003
0000
0000
0000
1000
0001
1000
0001
,
1000
0000
0012
0000
1003
0020
0000
0130
,
0001
0000
0000
0010
0000
0100
1000
0000
0100
0000
0010
0000
0000
0000
0001
0000
,
1000
0000
0120
0000
1030
0002
0000
0013
,
0100
0000
0000
1000
0000
0001
0100
0000
0010
0000
1000
0000
0100
0000
0010
0001
,
0010
0000
2100
0000
3001
0200
0000
0310
,
1000
0000
0001
0020
1000
0000
1030
0010
,
0001
1000
0100
0001
0100
1000
0010
0100
,
0101
0000
1010
0000
0110
0000
1000
0001
,
0201
0000
0010
0000
0000
0020
0000
0000
,
0000
0000
0000
0000
0000
0000
0000
0000
0000
0000
0330
0000
0000
1000
0100
0000
,
1100
0000
2001
0000
0000
0002
0000
0000
,
0000
0000
0000
0000
0000
0000
0000
0000
0000
0000
3003
0000
0000
0001
0100
0001
,
1000
0000
0210
0000
0000
0001
0000
0300
,
0120
0000
0000
1000
0000
0030
1001
0000
,
0120
1030
0210
0302
,
0003
0000
0000
0000
,
1000
0001
0010
0100
1000
0001
0010
1000
,
0010
0000
0000
0001
0100
0000
0010
0000
0000
1000
0010
0000
0100
0000
0000
0000
,
0001
1000
0100
0010
0100
0001
0100
1000
,
0010
0000
0100
0000
0010
0000
0001
0000
0010
0000
1000
0000
0000
0001
0100
0000
,
0010
1000
0001
0010
0100
0010
0001
1000
,
0010
0000
0000
0100
0001
0000
0010
0000
0000
0001
1000
0100
0010
0000
0100
0000
,
1000
0000
0000
0001
0000
0000
0010
0000
0100
0000
1000
0000
0000
0000
0100
0000
,
0010
0001
1000
0010
0100
0001
0010
0100
,
1000
0000
0000
0001
0100
0000
0001
0100
0000
0000
0010
0000
1000
0000
0000
0100
,
1000
0000
0100
1000
0000
0100
1000
0000
0000
0000
0100
0000
0010
0000
0001
0000
,
1000
1000
0000
0001
0001
0000
0010
0100
,
1000
0000
0001
0100
0000
0001
0100
0000
0010
0000
1000
0100
0000
0000
0010
0000
,
0001
0000
0000
1000
0000
0010
0100
0000
0001
0000
0010
0000
0010
0000
0100
0000
,
1000
1000
0100
0010
0010
0001
1000
1000
,
0001
0100
0100
1000
0100
0100
0010
1000
,
1000
0001
0010
0010
0010
0100
1000
0100
,
0011
0000
0000
1000
0001
0000
1000
0001
0010
0000
0100
0000
1000
0000
0100
0000
,
0010
0010
0000
0101
0000
0010
1000
0100
,
0010
0100
0000
1001
0000
0010
0100
0001
,
1000
0000
0100
1000
0000
0000
0010
0000
0100
0001
0000
0000
1000
0001
1000
0000
,
0010
0100
0001
0010
1000
0010
0001
0100
,
0010
1000
0100
0001
0100
0010
0001
1000
,
0010
0000
0000
0100
0000
0001
1000
0000
0010
0000
0000
1000
0000
0100
0010
0000
,
1001
0000
0000
0000
0000
0000
0000
0000
0000
0000
0000
0000
0000
0000
0001
1000
,
0100
0000
0021
0000
0000
1000
0000
0001
,
0031
0000
0000
1000
0000
0001
0100
0000
0010
0000
0010
0000
0000
0000
1000
0100
,
0010
0000
2002
0000
3003
2200
0000
3300
,
0101
0000
0000
0010
0000
1000
0100
0000
0010
0000
0010
0000
0001
1000
0100
1000
,
0100
0000
0012
0000
0000
1000
0000
0100
,
0103
0000
0000
0010
0000
1000
0001
0000
0010
0000
0100
0000
1000
0000
0001
0100
,
0010
0000
2020
0000
3030
0202
0000
0303
,
1000
0000
0000
0001
0000
0010
0001
0000
1000
0000
0000
0010
0000
0100
0010
1000
,
0001
0000
0000
0000
;

//---------------dance-single - ----------------
#NOTES:
     dance-single:
     :
     Challenge:
     15:
     0.746889,0.796487,0.153171,0.224650,0.832227,512.000000,497.000000,15.000000,22.000000,0.000000,0.000000,0.746889,0.796487,0.153171,0.224650,0.832227,512.000000,497.000000,15.000000,22.000000,0.000000,0.000000:
// measure 0
0000
0000
0000
0000
,  // measure 1
0000
0000
0000
0000
0000
0000
0000
0000
1000
0100
1000
0100
1000
0100
1000
0100
,  // measure 2
1000
0000
0000
0000
0000
0000
0000
0001
,  // measure 3
0100
0000
0000
0010
0000
0000
1000
0000
0001
1000
0001
1000
0001
1000
0001
1000
,  // measure 4
0001
0000
0000
0100
0010
0000
1000
0000
0100
0000
0000
0010
0000
0001
0100
0000
,  // measure 5
0010
0000
0000
1000
0001
0000
0010
0000
0100
0000
0000
0010
0000
0001
1000
0000
,  // measure 6
0100
0000
1000
0001
1000
0000
0010
0000
0100
0000
0000
0001
0000
0010
0001
0000
,  // measure 7
0100
0000
0010
0100
0010
0000
1000
0000
0100
0000
0000
0010
0000
0001
0010
0100
,  // measure 8
2000
0000
0000
3001
0000
0001
0010
0000
0200
0000
0000
1300
0000
1000
0100
0000
,  // measure 9
0010
0000
0001
0200
0000
0000
0010
0000
0310
0000
1000
0200
0000
0000
0310
0001
,  // measure 10
2000
0000
0000
3010
0000
0010
0100
0000
0002
0000
0000
1003
0000
1000
0100
0000
,  // measure 11
0220
0000
0000
0000
0000
0000
0000
0000
0330
0000
0000
0001
1000
0001
1000
0001
,  // measure 12
1000
0000
0000
0001
0000
1000
0100
0000
0010
0000
0001
0100
0000
0001
1000
0000
,  // measure 13
0010
0000
0000
0100
0000
0001
1000
0000
0100
0000
0010
0000
0001
0000
1000
0001
,  // measure 14
0010
0000
0000
0100
0000
1000
0100
0000
0010
0000
0001
0100
0000
0010
1000
0000
,  // measure 15
0001
0000
0000
0100
0000
0010
1000
0100
0010
0000
0001
0000
1000
0100
1000
0100
,  // measure 16
0010
0000
0000
0001
0000
1000
0100
0000
0010
0000
0100
1000
0000
0100
0001
0000
,  // measure 17
0100
0000
1000
0001
0000
0000
0010
0000
0001
0000
0100
0000
0001
1000
0001
1000
,  // measure 18
0010
0100
0001
0010
1000
0010
0001
0100
,  // measure 19
0010
1000
0010
1000
0100
0010
0100
0010
0001
0010
0001
1000
0001
1000
0010
0100
,  // measure 20
0002
0000
0000
0000
1000
0000
0000
0000
0000
0000
2000
0000
0003
0000
0000
0010
,  // measure 21
0000
0000
0100
0000
0100
0000
0000
0001
0000
0000
0000
0010
0000
3010
1000
0000
,  // measure 22
1020
0000
0000
0000
0100
0000
0000
0000
0000
0000
0200
0000
0030
0000
0000
0001
,  // measure 23
0000
0000
1000
0000
1000
0000
0000
0001
0000
0000
0000
0010
0000
0310
0100
0000
,  // measure 24
1001
0000
2200
0000
3300
0220
0000
0330
,  // measure 25
0022
0000
0033
2002
0000
3003
0101
0000
,  // measure 26
1001
1020
0130
0201
,  // measure 27
0300
0000
0000
0000
,  // measure 28
0001
1000
1000
0010
0100
0100
0001
0010
,  // measure 29
0100
1000
0000
0000
0100
0000
0010
0001
0000
0000
1000
0000
0001
0010
0001
0000
,  // measure 30
0100
0000
0010
1000
0000
0010
0100
0000
0010
0000
1000
0100
0000
0010
0001
0000
,  // measure 31
0100
0000
0001
1000
0010
0000
0100
0000
0001
0000
1000
0100
0010
0000
0001
0000
,  // measure 32
0100
0001
0001
0010
0100
0100
1000
0010
,  // measure 33
0100
0001
0000
0000
0010
0000
0001
1000
0000
0000
0100
0000
0010
0001
0010
0000
,  // measure 34
0100
0000
1000
0001
0000
0010
0100
0000
1000
0000
0001
0010
0001
0000
1000
0000
,  // measure 35
0100
0000
0010
0001
0010
0000
0100
0000
1000
0000
0001
0100
0001
0100
0010
0000
,  // measure 36
1000
0010
0000
1000
0010
0000
1000
0010
0000
1000
0010
0000
1000
0010
0000
0100
,  // measure 37
0001
0100
0000
0001
0100
0000
0001
0100
0000
0001
0100
0000
0001
1000
0000
0100
,  // measure 38
0010
0001
0001
0100
0010
0010
1000
0100
,  // measure 39
0100
0000
0010
0001
0000
0010
0100
0000
1000
0100
0000
0010
0001
0010
0100
0000
,  // measure 40
1000
0000
0000
0001
0100
0000
0010
0000
1000
0000
0100
0010
0100
0000
0010
0000
,  // measure 41
0001
0100
0001
0000
1000
0000
0010
1000
0001
0000
0100
0000
0001
1000
0010
0000
,  // measure 42
1000
0000
0100
0001
0100
0000
0010
0000
0100
1000
0100
0000
1000
0000
0001
0100
,  // measure 43
0010
0000
1000
0000
0001
0010
0100
0000
1000
0000
0001
1000
0010
0000
0100
0000
,  // measure 44
1001
0000
0000
0010
0001
1000
0001
0000
0100
0000
0010
0000
0010
0000
1000
0000
,  // measure 45
0100
0000
0010
0000
0000
0000
0001
1000
0100
0000
1000
0000
0001
0000
0010
0000
,  // measure 46
0000
0000
0001
0000
1000
0000
1100
0000
0000
0000
0010
0001
1000
0000
0010
0000
,  // measure 47
0100
0000
0001
0010
0000
0000
0001
0000
1000
0100
0000
0000
0010
0001
1000
0000
,  // measure 48
1010
0010
0100
0001
0010
0001
1000
0100
,  // measure 49
1100
0100
0010
0001
0010
1000
0010
0001
,  // measure 50
0100
0010
0100
0010
1000
0100
1000
0100
0010
0001
0010
0001
1000
0010
1000
0010
,  // measure 51
0100
0000
0000
0000
0000
0000
0000
0000
0000
0000
0000
0000
0000
0000
1000
0100
,  // measure 52
0001
0000
0100
0000
0010
0100
0000
0000
0010
0000
1000
0001
0000
0000
0100
0000
,  // measure 53
0001
0000
0000
0010
0000
0001
1000
0000
0100
0000
0010
0000
0000
0001
0010
0100
,  // measure 54
1000
0000
0000
0000
0001
0100
0000
0000
1000
0000
0100
0001
0000
0000
0001
0010
,  // measure 55
1000
0000
0010
0001
0000
0000
0100
0000
0010
0000
1000
0000
0100
0010
0001
0010
,  // measure 56
0100
0000
1000
0000
0001
0010
0000
0000
0100
0000
1000
0100
0000
0010
0001
0010
,  // measure 57
0100
0000
0000
1000
0000
0001
0010
0000
0100
0000
1000
0000
0000
0001
1000
0010
,  // measure 58
0001
0000
0010
0000
1000
0001
0000
0000
0010
0000
0001
0100
0000
0000
0010
0000
,  // measure 59
1000
0000
0000
0100
0000
0010
0001
0010
0100
0000
1000
0000
0001
0100
1000
0100
,  // measure 60
0001
0000
0000
0000
;
