#TITLE:MARS WAR 3;
#SUBTITLE:;
#ARTIST:JET GIRL SPIN;
#TITLETRANSLIT:;
#SUBTITLETRANSLIT:;
#ARTISTTRANSLIT:;
#GENRE:TOY BRAKE CORE;
#CREDIT:KONAMI/YonabearCWY;
#BANNER:MARS WAR 3.png;
#BACKGROUND:MARS WAR 3-bg.png;
#LYRICSPATH:;
#CDTITLE:pop'n music.png;
#MUSIC:MARS WAR 3.ogg;
#OFFSET:-0.130000;
#SAMPLESTART:28.920006;
#SAMPLELENGTH:15.000000;
#SELECTABLE:YES;
#DISPLAYBPM:200.000000;
#BPMS:0.000000=200.000000
;
#STOPS:
;
#BGCHANGES:32.000=ring5.mp4=1.000=1=0=1===CrossFade==,
48.000=bluey1.mp4=1.000=0=0=1=====,
64.000=ring4.mp4=1.000=0=0=1=====,
80.000=bluey2.mp4=0.700=0=0=1=====,
94.000=bluey2.mp4=0.100=0=0=1=====,
95.000=aliens1.mp4=0.100=0=0=1=====,
96.000=aliens1.mp4=1.000=0=0=1=====,
112.000=amoeba1.mp4=1.000=0=0=1=====,
128.000=bubble2.mp4=1.600=0=0=1=====,
136.000=amoeba3.mp4=1.600=0=0=1=====,
144.000=light6.mp4=1.600=0=0=1=====,
148.000=green1.mp4=2.000=0=0=1=====,
152.000=countdown1.mp4=0.800=0=0=1=====,
158.000=countdown1.mp4=0.100=0=0=1=====,
159.000=blackhole1.mp4=0.100=0=0=1=====,
161.000=blackhole1.mp4=1.000=0=0=1=====,
176.000=amoeba4.mp4=1.600=0=0=1=====,
192.000=blizzard6.mp4=1.600=0=0=1=====,
194.000=light1.mp4=1.600=0=0=1=====,
196.000=blizzard6.mp4=1.600=0=0=1=====,
198.000=light1.mp4=1.600=0=0=1=====,
200.000=blizzard6.mp4=1.600=0=0=1=====,
202.000=light1.mp4=1.600=0=0=1=====,
204.000=blackhole2.mp4=1.600=0=0=1=====,
208.000=blizzard1.mp4=1.600=0=0=1=====,
224.000=grid1.mp4=1.600=0=0=1=====,
238.000=blackhole2.mp4=2.000=0=1=1=StretchRewind====,
240.000=bubble2.mp4=1.600=0=1=1=StretchRewind====,
248.000=amoeba3.mp4=1.600=0=1=1=StretchRewind====,
256.000=light6.mp4=1.600=0=1=1=StretchRewind====,
260.000=green1.mp4=2.000=0=1=1=StretchRewind====,
264.000=countdown1.mp4=0.800=0=1=1=StretchRewind====,
270.000=countdown1.mp4=0.100=0=0=1=====,
271.000=blackhole1.mp4=0.100=0=1=1=StretchRewind====,
272.000=blackhole1.mp4=1.000=0=0=1=====,
288.000=amoeba4.mp4=1.600=0=1=1=StretchRewind====,
304.000=blizzard6.mp4=1.600=0=1=1=StretchRewind====,
306.000=light1.mp4=1.600=0=1=1=StretchRewind====,
308.000=blizzard6.mp4=1.600=0=0=1=====,
310.000=light1.mp4=1.600=0=0=1=====,
312.000=aliens1.mp4=1.600=0=1=1=StretchRewind====,
320.000=blizzard6.mp4=1.600=0=1=1=StretchRewind====,
322.000=light1.mp4=1.600=0=1=1=StretchRewind====,
324.000=blizzard6.mp4=1.600=0=0=1=====,
326.000=light1.mp4=1.600=0=0=1=====,
328.000=amoeba3.mp4=1.600=0=1=1=StretchRewind====,
329.000=amoeba1.mp4=1.600=0=1=1=StretchRewind====,
330.000=amoeba3.mp4=1.600=0=0=1=====,
331.000=amoeba1.mp4=1.600=0=0=1=====,
332.000=blackhole2.mp4=1.600=0=1=1=StretchRewind====,
336.000=blizzard1.mp4=1.600=0=1=1=StretchRewind====,
352.000=ring4.mp4=1.000=0=1=1=StretchRewind====,
368.000=MARS WAR 3-bg.png=1.000=0=0=1=====,
99999=-nosongbg-=1.000=0=0=0 // don't automatically add -songbackground-
;
#KEYSOUNDS:;
#ATTACKS:;

//---------------dance-single - ----------------
#NOTES:
     dance-single:
     BEGINNER:
     Beginner:
     5:
     0.000000,0.000000,0.000000,0.000000,0.000000,0.000000,0.000000,0.000000,0.000000,0.000000,0.000000,0.000000,0.000000,0.000000,0.000000,0.000000,0.000000,0.000000,0.000000,0.000000,0.000000,0.000000:
0000
0000
0000
0000
,
0000
0000
0000
0000
,
0000
0000
0000
0000
,
0000
0000
0000
0000
,
0000
0000
0000
0000
,
0000
0000
0000
0000
,
0000
0000
0000
0000
,
0000
0000
0000
0000
,
1000
0000
1000
0000
,
1000
0000
0000
0000
,
0001
0000
0001
0000
,
0001
0000
0000
0000
,
1000
0000
1000
0000
,
1000
0000
0000
0000
,
0001
0000
0001
0000
,
0001
0000
0000
0000
,
0100
0000
0100
0000
,
0100
0000
0000
0000
,
0010
0000
0010
0000
,
0010
0000
0000
0000
,
0100
0000
0100
0000
,
0100
0000
0000
0000
,
0010
0000
0010
0000
,
0010
0000
0000
0000
,
1000
1000
1000
0000
,
1000
0000
0000
0000
,
1000
0000
1000
0000
,
1000
0000
0000
0000
,
0001
0001
0001
0000
,
0001
0000
0000
0000
,
0001
0000
0001
0000
,
0001
0000
0000
0000
,
1000
0000
1000
0000
,
1000
0000
0000
0000
,
0100
0000
0100
0000
,
0100
0000
0000
0000
,
0010
0000
0010
0000
,
0010
0000
0000
0000
,
0001
0000
0001
0000
,
0001
0000
0001
0000
,
1001
0000
0000
0000
,
0100
0100
0100
0000
,
1001
0000
0000
0000
,
0010
0010
0010
0000
,
1000
0000
0001
0000
,
1000
0000
0001
0000
,
0100
0000
0010
0000
,
0100
0000
0010
0000
,
1001
0000
1001
0000
,
1001
0000
1001
0000
,
0110
0000
0110
0000
,
0110
0000
0110
0000
,
1000
1000
1000
0000
,
1000
1000
1000
0000
,
0001
0001
0001
0000
,
0001
0001
0001
0000
,
1000
0000
0000
0000
,
0000
0000
0000
0000
,
0001
0000
0000
0000
,
0000
0000
1001
0000
,
0100
0000
0100
0000
,
0100
0000
0000
0000
,
0010
0000
0010
0000
,
0010
0000
0000
0000
,
1000
0000
1000
0000
,
1000
0000
0000
0000
,
0001
0000
0001
0000
,
0001
0000
0001
0000
,
1001
0000
1000
0000
,
1000
0000
1000
0000
,
1001
0000
0001
0000
,
0001
0000
0001
0000
,
0001
0001
0001
0000
,
0001
0000
0000
0000
,
1000
1000
1000
0000
,
1000
0000
0000
0000
,
0110
0000
0110
0000
,
0110
0000
0110
0000
,
1001
0000
1001
0000
,
1001
0000
1001
0000
,
0110
0000
0110
0000
,
0110
0000
0110
0000
,
1001
1001
1001
1001
,
1001
0000
0100
0000
,
0010
0000
0100
0000
,
0010
0000
0001
0000
,
1000
0000
0001
0000
,
1000
0000
0000
0000
,
1001
0000
0000
0000
,
0000
0000
0000
0000
,
0010
0000
0000
0000
,
0000
0000
0000
0000
,
2002
0000
0000
0000
,
0000
3003
0000
0000
;

//---------------dance-single - ----------------
#NOTES:
     dance-single:
     BASIC:
     Easy:
     7:
     0.000000,0.000000,0.000000,0.000000,0.000000,0.000000,0.000000,0.000000,0.000000,0.000000,0.000000,0.000000,0.000000,0.000000,0.000000,0.000000,0.000000,0.000000,0.000000,0.000000,0.000000,0.000000:
0000
0000
0000
0000
,
0000
0000
0000
0000
,
0000
0000
0000
0000
,
0000
0000
0000
0000
,
0000
0000
0000
0000
,
0000
0000
0000
0000
,
0000
0000
0000
0000
,
0000
0000
0000
0000
,
1000
0000
1000
0000
,
1000
1000
0001
0000
,
0010
0100
1000
0000
,
0001
0100
0010
0000
,
0100
0000
0100
0000
,
0100
0100
0010
0000
,
1000
0001
0010
0100
,
1100
0101
1100
0000
,
0001
0000
0001
0000
,
0001
0001
1000
0000
,
0010
0100
0001
0000
,
1000
0100
0010
0000
,
0010
0000
0010
0000
,
0010
0010
0100
0000
,
1000
0000
0001
0000
,
0100
0010
1001
1001
,
0110
0000
0010
1000
,
0010
0000
0100
0000
,
0001
0000
1000
0001
,
1000
0000
0001
0000
,
0010
0000
0100
1000
,
0100
0000
0010
0000
,
0001
0000
1000
0001
,
1000
0000
0001
0000
,
1000
0000
0010
0000
,
0001
0000
0100
0000
,
1000
0000
0001
0000
,
1000
0010
0001
0100
,
1100
0101
1100
0000
,
0110
1001
0110
0000
,
2000
3001
0002
1003
,
2000
3001
1001
0110
,
1001
0000
0000
0001
0010
0000
0000
0000
,
0100
0100
0100
0000
,
1000
0000
0001
0000
,
0010
0000
1000
0000
,
0100
0001
0100
1000
,
0001
0100
0001
1000
,
0010
1000
0001
0100
,
0110
1010
1001
0000
,
0101
0000
0000
0001
0001
0000
0000
0010
,
0010
0000
0000
0001
0001
0000
0000
1000
,
1000
0000
0000
0100
0100
0000
0000
1000
,
1000
0010
0100
0001
,
0011
0100
1000
0001
,
1000
0100
0010
0001
,
1000
0001
0100
0010
,
1000
0100
0010
1000
,
0220
0000
0000
0330
,
0001
0000
0001
0000
1000
0001
1000
0000
,
2002
0000
0000
3003
,
0100
0000
0100
0000
0010
0200
0000
0000
,
0301
1000
0010
0100
,
0001
0010
0100
1000
,
0001
1000
0100
0010
,
0001
1000
0001
0100
,
0101
1001
1010
0000
,
1100
0110
0011
0000
,
0200
0310
0020
0130
,
0200
0310
0110
1001
,
0120
0001
1000
0001
,
1000
0001
1000
0001
,
2030
0100
0010
0100
,
0010
0100
3010
1001
,
0110
0000
0001
0100
0001
0000
0010
0000
,
0100
1000
0001
0000
,
1010
0000
1000
0001
1000
0000
0010
0000
,
0101
0011
1001
0000
,
0110
0000
0000
1000
1000
0000
0000
0001
,
0001
0000
0000
1000
1000
0000
0000
0010
,
0010
0000
0000
0100
0100
0000
0000
0010
,
0010
0000
0000
0100
0100
0000
0000
0001
,
0001
0000
0000
0010
0010
0000
0000
0100
,
0100
0000
0000
1000
1000
0000
0000
0001
,
1001
0110
1001
0110
,
1000
0001
1000
0001
,
0010
0100
1000
0100
,
0010
1000
0010
0100
,
1000
0001
1000
0010
,
0100
0100
0010
0010
,
2020
0000
0000
3030
,
0001
0000
0100
0000
0010
1000
0010
0000
,
0202
0000
0000
0303
,
0010
0000
0001
0000
1000
0002
0000
0003
,
2002
0000
0000
0000
,
0000
3003
0000
0000
;

//---------------dance-single - ----------------
#NOTES:
     dance-single:
     DIFFICULT:
     Medium:
     10:
     0.000000,0.000000,0.000000,0.000000,0.000000,0.000000,0.000000,0.000000,0.000000,0.000000,0.000000,0.000000,0.000000,0.000000,0.000000,0.000000,0.000000,0.000000,0.000000,0.000000,0.000000,0.000000:
0000
0000
0000
0000
,
0000
0000
0000
0000
,
0000
0000
0000
0000
,
0000
0000
0000
0000
,
0000
0000
0000
0000
,
0000
0000
0000
0000
,
0000
0000
0000
0000
,
0000
0000
0000
0000
,
1001
0000
0000
0010
0010
0000
0000
0100
,
0100
0001
0110
1000
,
0110
0000
0000
0001
0010
0000
0000
0100
,
1000
0100
0100
0000
0010
0010
0010
0000
,
0001
1000
0010
0001
,
0010
0000
1000
0000
0001
0100
0010
1000
,
0000
0100
0010
0000
0001
0010
0000
0010
,
0100
1100
0101
0010
,
1001
0000
0000
0001
0001
0000
0000
1000
,
1000
0010
1001
0100
,
1001
0000
0000
0100
0001
0000
0000
0010
,
0100
1000
1000
0000
0001
0001
0001
0000
,
1000
0010
0100
0001
,
0100
0000
0010
0000
1000
0001
0010
0100
,
0000
1000
0100
0000
0010
0001
0000
1000
,
0001
0000
0010
0100
1100
0000
0101
0000
,
1001
0000
0001
0010
0001
0000
0100
0000
,
0010
0100
0000
0001
0100
0000
0110
0000
,
1001
0000
1000
0100
0000
1000
0000
0010
,
0000
0100
0001
0000
0010
0100
0010
0000
,
1100
0000
0001
0010
0000
0001
0000
1000
,
0010
1000
0000
0001
0100
0000
0110
0000
,
1001
0000
0100
0010
0000
0001
0000
0010
,
0100
1000
0001
0000
0100
0100
0100
0000
,
0010
1000
0010
0000
0100
0001
0100
0000
,
0001
0010
0001
0000
1000
0100
1000
0000
,
0100
0010
0100
0000
0100
0001
0100
0000
,
0100
1000
0100
0000
1000
0001
1000
0000
,
0101
0000
0011
0000
0100
0100
0100
0000
,
1100
0000
1001
0000
0010
0010
0010
0000
,
2100
3001
0102
1003
,
0120
1030
0210
0301
,
1001
0000
0000
0100
0010
0000
0000
0001
,
0010
0000
0100
1000
0001
0000
0110
0000
,
1000
0001
0010
0100
1000
0001
0100
0010
,
0000
1000
0100
0010
0100
0000
1010
0000
,
0101
0000
0001
0010
1000
0000
0011
0000
,
1000
0100
0001
0100
0010
0000
1100
0000
,
0001
0100
0000
0010
1000
0100
0010
0000
,
0011
1001
0110
0000
,
1001
0000
0000
0001
0001
0000
0000
0010
,
0010
0000
0000
1000
1000
0000
0000
0100
,
0100
0000
0000
0001
0001
0000
0000
0000
,
1010
0101
0110
1001
,
0001
0100
1000
0010
,
0001
0100
1000
0010
,
0001
1000
0001
0000
1000
0001
1000
0000
,
0010
0010
0010
0000
0100
0100
0100
0000
,
0001
0000
0010
1000
0010
0000
0011
0000
,
1000
0000
0100
0001
0100
0000
1100
0000
,
0010
0100
0010
0000
1001
0000
1100
0000
,
0100
0010
0100
0000
2002
0000
3003
0000
,
0100
0001
0100
0000
0010
0100
0010
0000
,
0010
1000
0010
0000
0010
0001
0010
0000
,
0100
0001
0100
0000
0001
1000
0001
0000
,
1000
0100
1000
0000
0100
0010
0100
0000
,
0011
0000
1001
0000
0010
0010
0010
0000
,
1100
0000
0101
0000
1000
1000
1000
0000
,
0120
1030
0201
0310
,
0012
1003
2010
3001
,
0100
0010
1000
0100
,
0010
0001
1000
0001
,
0010
0100
1000
0001
,
1000
0000
0001
0010
0100
0000
1100
0000
,
0101
0000
0000
1000
0010
0100
0001
0000
,
0010
0000
0100
1000
0100
0000
0011
0000
,
1000
0001
0000
0010
0100
0010
0001
0000
,
0110
1100
1001
0000
,
0101
0000
0010
0010
1010
0000
0100
0100
,
0101
0000
1000
1000
1001
0000
0001
0001
,
0011
0100
1100
0010
,
0110
0100
0101
0001
,
1001
0000
0010
0010
0101
0000
1000
1000
,
0110
0000
0001
0001
1010
0000
0100
0100
,
0011
1100
0101
0110
,
0001
1000
0001
1000
0010
0100
0001
0010
,
0100
1000
0001
0010
,
1000
0100
0001
0010
,
1000
0001
1000
0000
0001
1000
0001
0000
,
0100
0100
0100
0000
0010
0010
0010
0000
,
1010
0100
0001
0010
,
0100
0000
1000
0100
0010
0001
1000
0000
,
0011
1000
0100
0010
,
0001
1000
0010
0100
0001
0002
0000
0003
,
2002
0000
0000
0000
,
0000
3003
0000
0000
;

//---------------dance-single - ----------------
#NOTES:
     dance-single:
     EXPERT:
     Hard:
     12:
     0.000000,0.000000,0.000000,0.000000,0.000000,0.000000,0.000000,0.000000,0.000000,0.000000,0.000000,0.000000,0.000000,0.000000,0.000000,0.000000,0.000000,0.000000,0.000000,0.000000,0.000000,0.000000:
0000
0000
0000
0000
,
0000
0000
0000
0000
,
0000
0000
0000
0000
,
0000
0000
0000
0000
,
0000
0000
0000
0000
,
0000
0000
0000
0000
,
0000
0000
0000
0000
,
0000
0000
0000
0000
,
1002
0000
0000
1003
0020
0000
0000
0130
,
0001
0010
0100
0000
2010
0000
0000
3100
,
0010
0001
1000
0000
0010
0100
0001
1000
,
0100
0100
0200
0000
0310
0010
0020
0000
,
0130
0000
1000
0000
0001
0000
1000
0000
0010
0000
0100
0000
,
0001
0010
0000
0001
1000
0100
0010
0001
,
0000
1000
0010
0000
0100
0001
0000
0010
,
0200
0001
1300
0110
,
2001
0000
0000
3100
0020
0000
0000
0031
,
0010
0100
0010
0000
0102
0000
0000
1003
,
0001
0010
0100
0000
1000
0010
0100
0010
,
1000
1000
2000
0000
3001
0001
0002
0000
,
0013
0000
0001
0000
1000
0000
0001
0000
0010
0000
0100
0000
,
1000
0001
0000
0010
0100
1000
0001
1000
,
0000
0010
0100
0000
0001
0100
0000
0010
,
2000
3001
0110
1010
,
0101
0000
1000
0100
0010
0001
1000
0001
,
0000
0010
0100
1000
1100
0000
0101
0000
,
0110
0000
1000
1000
0000
1100
0000
1001
,
0000
0001
0010
0010
0001
1000
1000
0000
,
0110
0000
0001
0010
0100
1000
0001
1000
,
0000
0010
0000
0100
0101
0000
0011
0000
,
1001
0000
0100
0010
0001
1000
0001
0010
,
0000
0100
0100
0100
0100
0000
1001
0000
,
0100
0010
0100
0001
1000
0010
0100
0010
,
1000
0001
0010
0100
1000
0001
0010
1000
,
0010
0001
0100
0010
1000
0100
1000
0001
,
0010
0001
0100
0010
1000
0100
0001
0100
,
1000
0010
0000
0000
0101
0000
0000
0000
0010
0000
0100
0000
1000
0000
0000
0000
,
0010
0100
0000
0000
1001
0000
0000
0000
0100
0000
0010
0000
0001
0000
0000
0000
,
1020
0000
0000
0130
0002
0000
0000
0013
,
2000
3010
1001
0110
,
1001
0000
0000
0001
0010
0000
0100
0000
1000
0000
0001
0000
1000
0000
0100
0000
,
0010
0000
0001
0100
0000
0000
0010
0000
0010
0000
0010
0000
0010
0000
0000
0000
,
1100
0101
0011
1010
,
1000
0100
0010
0001
1000
1000
1000
0000
,
0100
0001
0100
0001
0100
1000
0100
1000
,
0010
0100
0010
1000
0001
1000
0100
0010
,
0001
0000
0000
0100
0000
0000
0010
0000
1000
0000
0100
0000
0001
0000
0000
0000
,
1100
1001
0220
0330
,
0102
0000
0000
1000
2003
0000
0000
0001
,
3002
0000
0000
0010
0023
0000
0000
0100
,
0230
0000
0000
1000
2300
0000
0000
3001
,
0100
0001
0100
0010
1000
0010
1000
0100
,
0201
2300
3020
0032
,
0203
0000
2300
0000
3020
0000
0031
0100
,
0010
1000
0100
0000
0010
0001
1000
0000
,
0100
0100
0010
0001
0001
1000
0001
0100
,
0101
0000
0000
1000
0010
0000
0100
0000
0001
0000
0010
0000
0100
0000
1000
0000
,
0001
0100
0100
0001
0010
0010
1001
0000
,
0100
0010
0000
0010
0100
0000
0001
0000
1000
0000
0100
0000
0010
0000
0001
0000
,
1000
0010
1000
0000
0001
0000
0100
0000
0010
0000
2000
0000
0000
0000
0000
0000
,
3001
1000
0100
0010
0001
1000
0001
0010
,
0100
0010
0001
1000
0100
0001
0100
1000
,
0001
0100
0010
0100
0001
1000
0010
0001
,
0010
0100
0100
0010
1000
1000
0010
0000
,
0100
0001
0000
0000
0110
0000
0000
0000
1000
0000
0001
0000
0010
0000
0100
0000
,
1000
0100
0000
0000
0011
0000
0000
0000
1000
0000
0010
0000
0100
0000
0001
0000
,
2010
0000
0000
3100
0002
0000
0000
0103
,
0020
0031
1001
0110
,
1001
0110
0011
1001
,
1100
0110
1001
0011
,
0101
1100
1010
0011
,
0100
0001
1000
0010
0100
0001
0010
0000
,
0100
0000
1000
0000
0000
0000
0100
0000
0010
0000
0000
0001
1000
0000
0100
0000
,
0010
0001
1000
0001
0010
0010
0010
0001
,
1000
0000
0000
0010
0000
0000
0100
0000
0001
0000
0010
0000
0100
0000
0000
0000
,
1100
0101
0220
0330
,
2001
0000
0010
0010
3020
0000
0100
0100
,
0230
0000
0001
0001
0302
0000
1000
1000
,
1003
0101
0010
1100
,
0010
0110
1000
1001
,
0210
0000
1000
1000
1000
0000
0001
0301
,
2001
0000
0100
0100
0100
0000
0010
3010
,
1001
0101
1010
0110
,
1000
0001
0010
0001
0010
0100
1000
0100
,
1020
0230
0302
0023
,
2030
0000
3200
0000
0302
0000
1003
0001
,
0010
0100
0010
0000
0001
1000
0100
0010
,
0001
1000
0010
1000
0001
0100
0001
0010
,
1100
0000
0000
0001
0100
0000
0010
0000
1000
0000
0100
0000
0010
0000
0001
0000
,
1000
0100
1000
0000
0001
0000
0100
0000
0001
0000
0001
0000
0001
0000
0000
0000
,
0100
0010
0000
0010
0100
0000
0001
0000
0010
0000
0100
0000
1000
0000
0001
0000
,
1000
0100
1000
0000
0010
0000
0100
0000
0001
0000
2000
0000
0000
0000
3000
0000
,
2002
0000
0000
0000
,
0000
3003
0000
0000
;

//---------------dance-single - ----------------
#NOTES:
     dance-single:
     CHALLENGE:
     Challenge:
     16:
     0.821444,1.010592,0.631215,0.726329,0.324254,665.000000,592.000000,73.000000,84.000000,0.000000,0.000000,0.821444,1.010592,0.631215,0.726329,0.324254,665.000000,592.000000,73.000000,84.000000,0.000000,0.000000:
// measure 0
0000
0000
0000
0000
,  // measure 1
0000
0000
0000
0000
,  // measure 2
0000
0000
0000
0000
,  // measure 3
0000
0000
0000
0000
,  // measure 4
0000
0000
0000
0000
,  // measure 5
0000
0000
0000
0000
,  // measure 6
0000
0000
0000
0000
,  // measure 7
0000
0000
0000
0000
,  // measure 8
2001
0000
3100
0010
0002
0000
0013
0100
,  // measure 9
1000
0001
0020
0000
0130
1000
0201
0000
,  // measure 10
0310
1000
0200
0000
0310
0001
1000
0100
,  // measure 11
0010
0010
0020
0000
0130
0100
0200
0000
,  // measure 12
0301
0000
0100
0000
1000
0000
0001
0000
1000
0000
0010
0000
,  // measure 13
0100
0002
0000
1003
0001
0001
0010
0100
,  // measure 14
0010
0020
0000
0031
0002
0000
1003
0010
,  // measure 15
1000
0100
1000
0100
1000
0100
1000
0100
1000
0000
0000
0000
0110
0000
0000
0000
,  // measure 16
1002
0000
0103
1000
0200
0000
0301
0100
,  // measure 17
0010
0200
0000
0301
1000
0001
0100
0001
,  // measure 18
1000
0020
0000
0130
0001
1000
0100
0010
,  // measure 19
0001
0001
0002
0000
1003
1000
2000
0000
,  // measure 20
3100
0000
0010
0000
0001
0000
1000
0000
0001
0000
0010
0000
,  // measure 21
0100
2000
0000
3001
0100
0001
0010
1000
,  // measure 22
0010
0020
0000
0130
0200
0000
1300
0001
,  // measure 23
0100
0010
0100
0000
1000
0000
0100
0000
0101
0000
0000
0000
1010
0000
0000
0000
,  // measure 24
0120
0000
1030
0100
0010
0002
1000
2003
,  // measure 25
0000
3001
0100
0100
0100
0000
1001
0000
,  // measure 26
0120
0000
1030
0020
0000
0130
0001
0010
,  // measure 27
0200
1000
1300
0002
1000
1003
0001
0000
,  // measure 28
0210
0000
0310
2000
0000
3100
0001
0100
,  // measure 29
0010
0001
0010
0010
0010
0000
0101
0000
,  // measure 30
0210
0000
0301
0020
0000
0130
1000
0001
,  // measure 31
1000
0100
0010
0001
0101
0001
1001
0000
,  // measure 32
0110
1000
0010
1000
0010
0100
0001
0100
,  // measure 33
0001
0010
1000
0010
0001
1000
0100
0001
,  // measure 34
0100
1000
0001
1000
0001
0010
0100
0010
,  // measure 35
0002
1000
1003
0020
1000
1030
0010
0100
,  // measure 36
0001
0010
0000
0000
0100
0000
1000
0000
0100
0010
0000
0000
0101
0000
0000
0000
,  // measure 37
1000
0001
0000
0000
0010
0000
0100
0000
1000
0010
0000
0000
0110
0000
0000
0000
,  // measure 38
1002
0000
1003
0100
0201
0000
0301
0100
,  // measure 39
0210
0000
1300
0010
0110
0000
1001
0000
,  // measure 40
1100
0000
0000
0001
0010
0000
0001
0000
1000
0000
0100
0000
1000
0000
0010
0000
,  // measure 41
0100
0100
0200
0000
0301
0001
0002
0000
,  // measure 42
0013
0100
1000
0001
1000
0100
0010
0001
,  // measure 43
1000
0000
0010
0000
0100
0000
0001
0000
1000
0000
0000
0010
0100
0000
0001
0000
,  // measure 44
0011
1000
0001
1000
0100
0010
0100
0010
,  // measure 45
0001
0100
0000
0100
0001
0000
1000
0000
0010
0000
1000
0000
0001
0000
0010
0000
,  // measure 46
0100
1000
0000
1000
0001
0000
0010
0000
0100
0000
0100
0000
0100
0000
0000
0000
,  // measure 47
1010
0101
0220
0330
,  // measure 48
2001
0000
0100
3100
1020
0000
1000
1030
,  // measure 49
0201
0000
0001
0301
2010
0000
0100
3100
,  // measure 50
0012
0000
0010
0013
0210
0000
1000
1300
,  // measure 51
0100
1000
0100
1000
0100
1000
0001
1000
0001
1000
0001
0010
0001
0010
0001
0010
,  // measure 52
0200
2300
3002
0023
,  // measure 53
2030
0000
3200
0000
0302
0000
0013
1000
,  // measure 54
0100
0001
0100
0000
1000
0001
0010
0100
,  // measure 55
1000
0010
1000
0010
1000
0010
0100
0001
0100
0001
0100
0001
0010
0100
1000
0001
,  // measure 56
1000
0000
0000
0001
0010
0000
0100
0000
1000
0000
1000
0000
0100
0000
0010
0000
,  // measure 57
0001
0000
1000
0100
1000
0000
0010
0000
0100
0000
0100
0000
0001
0000
0000
0000
,  // measure 58
0010
0000
0000
0100
1000
0000
0001
0000
1000
0010
0000
0010
0100
0000
0001
0000
,  // measure 59
1000
0000
0100
0010
0100
0000
0010
0000
0001
0000
2001
0000
0000
0000
0000
0000
,  // measure 60
3010
1000
0100
1000
0100
0010
0001
0100
,  // measure 61
0002
1000
1003
0002
0010
0013
0001
1000
,  // measure 62
0001
0010
0001
0100
0010
0100
0001
0010
,  // measure 63
0200
1000
1300
0200
0010
0310
0001
1000
,  // measure 64
0001
0000
0000
0100
0010
0000
1000
0000
0001
0100
0000
0000
0110
0000
0000
0000
,  // measure 65
1000
0000
0000
0100
0001
0000
0100
0000
1000
0010
0000
0000
0101
0000
0000
0000
,  // measure 66
2010
0000
3001
0001
0120
0000
1030
1000
,  // measure 67
0210
0000
0301
0001
1010
0000
1100
0000
,  // measure 68
1001
0011
0110
1100
,  // measure 69
1001
0101
1100
0110
,  // measure 70
1001
1010
0101
0110
,  // measure 71
1100
0000
1000
0001
0010
0010
0010
0000
,  // measure 72
1100
0010
0001
0010
0100
1000
0001
1000
,  // measure 73
0100
1000
0000
1000
0010
0000
0100
0000
0001
0000
0001
0000
0001
0000
0100
0000
,  // measure 74
0010
0100
0000
0100
1000
0000
0100
0000
0010
0000
0010
0000
0010
0000
0000
0000
,  // measure 75
1100
0101
0220
0330
,  // measure 76
2001
0000
0010
3010
0210
0000
0001
0301
,  // measure 77
1002
0000
0100
0103
0120
0000
1000
1030
,  // measure 78
0102
0100
0100
0000
1000
1000
1000
0000
,  // measure 79
0010
0010
0010
0000
0100
0100
0100
0000
,  // measure 80
1000
1003
0210
0000
0001
0301
2010
0000
,  // measure 81
0100
3100
1002
0000
0010
0013
1100
0000
,  // measure 82
0101
0110
1001
1100
,  // measure 83
0010
0001
0010
0001
1000
0010
1000
0010
0100
0001
0100
0001
0010
0100
0010
0100
,  // measure 84
2000
3002
0023
2030
,  // measure 85
3200
0000
0302
0000
0023
0000
1030
0100
,  // measure 86
0001
0100
0010
0000
0001
0010
0100
1000
,  // measure 87
0001
0100
0001
0100
0010
1000
0010
1000
0100
0010
0100
0010
0001
1000
0001
1000
,  // measure 88
0200
0000
1300
0001
0200
0000
0010
0000
,  // measure 89
0301
1000
0001
0000
1000
0000
0020
0000
0100
0000
0100
0000
0130
0000
0000
0000
,  // measure 90
0001
0010
0000
0010
0100
0000
1000
0000
0100
0010
0100
0000
0010
0000
0001
0000
,  // measure 91
1000
0001
1000
0001
1000
0000
0010
0000
0100
0000
2002
0000
0000
0000
3003
0000
,  // measure 92
2002
0000
0000
0000
,  // measure 93
0000
0000
3003
0000
;
