#TITLE:MAGICAL JET TOUR;
#SUBTITLE:;
#ARTIST:泉 陸奥彦;
#TITLETRANSLIT:;
#SUBTITLETRANSLIT:;
#ARTISTTRANSLIT:MUTSUHIKO IZUMI;
#GENRE:HARD COUNTRY 2;
#CREDIT:YonabearCWY;
#BANNER:MAGICAL JET TOUR.png;
#BACKGROUND:;
#LYRICSPATH:;
#CDTITLE:GUITAR FREAKS & drummania.png;
#MUSIC:MAGICAL JET TOUR.ogg;
#OFFSET:-0.070000;
#SAMPLESTART:13.971044;
#SAMPLELENGTH:15.000000;
#SELECTABLE:YES;
#BPMS:0.000000=276.000000
;
#STOPS:
;
#BGCHANGES:0.000=MAGICAL JET TOUR.mp4=1.000=1=0=0=StretchNoLoop==CrossFade==,
384.000=MAGICAL JET TOUR-bg.png=1.000=0=0=1=====,
99999=-nosongbg-=1.000=0=0=0 // don't automatically add -songbackground-
;
#KEYSOUNDS:;
#ATTACKS:;

//---------------dance-single - ----------------
#NOTES:
     dance-single:
     BEGINNER:
     Beginner:
     5:
     0.212630,0.447695,0.210956,0.046879,0.000000,127.000000,109.000000,18.000000,4.000000,0.000000,0.000000,0.212630,0.447695,0.210956,0.046879,0.000000,127.000000,109.000000,18.000000,4.000000,0.000000,0.000000:
0000
0000
0000
0000
,
0000
0000
0000
0000
,
0000
0000
0000
0000
,
0000
0000
0000
0000
,
0000
0000
0000
0000
,
0000
0000
0000
0000
,
0000
0000
0000
0000
,
0000
0000
0000
0000
,
0010
0000
0010
0000
,
0010
0000
0000
0000
,
0100
0000
0100
0000
,
0100
0000
0000
0000
,
0010
0000
0010
0000
,
0010
0000
0000
0000
,
0100
0000
0100
0000
,
0100
0000
0000
0000
,
0001
0000
0001
0000
,
0001
0000
0000
0000
,
1000
0000
0000
0000
,
1000
0000
0000
0000
,
0010
0000
0010
0000
,
0010
0000
0000
0000
,
0100
0000
0000
0000
,
0100
0000
0100
0000
,
0100
0000
0001
0000
,
0100
0000
0000
0000
,
0001
0000
0000
0000
,
0001
0000
0000
0000
,
1000
0000
0010
0000
,
1000
0000
0000
0000
,
0010
0000
0000
0000
,
0010
0000
0000
0000
,
1001
0000
1001
0000
,
1001
0000
0000
0000
,
0010
0000
0000
0000
,
0100
0000
0000
0000
,
0110
0000
0110
0000
,
0110
0000
0000
0000
,
0001
0000
0000
0000
,
1000
0000
0000
0000
,
0001
0000
0010
0000
,
0100
0000
0000
0000
,
1000
0000
0000
0000
,
1000
0000
0000
0000
,
0001
0000
0100
0000
,
0010
0000
0000
0000
,
1000
0000
0000
0000
,
1001
0000
1001
0000
,
1001
0000
0000
0000
,
0110
0000
0000
0000
,
1000
0000
0000
0000
,
1000
0000
0000
0000
,
0110
0000
0000
0000
,
1001
0000
0000
0000
,
2002
0000
0000
0000
,
3003
0000
0000
0000
,
0100
0000
0100
0000
,
0100
0000
0000
0000
,
0010
0000
0000
0000
,
0010
0000
0000
0000
,
0100
0000
0000
0000
,
0100
0000
0000
0000
,
0001
0000
0000
0000
,
0001
0000
0000
0000
,
1000
0000
0000
0000
,
1000
0000
0000
0000
,
0100
0000
0000
0000
,
0100
0000
0000
0000
,
0010
0000
0000
0000
,
0010
0000
0000
0000
,
1000
0000
0000
0000
,
1000
0000
0000
0000
,
0001
0000
0000
0000
,
0001
0000
0000
0000
,
1000
0000
1000
0000
,
1000
0000
0000
0000
,
0001
0000
0000
0000
,
0001
0000
0000
0000
,
0001
0000
0001
0000
,
0001
0000
0000
0000
,
1000
0000
0000
0000
,
1000
0000
0000
0000
,
0110
0000
0000
0000
,
1001
0000
0000
0000
,
0220
0000
0000
0000
,
0330
0000
0000
0000
,
1000
0000
1000
0000
,
1001
0000
0000
0000
,
0001
0000
0001
0000
,
0001
0000
0000
0000
,
0100
0000
0000
0000
,
0010
0000
1000
0000
,
0010
0000
0010
0000
,
0010
0000
0000
0000
,
0100
0000
0100
0000
,
0001
0000
1001
0000
;

//---------------dance-single - ----------------
#NOTES:
     dance-single:
     BASIC:
     Easy:
     9:
     0.445351,0.614775,0.468790,0.234395,0.000000,266.000000,226.000000,40.000000,20.000000,0.000000,0.000000,0.445351,0.614775,0.468790,0.234395,0.000000,266.000000,226.000000,40.000000,20.000000,0.000000,0.000000:
0000
0000
0000
0000
,
0000
0000
0000
0000
,
0000
0000
0000
0000
,
0000
0000
0000
0000
,
0000
0000
0000
0000
,
0000
0000
0000
0000
,
0000
0000
0000
0000
,
0000
0000
0000
0000
,
1000
0001
1000
0000
,
0010
0100
0010
0000
,
1000
0000
0001
0000
,
0010
0000
0001
0000
,
1000
0001
1000
0000
,
0001
0010
0001
0000
,
0100
0000
0010
0000
,
1000
0000
0010
0000
,
0100
0100
0100
0000
,
0010
0010
0010
0000
,
1000
0001
1000
0000
,
1001
1001
1001
0000
,
0010
0010
0010
0000
,
0100
0100
0100
0000
,
0001
1000
0001
0000
,
0110
0110
0110
0000
,
1000
0000
0010
0000
,
0100
0001
0010
0000
,
0100
1000
0001
0000
,
1001
1001
1001
0000
,
0001
0000
0010
0000
,
0100
1000
0001
0000
,
0100
0000
0010
0000
1000
0000
0000
0110
,
0000
0110
0000
0110
0000
0000
0000
0000
,
0102
0000
1000
0000
,
0010
0000
1003
0000
,
0010
0100
0001
0010
,
1100
0000
0101
0000
,
2010
0000
0001
0000
,
0100
0000
0001
0000
,
3010
1000
0100
0010
,
1001
0000
0110
0000
,
0001
0001
0001
0000
,
1000
1000
1000
0000
,
0010
0100
0001
0000
,
0110
0110
0110
0000
,
0010
0010
0010
0000
,
0100
0100
0100
0000
,
0001
0000
1000
0000
0100
0000
0000
0110
,
0000
0110
0000
0110
0000
0000
0000
0000
,
0022
0000
0000
0033
,
2020
0000
0000
3030
,
0000
0100
0000
0010
,
0000
0100
0000
0010
,
2002
0000
0000
3003
,
0220
0000
0000
0330
,
1000
0010
1000
0010
,
0100
0001
0100
0001
,
0010
0000
0000
0010
0000
0000
0100
0000
,
2002
0000
3003
0000
,
0100
0000
0010
0000
,
1000
0000
0001
0000
,
0100
0000
0001
0000
,
0010
0001
0010
0000
,
0001
0000
1000
0000
,
0010
0000
0100
0000
,
0001
0000
1000
0000
,
0100
0100
0100
0000
,
0010
0000
0001
0000
,
0100
0001
0010
0000
,
0100
0000
1000
0000
,
0001
1000
0010
0000
,
0100
0000
0001
0000
,
1000
0010
0001
0000
,
0010
0000
1000
0000
,
0001
0100
1000
0000
,
0102
0000
1000
0000
,
0010
0000
0100
0000
,
0013
0001
1000
0000
,
0001
1000
0100
0000
,
2010
0000
0001
0000
,
0100
0000
0001
0000
,
3010
1000
0100
0000
,
0010
0010
0010
0000
,
2002
0000
0000
3003
,
0220
0000
0000
0330
,
1000
0001
0010
0001
,
0010
0100
0010
0100
,
1000
0000
0000
1000
0000
0000
0001
0000
,
2002
0000
3003
0000
,
1000
1000
1000
0000
,
0001
0001
0001
0000
,
0010
0100
0010
0000
,
1001
1001
1001
0000
,
0100
0100
0100
0000
,
0010
0010
0010
0000
,
1000
0000
0001
0000
1000
0000
0000
0110
,
0000
0110
0000
1001
0000
0000
0000
0000
;

//---------------dance-single - ----------------
#NOTES:
     dance-single:
     DIFFICULT:
     Medium:
     13:
     0.631193,0.838329,0.597708,0.246115,0.000000,377.000000,326.000000,51.000000,21.000000,0.000000,0.000000,0.631193,0.838329,0.597708,0.246115,0.000000,377.000000,326.000000,51.000000,21.000000,0.000000,0.000000:
0000
0000
0000
0000
,
0000
0000
0000
0000
,
0000
0000
0000
0000
,
0000
0000
0000
0000
,
0000
0000
0000
0000
,
0000
0000
0000
0000
,
0000
0000
0000
0000
,
0000
0000
0000
0000
,
1000
1000
0001
0100
,
0001
0001
0010
0001
,
1000
1000
0010
0100
,
0010
0010
0010
0010
,
0100
0100
0001
0010
,
0100
0100
1000
0100
,
0010
0010
0100
1000
,
0001
0001
0001
0001
,
1001
0000
0110
0000
,
1001
0010
1001
0000
,
1000
0000
0100
0000
0001
0000
0000
0110
,
0000
0110
0000
0110
0000
0000
0010
0000
,
0110
0000
1001
0000
,
0110
1000
0110
0000
,
0001
0000
0010
0000
1000
0000
0000
1001
,
0000
1001
0000
0000
0000
0000
0001
0000
,
0101
0000
0110
0000
,
1010
0100
1001
0000
,
0100
0000
0001
0000
0010
0000
0000
1100
,
0000
1100
0000
1100
0000
0000
0100
0000
,
0110
0000
0011
0000
,
0101
1000
1010
0000
,
0010
0100
0010
0100
0010
0100
0000
1001
,
0000
1001
0000
1001
0000
0000
0000
0000
,
0020
1000
1000
0000
,
0100
0100
0130
0000
,
0001
0100
1000
0100
,
0001
0100
0000
0000
0010
1000
0000
0000
,
0200
0001
0001
0000
,
0010
0010
0310
0000
,
0100
1000
0001
0010
,
0001
1000
0100
1000
0100
0010
0001
0010
,
0001
1000
0010
1000
,
0100
0001
1100
0000
,
0010
0000
0010
0000
0010
0000
0000
1001
,
0000
1001
0000
1001
0000
0000
0010
0000
,
0100
0001
0010
1000
,
0010
0100
1010
0000
,
1000
0001
1000
0001
1000
0001
0000
0110
,
0000
0110
0000
0110
0000
0000
0000
0000
,
0202
0000
0000
0303
,
2020
0000
0000
3030
,
1000
0001
0001
0100
,
0010
1000
1000
0001
,
0220
0000
0000
0330
,
2002
0000
0000
3003
,
1000
0010
1000
0010
0100
0001
0100
0001
,
0010
0100
1000
0001
,
1000
0001
0000
0001
0010
0000
0001
2000
,
0002
0000
3003
0000
,
1000
0100
1000
0010
,
1000
0001
1000
1000
,
1000
0001
0010
0001
,
1000
0001
0100
0001
,
0010
0100
1000
0100
,
0001
0100
0010
0010
,
0010
0100
1000
0001
,
0010
0001
0010
0000
1001
0000
0000
0000
,
1000
0001
0010
0100
,
0010
0001
1000
0100
,
0010
0001
0100
0010
,
0100
0001
0100
0000
1010
0000
0000
0000
,
0001
1000
0010
0100
,
0001
0010
0100
0010
,
0001
0000
1000
0010
0000
0010
0100
0000
,
0001
1000
0001
0000
0110
0000
0000
0000
,
0002
1000
1000
0000
,
0010
0010
0023
0000
,
0130
1000
0000
1000
0001
0000
0001
0010
,
0000
0010
0100
0000
1000
0001
1000
0000
,
0020
0001
0001
0000
,
0100
0100
0130
0000
,
0010
1000
0000
1000
0100
0010
0001
0000
,
0100
0010
1001
0000
,
0022
0000
0000
0033
,
2200
0000
0000
3300
,
0001
1000
0001
1000
0010
0100
0010
0100
,
0001
1000
0100
0010
0001
0000
0100
0000
,
0010
1000
0000
1000
0100
0000
0010
0002
,
0020
0000
0000
0033
,
0001
1000
0001
1000
,
0010
0100
0010
0100
,
0001
0000
0010
0000
1000
0000
0000
0011
,
0000
0011
0000
0101
0000
0000
0010
0000
,
1000
0100
0001
0100
,
0001
0100
1000
0010
,
0100
0001
0100
0001
0100
0010
0000
0110
,
0000
0110
0000
1001
0000
0000
0000
0000
;

//---------------dance-single - ----------------
#NOTES:
     dance-single:
     EXPERT:
     Hard:
     16:
     0.865588,1.012587,0.585988,0.503950,0.000000,517.000000,467.000000,50.000000,43.000000,0.000000,0.000000,0.865588,1.012587,0.585988,0.503950,0.000000,517.000000,467.000000,50.000000,43.000000,0.000000,0.000000:
// measure 0
0000
0000
0000
0000
,  // measure 1
0000
0000
0000
0000
,  // measure 2
0000
0000
0000
0000
,  // measure 3
0000
0000
0000
0000
,  // measure 4
0000
0000
0000
0000
,  // measure 5
0000
0000
0000
0000
,  // measure 6
0000
0000
0000
0000
,  // measure 7
0000
0000
0000
0000
,  // measure 8
1000
0010
1000
0000
0001
0100
0001
0000
,  // measure 9
0100
0010
0100
0000
0001
1000
0001
0000
,  // measure 10
1000
0100
1000
0000
0001
0010
0001
0000
,  // measure 11
1000
0010
0000
1010
0000
1001
0000
0001
,  // measure 12
0100
0010
0100
0000
0001
0010
0100
0000
,  // measure 13
1000
0100
1000
0000
0001
0100
0010
0000
,  // measure 14
1000
0001
0010
0001
0010
0100
1000
0100
,  // measure 15
0010
0100
0000
1000
0100
1000
0001
1000
,  // measure 16
0001
0010
0001
0100
,  // measure 17
0001
1000
0010
1000
,  // measure 18
0001
0100
0001
0100
0001
0100
0000
0110
,  // measure 19
0000
0110
0000
1000
0001
0000
0010
0000
,  // measure 20
0100
1000
0001
1000
,  // measure 21
0010
0100
0001
1000
,  // measure 22
0100
0010
0100
0010
0100
0010
0000
0011
,  // measure 23
0000
1001
0000
1000
0010
0000
0100
0001
,  // measure 24
1000
0010
0001
0010
,  // measure 25
0100
0010
1000
0100
,  // measure 26
0001
0100
0001
0100
0001
0100
0000
0110
,  // measure 27
0000
0110
0000
1000
0001
0000
0010
0000
,  // measure 28
0100
0010
0001
0010
,  // measure 29
1000
0010
0100
1000
,  // measure 30
0001
1000
0010
1000
0010
0100
0001
0101
,  // measure 31
0000
1001
0000
0220
0000
0000
0330
0000
,  // measure 32
2010
0100
0001
0100
,  // measure 33
3002
0010
2003
0100
,  // measure 34
3001
0100
0001
0000
0110
0000
1001
0000
,  // measure 35
1000
0200
0000
0000
0001
1000
0000
0000
,  // measure 36
0320
0001
0100
0001
,  // measure 37
0230
1000
0320
0001
,  // measure 38
0130
1000
0100
0010
0001
1000
0001
0010
,  // measure 39
0100
1000
0001
1000
0010
0100
0001
0010
,  // measure 40
0100
1100
0100
0101
,  // measure 41
0100
0110
0100
1100
,  // measure 42
0100
1000
0100
1000
0001
1000
0000
1100
,  // measure 43
0000
0110
0000
0010
0001
0000
1000
0000
,  // measure 44
0010
1010
0010
0011
,  // measure 45
0010
0110
0010
1010
,  // measure 46
0010
0100
0010
1000
0010
1000
0000
1010
,  // measure 47
0000
0110
0000
2002
0000
0000
3003
0000
,  // measure 48
1000
0010
1000
0001
0100
0001
1000
0010
,  // measure 49
1000
0001
0010
0100
1000
0010
0100
0001
,  // measure 50
0020
0000
1000
0001
0000
0000
0001
1000
,  // measure 51
0000
0000
0100
0001
0000
0000
0031
0100
,  // measure 52
0001
1000
0010
0001
0010
1000
0001
0100
,  // measure 53
0001
1000
0100
0001
0100
1000
0010
0100
,  // measure 54
0001
1000
0100
1000
0000
0001
0100
0001
,  // measure 55
0000
1000
0010
0100
0001
0010
0100
1000
,  // measure 56
0001
0100
0000
0001
0100
0001
1000
0100
,  // measure 57
0220
0000
0330
0000
,  // measure 58
0201
0000
2300
0100
0000
3100
0002
0000
,  // measure 59
0023
0100
0000
0130
1000
0001
1000
0000
,  // measure 60
0001
0010
0000
0001
1000
0100
0010
0000
,  // measure 61
0001
0100
0010
1000
0010
0000
0100
0001
,  // measure 62
0210
0000
0302
0010
0000
0013
2000
0000
,  // measure 63
3020
0100
0000
0130
0010
0001
0010
0000
,  // measure 64
0001
1000
0000
0100
0010
0001
1000
0000
,  // measure 65
0001
0100
0010
1000
0120
0000
0000
0000
,  // measure 66
2030
0001
0000
3002
0010
0000
0023
0100
,  // measure 67
0000
0130
1000
0100
0010
0000
1001
0000
,  // measure 68
0100
0010
0001
0010
0000
1000
0010
0001
,  // measure 69
0010
0000
0100
0010
0200
0000
0000
0000
,  // measure 70
0302
1000
0000
2003
0100
0000
3200
0010
,  // measure 71
0000
0310
0001
0100
1000
0000
0110
0000
,  // measure 72
0001
0100
1000
0100
0001
1000
0010
1000
,  // measure 73
0001
0100
0010
0000
2001
0000
0000
0000
,  // measure 74
3002
1000
0010
1000
,  // measure 75
0013
0100
2001
0010
,  // measure 76
3010
1000
0100
1000
0000
0001
0100
0001
,  // measure 77
0000
1000
0010
0100
0000
0001
0010
0100
,  // measure 78
2000
0001
0100
0001
,  // measure 79
3100
0010
1002
0100
,  // measure 80
0103
0001
0010
0100
1000
0000
0001
1000
,  // measure 81
0100
0001
0100
1000
0002
0000
0000
0000
,  // measure 82
2003
0001
3020
1000
,  // measure 83
0230
0001
1000
0001
,  // measure 84
0310
1000
0100
1000
0100
0010
0001
0010
,  // measure 85
0001
1000
0001
0010
0100
1000
0001
1000
,  // measure 86
0100
0010
0001
1000
0010
0100
0010
1000
,  // measure 87
2002
0000
3003
0000
,  // measure 88
0011
0001
1001
0001
,  // measure 89
0101
0001
0011
0001
,  // measure 90
0001
1000
0001
1000
0010
1000
0000
1100
,  // measure 91
0000
1001
0000
0001
0010
0000
0100
0000
,  // measure 92
1100
1000
1001
1000
,  // measure 93
1010
1000
1001
1000
,  // measure 94
1000
0001
0010
0100
0010
0100
0000
1100
,  // measure 95
0000
0110
0000
2002
0000
0000
0000
0000
,  // measure 96
3003
0000
0000
0000
;
