#VERSION:0.83;
#TITLE:Luv 2 Feel Your Body;
#SUBTITLE:;
#ARTIST:Shoichiro Hirata;
#TITLETRANSLIT:;
#SUBTITLETRANSLIT:;
#ARTISTTRANSLIT:;
#GENRE:;
#ORIGIN:;
#TAGS:;
#CREDIT:;
#BANNER:Luv 2 Feel Your Body.png;
#BACKGROUND:Luv 2 Feel Your Body-bg.png;
#PREVIEWVID:;
#JACKET:Luv 2 Feel Your Body-jacket.png;
#CDIMAGE:;
#DISCIMAGE:;
#LYRICSPATH:;
#CDTITLE:Beatmania IIDX.png;
#MUSIC:Luv 2 Feel Your Body.ogg;
#OFFSET:-0.400000;
#SAMPLESTART:30.743820;
#SAMPLELENGTH:15.000000;
#SELECTABLE:YES;
#BPMS:0.000000=134.000000;
#STOPS:161.500000=0.875000;
#DELAYS:;
#WARPS:;
#TIMESIGNATURES:0.000000=4=4;
#TICKCOUNTS:0.000000=4;
#COMBOS:0.000000=1;
#SPEEDS:0.000000=1.000000=0.000000=0;
#SCROLLS:0.000000=1.000000;
#FAKES:;
#LABELS:0.000000=Song Start;
#BGCHANGES:-1.000=Luv 2 Feel Your Body.mp4=1.000=1=0=0=StretchNoLoop==CrossFade==,
231.000=Luv 2 Feel Your Body-bg.png=1.000=1=0=1===CrossFade==,
99999=-nosongbg-=1.000=0=0=0 // don't automatically add -songbackground-
;
#KEYSOUNDS:;
#ATTACKS:
;

//---------------dance-single - ----------------
#NOTEDATA:;
#CHARTNAME:;
#STEPSTYPE:dance-single;
#BANNER:;
#DESCRIPTION:;
#CHARTSTYLE:;
#DIFFICULTY:Hard;
#METER:13;
#METERF:0.000000;
#RADARVALUES:0.524259,0.647119,0.336166,0.494911,0.695677,393.000000,357.000000,36.000000,53.000000,0.000000,0.000000,0.000000,0.000000,0.000000,0.524259,0.647119,0.336166,0.494911,0.695677,393.000000,357.000000,36.000000,53.000000,0.000000,0.000000,0.000000,0.000000,0.000000;
#CREDIT:;
#NOTES:
0000
0000
0000
0000
,
0000
0000
0000
0000
,
0000
0000
0000
0000
,
0000
0000
0000
0000
,
0000
0000
0000
0000
,
0000
0000
0000
0000
,
0000
0000
0000
0000
,
0000
0000
0000
0000
,
1200
0000
0000
0010
0000
0010
0000
0310
0000
0000
1000
0000
0001
0000
0100
0000
,
0120
0000
0000
1000
0000
1000
0030
1000
0000
0000
1001
0000
0000
0000
1000
0000
,
2010
0000
0000
0000
0100
0000
3000
0010
1000
0000
1000
0001
0000
0000
0012
0000
,
0000
0100
0103
0001
1000
0100
1000
0010
,
0210
0000
0000
0001
0000
0001
0000
0301
0000
0000
0001
0000
1000
0000
0100
0000
,
1200
0000
0000
0010
0000
0010
0000
0310
0000
0000
1100
0000
0000
0000
1000
0000
,
1002
0000
0000
0000
0010
0000
0003
0100
0001
0000
0001
0010
0000
0000
2002
0000
,
0000
0000
0000
0000
,
3003
0000
0000
0000
0000
0000
0000
0000
0000
0000
0000
0000
0000
0000
0000
0000
0000
0000
1000
0000
1000
0010
0000
0000
,
1020
0000
0000
2030
0000
0000
0000
0000
3002
0000
0000
0203
0000
0000
0000
0000
,
0320
0000
0000
1000
0000
1030
0100
0000
1100
0000
0000
1001
0000
0000
0001
0000
,
0021
0000
0000
0001
0000
0000
0031
0000
2000
0000
0000
0100
0000
0000
0100
0000
,
3100
0000
0000
0000
1000
0000
0000
0000
0000
0000
0100
0000
0000
0000
0000
0000
0000
0000
1000
0000
0000
0000
0000
0000
0010
0000
0000
0000
1000
0000
0000
0000
0000
0000
0001
0000
0000
0000
0000
1000
0000
0000
0001
0000
0000
0000
0000
0000
,
0021
0000
0000
0032
0000
0000
0000
0000
2003
0000
0000
3020
0000
0000
0000
0000
,
0230
0000
0000
0010
0000
0310
1000
0000
1001
0000
0000
0110
0000
0000
0100
0000
,
0102
0000
0000
0100
0000
0000
0103
0000
0020
0000
0000
1000
0000
0000
1030
0000
,
0010
0000
0000
1000
0001
0000
0000
0002
2000
0000
0000
0000
0000
0000
0003
0000
,
3001
0100
0001
0100
0001
0000
1000
0000
0010
0000
1000
0100
1000
0100
0000
0000
,
1000
0010
1000
0010
1000
0000
0010
0000
0100
0000
0001
0010
0001
0010
0000
0001
,
0000
0100
0001
0100
0010
0000
1000
0000
0010
0000
0100
0001
0010
0001
0000
1000
,
0001
0000
0000
0000
1000
0000
0000
0000
0000
0000
0100
0000
0000
0000
0000
1000
0000
0000
0100
0000
0000
0000
0000
0000
1000
0000
0000
0000
0010
0000
0000
0000
0000
0000
0100
0000
0000
0000
0000
0001
0000
0000
1000
0000
0000
0100
0000
0000
,
0000
1000
0100
1000
0010
0000
1000
0000
0001
0000
0100
0001
0100
0001
0000
0000
,
0010
0001
0010
0001
0010
0000
0001
0000
1000
0000
0100
1000
0100
0010
0000
0100
,
0000
1000
0100
1000
0010
0000
1000
0000
0001
0000
0100
0001
0100
0010
0000
1000
,
0010
0000
0000
0000
0000
0000
0000
0000
0000
0010
0000
0000
0100
0000
0000
0000
0000
0000
0000
0000
0100
0000
0001
0000
0100
0000
0000
0000
0001
0000
0000
0000
0010
0000
0000
0000
1000
0000
0000
0000
1000
0000
0000
0000
0010
0000
0000
0000
,
0100
0000
1000
0100
2000
0000
0000
0000
0000
3001
0100
0001
0200
0000
0000
0000
,
0301
0000
0000
1001
0000
0000
1100
0000
0000
0000
1000
0000
0010
0000
0100
0000
,
0001
0010
0000
0001
0000
1000
0001
1000
0100
1000
0100
1000
0100
0000
0010
0000
,
0001
0000
0000
1000
0000
0000
0000
0000
0000
1100
0000
0000
0000
0000
0000
0000
0000
0000
0100
0000
0000
0000
0000
0000
0110
0000
0000
0000
0000
0000
0000
0000
0000
0001
0000
0000
0000
0000
0000
0000
0001
0000
1000
0000
0000
0000
0001
0000
,
1000
0000
0001
0010
0002
0000
0000
0000
0000
1003
0100
1000
0200
0000
0000
0000
,
1300
0000
0000
1010
0000
0000
0110
0000
0000
0000
0100
0000
0001
0000
0100
0000
,
0010
1000
0000
0100
0000
1000
0100
1000
0100
0010
0100
0010
0100
0000
1000
0000
,
1000
0000
0000
0000
0000
0000
0000
0000
0000
0000
0000
0000
0100
0000
0000
0000
0000
0000
0000
0000
0000
0000
0000
0000
0000
0000
0000
0000
0000
0000
0000
0000
0000
0000
0000
0000
1100
0000
0000
0000
0000
0000
0000
0000
0000
0000
0000
0000
0000
0000
0000
0000
0000
0000
0000
0000
0000
0000
0000
0000
0000
0000
0000
0000
0000
0000
0000
0000
0000
0000
0000
0000
2002
0003
0000
0000
0000
0000
0000
0000
0000
0000
0000
0000
0000
0000
0000
0000
0000
0000
0000
0000
0000
0000
0000
0000
3200
0000
0000
0000
0000
0000
0000
0000
0000
0000
0000
0000
0000
0000
0000
0000
0000
0000
0000
0000
0000
0000
0000
0000
0000
0000
0000
0000
0000
0000
0000
0000
0000
0000
0000
0000
0000
0000
0000
0000
0000
0000
0000
0000
0000
0000
0000
0000
0000
0000
0000
0000
0000
0000
0000
0000
0000
0000
0000
0000
0000
0000
0000
0000
0000
0000
0000
0000
0000
0000
0000
0000
2000
0000
0000
0000
0000
0000
0000
0000
0000
0000
0000
0000
0000
0000
0000
0000
0000
0000
0000
0000
0000
0000
0000
0000
,
0000
0000
0300
0000
0001
0002
0000
3000
,
0000
0000
2003
0000
0000
0000
0000
3001
0200
0000
0000
0010
0000
0010
0000
0320
,
0000
0000
1000
0000
1000
0000
0000
0000
0230
0000
0000
0001
0000
0001
0000
0302
,
0000
0000
0010
0000
0013
0000
0000
0000
1001
0000
0000
0000
1000
0100
0000
1000
,
0200
0000
1000
0000
1300
0000
0000
0000
1000
0000
0100
0000
0001
0000
0000
0100
,
1000
0000
0000
1010
0000
0000
0110
0000
0200
0000
0000
0001
0000
0001
0000
0001
,
0000
0000
0010
0000
0320
0000
0000
0000
2030
0000
0000
0100
0000
0100
0000
3100
,
1000
0000
0000
0000
0100
0000
0000
0000
0001
0000
0000
0000
1000
0000
0000
0000
0010
0000
0000
0000
0001
0000
0000
0000
0201
0000
0000
0000
0000
0000
0000
0000
0000
0000
0000
0000
0301
0000
0000
0100
0000
0000
0000
0000
0000
0001
0000
0000
,
2000
0000
0100
0000
3100
0000
0000
0000
0100
0000
1000
0000
0001
0000
0000
0001
,
1000
0000
0000
1001
0000
0000
0011
0000
0002
0000
0000
1000
0000
1000
0000
1000
,
0000
0000
0100
0000
0103
0000
0001
0000
2000
0000
0000
0010
0000
0010
0000
0010
,
0000
0000
0100
0000
3100
0000
1000
0000
2001
0000
0000
0000
3001
0010
0000
0001
,
0200
0000
0010
0000
0310
0000
0000
0000
0100
0000
0001
0000
1000
0000
0000
1000
,
0100
0000
0000
1100
0000
0000
1001
0000
0200
0000
0000
0010
0000
0010
0000
0010
,
0000
0000
0001
0000
0301
0000
0100
0000
0020
0000
0000
1000
0000
1000
0000
1000
,
0000
0100
0130
0010
2002
0000
0000
0000
,
0000
0000
0000
3003
;

//---------------dance-single - ----------------
#NOTEDATA:;
#CHARTNAME:;
#STEPSTYPE:dance-single;
#BANNER:;
#DESCRIPTION:;
#CHARTSTYLE:;
#DIFFICULTY:Medium;
#METER:10;
#METERF:0.000000;
#RADARVALUES:0.381522,0.458376,0.438883,0.550938,0.172752,286.000000,239.000000,47.000000,59.000000,0.000000,0.000000,0.000000,0.000000,0.000000,0.381522,0.458376,0.438883,0.550938,0.172752,286.000000,239.000000,47.000000,59.000000,0.000000,0.000000,0.000000,0.000000,0.000000;
#CREDIT:;
#NOTES:
0000
0000
0000
0000
,
0000
0000
0000
0000
,
0000
0000
0000
0000
,
0000
0000
0000
0000
,
0000
0000
0000
0000
,
0000
0000
0000
0000
,
0000
0000
0000
0000
,
0000
0000
0000
0000
,
1200
0000
0010
0000
1300
0100
1000
0001
,
0021
0000
0000
0000
0100
0000
0000
0000
0031
0000
0000
0010
0000
0000
0001
0000
,
1000
0000
0000
1001
0000
0000
0001
0000
1000
0000
0000
1100
0000
0000
1000
0000
,
0020
0100
0001
1000
,
0230
0000
0001
0000
1300
0100
0010
0100
,
0002
0000
0000
0000
1000
0000
0000
0000
0103
0000
0000
0001
0000
0000
1000
0000
,
0010
0000
0000
0110
0000
0000
0100
0000
0001
0000
0000
1001
0000
0000
0220
0000
,
0000
0000
0000
0000
,
0330
0000
0000
0000
,
1020
0000
0000
1030
0000
0000
0000
0000
0201
0000
0000
0301
0000
0000
0000
0000
,
0120
0000
0000
1030
0000
0000
0000
0000
0210
0000
0000
0301
0000
0000
0000
0000
,
2001
0000
0000
3100
0000
0000
0000
0000
1002
0000
0000
0013
0000
0000
0000
0000
,
0001
0000
0000
0001
0000
0000
0100
0000
0001
0000
0000
1000
0000
0000
0010
0000
,
2010
0000
0000
3001
0000
0000
0000
0000
0012
0000
0000
0103
0000
0000
0000
0000
,
0210
0000
0000
0301
0000
0000
0000
0000
0102
0000
0000
1003
0000
0000
0000
0000
,
1200
0000
0000
0310
0000
0000
0000
0000
0210
0000
0000
1300
0000
0000
0000
0000
,
1001
0110
2002
0003
,
3020
1000
1030
0000
2000
0100
3100
0000
,
1000
0100
0001
0000
0001
0100
1000
0000
,
2000
0001
3001
0000
0002
0010
0013
0000
,
0011
0000
0000
0001
0000
0000
1000
0000
1100
0000
0000
1000
0000
0000
0010
0000
,
0200
0000
0000
0001
0000
0000
0302
0000
1000
0000
1000
0000
1003
0000
0000
0000
,
2000
0000
0000
0010
0000
0000
3200
0000
1000
0000
1000
0000
1300
0000
0000
0000
,
0200
0000
0000
0010
0000
0000
0320
0000
0001
0000
0001
0000
0031
0000
0000
0000
,
0011
1001
1100
0110
,
1001
1000
0200
0000
0000
1300
0200
0000
,
1300
0000
0000
1001
0300
0000
0021
0000
0000
0000
0001
0000
0001
0000
0001
0000
,
0032
1000
0203
0010
,
0301
0000
0000
1001
0000
0000
1000
0000
0010
0000
0000
0000
1000
0000
0000
0000
,
0101
0100
0002
0000
0000
0103
0002
0000
,
1003
0000
0000
1001
0000
0000
0120
0000
0000
0000
1000
0000
1000
0000
1000
0000
,
2030
0001
3200
0010
,
1300
0000
0000
1001
0000
0000
0110
0000
0200
0000
0030
0000
0000
0000
0320
0000
,
0000
0000
0000
0000
0100
0230
0030
0000
,
0000
0302
0000
0000
2003
0000
0100
0100
,
3100
0000
1000
0000
0002
0000
0010
0010
,
0013
0000
0000
0000
0001
0000
0000
0000
1001
0000
0000
0000
1000
0000
0000
0010
,
0000
1000
0100
1000
0001
0020
0000
0031
,
1001
0000
0000
0011
0000
0000
0001
0000
2000
0000
0000
0000
0001
0000
0001
0000
,
3002
0000
0203
0000
0320
0000
1000
1000
,
1030
0010
1000
0001
0100
0001
1000
0000
0000
0101
0000
0000
,
0001
0100
1000
0000
1000
0100
0001
0000
,
0011
0000
0000
1001
0000
0000
1000
0000
0200
0000
0000
0000
1000
0000
1000
0000
,
1300
0000
0100
0000
2000
0000
0010
0010
,
3010
1000
0001
0011
,
0001
0010
1000
0000
1000
0010
0001
0000
,
0011
0000
0000
1001
0000
0000
1000
0000
0020
0000
0000
0000
0100
0000
0100
0000
,
0230
0000
0001
0000
0320
0000
1000
1000
,
1000
0130
2002
0000
,
0000
0000
0000
3003
;

//---------------dance-single - ----------------
#NOTEDATA:;
#CHARTNAME:;
#STEPSTYPE:dance-single;
#BANNER:;
#DESCRIPTION:;
#CHARTSTYLE:;
#DIFFICULTY:Easy;
#METER:6;
#METERF:0.000000;
#RADARVALUES:0.248122,0.404450,0.317490,0.588290,0.009338,186.000000,152.000000,34.000000,63.000000,0.000000,0.000000,0.000000,0.000000,0.000000,0.248122,0.404450,0.317490,0.588290,0.009338,186.000000,152.000000,34.000000,63.000000,0.000000,0.000000,0.000000,0.000000,0.000000;
#CREDIT:;
#NOTES:
0000
0000
0000
0000
,
0000
0000
0000
0000
,
0000
0000
0000
0000
,
0000
0000
0000
0000
,
0000
0000
0000
0000
,
0000
0000
0000
0000
,
0000
0000
0000
0000
,
0000
0000
0000
0000
,
2000
0000
0001
0000
,
3002
0100
0000
0100
,
0103
0001
1001
0100
,
2001
0000
0010
3010
,
2000
0000
0100
0000
,
3002
1000
0000
1000
,
1003
0000
0000
0000
0001
0000
0000
0000
0010
0000
0000
0001
0000
0000
2002
0000
,
0000
0000
0000
0000
,
3003
0000
0000
0000
,
2000
3100
0200
0310
,
0020
0031
0002
0103
,
0200
0301
0002
1003
,
2002
3003
0220
0330
,
0020
1030
2000
3100
,
0200
1300
2000
3010
,
0020
0130
0200
0301
,
0011
1001
0220
0330
,
1320
1000
0130
0101
,
0002
1000
1003
0110
,
0020
1000
1030
1001
,
2200
3300
0022
0033
,
0020
1000
1030
1001
,
0200
0010
0310
0011
,
0002
0100
0103
1001
,
1010
0110
0101
1001
,
1200
0300
0200
0300
,
0100
0100
1000
1000
,
0001
0000
0001
0000
,
0001
0001
0100
0100
,
0120
0030
0020
0030
,
0010
0010
1000
1000
,
0001
0100
1000
0100
,
0001
0000
0000
0010
0000
0000
1001
0000
0002
0000
0000
0000
0000
0000
0000
0000
,
0000
0003
0200
0000
,
0000
0300
0020
1000
,
1030
0000
2000
0001
,
3001
0000
1002
0100
,
0000
0103
2001
0010
,
0000
3010
2000
0100
,
3100
0000
0200
0010
,
0310
0011
1002
0013
,
0001
0010
0002
0003
,
2000
3000
0120
1000
,
2030
3000
2100
0001
,
3002
0003
0201
0310
,
1000
0010
2000
3000
,
0002
0003
0120
1000
,
2030
3000
1002
0010
,
0023
0030
2032
0000
,
0000
0000
0000
3003
;

//---------------dance-single - ----------------
#NOTEDATA:;
#CHARTNAME:;
#STEPSTYPE:dance-single;
#BANNER:;
#DESCRIPTION:;
#CHARTSTYLE:;
#DIFFICULTY:Beginner;
#METER:3;
#METERF:0.000000;
#RADARVALUES:0.130731,0.215706,0.065366,0.056028,0.000000,98.000000,91.000000,7.000000,6.000000,0.000000,0.000000,0.000000,0.000000,0.000000,0.130731,0.215706,0.065366,0.056028,0.000000,98.000000,91.000000,7.000000,6.000000,0.000000,0.000000,0.000000,0.000000,0.000000;
#CREDIT:;
#NOTES:
// measure 0
0000
0000
0000
0000
,  // measure 1
0000
0000
0000
0000
,  // measure 2
0000
0000
0000
0000
,  // measure 3
0000
0000
0000
0000
,  // measure 4
0000
0000
0000
0000
,  // measure 5
0000
0000
0000
0000
,  // measure 6
0000
0000
0000
0000
,  // measure 7
0000
0000
0000
0000
,  // measure 8
1000
0000
0000
0000
,  // measure 9
1000
0000
0000
0000
,  // measure 10
0001
0000
0001
0000
,  // measure 11
0001
0000
0000
0000
,  // measure 12
0010
0000
0000
0000
,  // measure 13
0010
0000
0000
0000
,  // measure 14
0001
0000
1000
0000
,  // measure 15
2002
0000
0000
0000
,  // measure 16
3003
0000
0000
0000
,  // measure 17
1000
0000
1000
0000
,  // measure 18
0100
0000
0100
0000
,  // measure 19
1000
0000
1000
0000
,  // measure 20
0100
0100
0100
0000
,  // measure 21
0010
0000
0010
0000
,  // measure 22
0001
0000
0001
0000
,  // measure 23
0010
0000
0010
0000
,  // measure 24
0001
0001
1001
0000
,  // measure 25
1000
0000
0100
0000
,  // measure 26
1000
0000
0010
0000
,  // measure 27
1000
0000
0100
0000
,  // measure 28
1000
1000
1000
0000
,  // measure 29
0001
0000
0010
0000
,  // measure 30
0001
0000
0100
0000
,  // measure 31
0001
0000
0010
0000
,  // measure 32
0001
0001
0001
0001
,  // measure 33
0001
0000
0001
0000
,  // measure 34
1001
0000
0000
0000
,  // measure 35
1000
0000
1000
0000
,  // measure 36
1001
0000
0000
0000
,  // measure 37
0010
0000
0010
0000
,  // measure 38
0110
0000
0000
0000
,  // measure 39
0100
0000
0100
0000
,  // measure 40
0220
0000
0330
0000
,  // measure 41
0000
0000
0000
0000
,  // measure 42
0000
0000
1000
0000
,  // measure 43
1000
0000
0001
0000
,  // measure 44
0001
0000
1000
0000
,  // measure 45
1000
0000
1000
0000
,  // measure 46
0000
0000
0010
0000
,  // measure 47
0010
0000
0100
0000
,  // measure 48
0100
0000
0010
0010
,  // measure 49
0010
0000
0010
0010
,  // measure 50
0010
0000
0100
0000
,  // measure 51
0100
0000
0001
0000
,  // measure 52
0001
0000
1000
1000
,  // measure 53
1000
0000
1000
1000
,  // measure 54
1000
0000
0001
0000
,  // measure 55
0001
0000
1000
0000
,  // measure 56
1000
0000
2002
0000
,  // measure 57
0000
0000
0000
3003
;
