#VERSION:0.83;
#TITLE:Lucy;
#SUBTITLE:;
#ARTIST:ELE BLOCK;
#TITLETRANSLIT:;
#SUBTITLETRANSLIT:;
#ARTISTTRANSLIT:;
#GENRE:DANCE POP;
#ORIGIN:;
#TAGS:;
#CREDIT:YonabearCWY;
#BANNER:Lucy.png;
#BACKGROUND:Lucy-bg.png;
#PREVIEWVID:;
#JACKET:Lucy-jacket.png;
#CDIMAGE:;
#DISCIMAGE:;
#LYRICSPATH:;
#CDTITLE:Beatmania IIDX.png;
#MUSIC:Lucy.ogg;
#OFFSET:-6.300000;
#SAMPLESTART:64.729553;
#SAMPLELENGTH:15.000000;
#SELECTABLE:YES;
#DISPLAYBPM:156.000000;
#BPMS:0.000000=156.000000
,147.500000=160.000000
,148.000000=156.000000
;
#STOPS:;
#DELAYS:;
#WARPS:;
#TIMESIGNATURES:0.000000=4=4
;
#TICKCOUNTS:0.000000=4
;
#COMBOS:0.000000=1
;
#SPEEDS:0.000000=1.000000=0.000000=0
;
#SCROLLS:0.000000=1.000000
;
#LABELS:0.000000=Song Start
;
#BGCHANGES:-25.000=Lucy.mp4=1.000=1=0=0=StretchNoLoop==CrossFade==,
293.000=Lucy-bg.png=1.000=0=0=1=====,
99999=-nosongbg-=1.000=0=0=0 // don't automatically add -songbackground-
;
#KEYSOUNDS:;
#ATTACKS:
;

//---------------dance-single - ----------------
#NOTEDATA:;
#CHARTNAME:BEGINNER;
#CHARTHASH:2147483647;
#STEPSTYPE:dance-single;
#BANNER:;
#DESCRIPTION:;
#CHARTSTYLE:;
#DIFFICULTY:Beginner;
#METER:4;
#METERF:4.000000;
#LASTSECONDHINT:113.987503;
#RADARVALUES:0.165783,0.233766,0.008349,0.000000,0.000000,139.000000,138.000000,1.000000,0.000000,0.000000,0.000000,0.000000,0.000000,0.000000,0.165783,0.233766,0.008349,0.000000,0.000000,139.000000,138.000000,1.000000,0.000000,0.000000,0.000000,0.000000,0.000000,0.000000;
#CREDIT:YonabearCWY;
#DISPLAYBPM:156.000000;
#NOTES:
1000
0000
0000
0000
,
1000
0000
0000
0000
,
0001
0000
0000
0000
,
0000
0000
0000
0000
,
0100
0000
0100
0000
,
0100
0000
0010
0000
,
0010
0000
0010
0000
,
0000
0000
0000
0000
,
1000
0000
1000
0000
,
1000
0000
0001
0000
,
0001
0000
0001
0000
,
0000
0000
0000
0000
,
0010
0010
0010
0000
,
0010
0000
0000
0000
,
0100
0100
0100
0000
,
0100
0000
0000
0000
,
1000
1000
1000
0000
,
1000
0000
0000
0000
,
0001
0001
0001
0000
,
0000
0000
0001
0001
,
0001
0000
0100
0000
,
0010
0000
1000
0000
,
0010
0000
0000
0000
,
1000
0000
0100
0000
,
0010
0000
0001
0001
,
0001
0000
1000
0010
,
1000
0000
0001
0000
,
0100
0000
0000
0000
,
0010
0010
0010
0000
,
0100
0000
0001
0000
,
1000
1000
1000
0000
,
0100
0000
0010
0000
,
0001
0001
0001
0000
,
1000
0000
0010
0000
,
0100
0100
0100
0000
,
0010
0010
0010
0000
,
0000
0000
0000
0000
,
1000
0001
1000
0000
,
0001
0000
0001
0000
,
1000
0000
1000
0000
,
0010
0000
0010
0000
,
0100
0000
0100
0000
,
0001
0001
0000
0010
,
0010
0010
0000
0100
,
0100
0100
0000
1000
,
1000
1000
1000
0001
,
1000
0000
1000
0000
,
0010
0000
0010
0000
,
0100
0000
0100
0000
,
0001
0000
0001
0000
,
0010
0010
0010
0000
,
0010
0010
0010
0000
,
0100
0100
0100
0000
,
0100
0100
0100
0000
,
1000
0000
0000
0000
,
0001
0000
0001
0000
,
1000
0000
0000
0000
,
1000
0000
1000
0000
,
0001
0000
0000
0000
,
0010
0000
0010
0000
,
0100
0000
0000
0000
,
0100
0000
0100
0000
,
0010
0000
0010
0000
,
0010
0000
0100
0000
,
0100
0000
0100
0000
,
0000
0000
0000
0000
,
0001
0000
0001
0000
,
0001
0000
1000
0000
,
1000
0000
1000
0000
,
0000
0000
0000
0000
,
1001
0000
0000
0000
;

//---------------dance-single - ----------------
#NOTEDATA:;
#CHARTNAME:BASIC;
#CHARTHASH:2147483647;
#STEPSTYPE:dance-single;
#BANNER:;
#DESCRIPTION:;
#CHARTSTYLE:;
#DIFFICULTY:Easy;
#METER:6;
#METERF:6.000000;
#LASTSECONDHINT:115.910583;
#RADARVALUES:0.260005,0.297425,0.050093,0.033395,0.000000,218.000000,212.000000,6.000000,4.000000,0.000000,0.000000,0.000000,0.000000,0.000000,0.260005,0.297425,0.050093,0.033395,0.000000,218.000000,212.000000,6.000000,4.000000,0.000000,0.000000,0.000000,0.000000,0.000000;
#CREDIT:YonabearCWY;
#DISPLAYBPM:156.000000;
#NOTES:
1000
1000
0001
0000
,
0010
0010
0100
0000
,
0010
0000
0010
0000
0001
0000
0000
1001
,
0000
0000
0010
0010
,
0100
0010
0100
0010
,
1000
0001
1000
0001
,
0010
0100
0010
0100
,
1000
0000
1000
0000
,
0001
1000
0001
1000
,
0100
0010
0100
0010
,
0001
1000
0010
0100
,
0001
0000
0001
0000
,
1000
0000
0000
0100
0000
0000
0000
0000
,
0010
0000
0000
0001
0000
0000
0000
0000
,
0001
0000
0000
1000
0000
0000
0000
0000
,
0010
0010
0100
0100
,
0001
0000
0000
0010
0000
0000
0000
0000
,
0100
0000
0000
1000
0000
0000
0000
0000
,
0100
0000
0000
0010
0000
0000
0000
0000
,
1000
1000
0001
0001
,
1000
1000
0000
1000
,
1000
0001
0000
0001
,
0001
0100
0000
0010
,
0010
1000
0100
0010
,
0001
0001
0000
0100
,
0010
0010
0000
1000
,
0001
0001
0000
0010
,
0100
1000
0001
0100
,
0010
0000
0000
0010
0000
0000
0010
0000
,
0100
0000
0000
0100
0000
0000
0100
0000
,
0010
0000
0000
0010
0000
0000
0010
0000
,
1000
0001
0100
0010
,
1000
0000
0000
1000
0000
0000
1000
0000
,
0001
0000
0000
0001
0000
0000
0001
0000
,
1000
0000
0000
1000
0000
0000
1000
0000
,
0001
0000
0010
0000
0100
0000
0000
2002
,
0000
0000
0000
0000
0000
3003
0000
0000
,
1000
1000
0001
0001
,
1000
0000
1000
0000
,
0001
0000
0001
0000
,
0010
0010
0100
0100
,
1000
0001
0100
0010
,
1000
0000
0100
0010
,
0001
0000
0010
0100
,
0001
0000
0100
0010
,
1000
0000
0011
1100
,
0101
0000
0001
0000
,
1000
0000
1000
0000
,
0010
0000
0010
0000
,
0100
0100
0001
0001
,
0010
0100
1000
0000
,
0001
0010
0100
0000
,
1000
0100
0001
0000
,
0100
1000
0010
0100
,
0001
0001
0000
0001
,
0001
1000
0100
0010
,
0100
0100
0000
0100
,
0100
1000
0001
1000
,
0010
0010
0000
0100
,
0001
0010
1000
0010
,
0001
1000
0000
0100
,
0010
0001
1000
0010
,
1000
0000
0000
1000
0000
0000
0000
1000
,
0000
0000
0000
0001
0000
0000
0000
0001
,
0000
0000
0000
0100
0000
0000
0000
0000
,
0010
0010
0010
0010
,
0010
0000
0000
0100
0000
0000
0000
0001
,
0000
0000
0000
1000
0000
0000
0000
0010
,
0000
0000
0000
0100
0000
0000
0000
0000
,
0010
0010
0010
0010
,
2002
0000
0000
0000
,
0000
3003
0000
0000
;

//---------------dance-single - ----------------
#NOTEDATA:;
#CHARTNAME:DIFFICULT;
#CHARTHASH:2147483647;
#STEPSTYPE:dance-single;
#BANNER:;
#DESCRIPTION:;
#CHARTSTYLE:;
#DIFFICULTY:Medium;
#METER:8;
#METERF:8.000000;
#LASTSECONDHINT:115.910583;
#RADARVALUES:0.430558,0.446138,0.192022,0.058441,0.000000,361.000000,338.000000,23.000000,7.000000,0.000000,0.000000,0.000000,0.000000,0.000000,0.430558,0.446138,0.192022,0.058441,0.000000,361.000000,338.000000,23.000000,7.000000,0.000000,0.000000,0.000000,0.000000,0.000000;
#CREDIT:YonabearCWY;
#DISPLAYBPM:156.000000;
#NOTES:
1000
0000
0001
0020
0000
0000
0130
0000
,
1000
0000
0100
0020
0000
0000
0031
0000
,
1000
0000
0010
0200
0020
0000
0000
0330
,
0000
1000
0001
1000
0001
0000
0110
0000
,
0000
0001
0000
1000
0000
0001
0000
1000
,
0000
0100
0000
0010
0000
0100
0000
0010
,
0001
0000
1000
0000
0010
0000
0100
0001
,
0000
0010
0100
0000
1000
1000
1000
0000
,
0000
0010
0000
0100
0000
0010
0000
0100
,
0000
0001
0000
1000
0000
0001
0000
1000
,
0100
0000
0010
0001
0000
0100
0010
1000
,
0001
0000
0010
0100
1000
0000
0010
0010
,
0010
0100
0010
0000
0100
0010
0100
0000
,
0001
1000
0100
0001
,
1000
0000
0010
0100
0010
0000
0100
0010
,
0000
0100
0001
0010
0100
0000
1100
0000
,
0001
1000
0001
0000
1000
0001
1000
0000
,
0001
0010
1000
0001
,
0100
0010
0000
0001
1000
0000
0010
0100
,
0000
1000
0001
1000
0001
0000
0110
0000
,
0001
0001
1000
1000
,
0001
0010
1000
0001
,
0100
0100
1000
1000
,
0010
0001
1000
0100
,
0001
0001
0100
0100
,
1000
0100
0000
1000
0100
0000
0010
0001
,
0010
0010
0001
0001
,
1000
0001
0000
1000
0001
0000
0010
0100
,
0010
0100
1000
0100
0000
1000
0001
1000
,
0000
0001
0010
0000
0001
0000
0100
0000
,
0001
0010
0100
1000
0000
0100
0010
0100
,
0000
0010
0001
0000
1000
1000
1000
0000
,
0001
0100
0000
0100
0001
0000
0001
0010
,
0001
1000
0100
0010
,
0100
1000
0000
1000
0100
0000
0010
0001
,
0010
0000
1000
0000
0001
0000
0100
2000
,
0000
0000
0000
3001
0100
0000
0010
1000
,
0001
0000
0100
0000
0010
1000
1001
0000
,
0000
0100
0000
0010
0000
1000
0000
0010
,
0000
0100
0001
0000
0010
0000
0001
0000
,
1000
0000
0001
0100
0010
1000
0010
0000
,
1100
0000
1000
0010
0000
0110
0000
0101
,
0000
0000
0000
0001
0000
0010
0000
0100
,
0000
1000
0100
0000
0010
0001
0010
0100
,
1000
0001
0000
0001
0010
0000
0010
0100
,
1000
0000
0100
0000
0010
0100
0101
0000
,
0000
1000
0000
0001
0000
1000
0000
0001
,
0000
0010
0100
0000
1000
0000
0010
0000
,
0100
0000
0001
1000
0100
0010
0100
0000
,
0011
0000
0001
0100
0000
0100
0010
1000
,
0100
0100
0010
0010
,
0001
0000
1000
0001
1000
0000
0010
0000
,
0100
0100
0001
0001
,
0010
0100
1000
0000
0010
0010
0010
0000
,
1001
0000
0000
1100
0000
1000
0010
1000
,
0000
0001
0100
0000
0010
0010
0010
0000
,
0110
0000
0000
0101
0000
0001
1000
0000
,
0010
0001
0010
1000
,
1100
0000
0000
1001
0000
0100
0001
0100
,
0000
0001
0010
0100
1000
1000
1000
0000
,
0110
0000
0000
1001
0000
0010
0100
0001
,
0000
0010
0010
0010
0010
0000
0101
0000
,
1000
0001
0010
1000
,
0010
0001
1000
0100
,
0001
0100
1000
0001
,
1100
0000
0011
0000
0100
0100
0100
0000
,
1000
0001
0010
1000
,
0010
0001
1000
0100
,
0001
0100
1000
0001
,
1010
0000
0101
0000
0010
0010
0010
0000
,
2002
0000
0000
0000
,
0000
3003
0000
0000
;

//---------------dance-single - ----------------
#NOTEDATA:;
#CHARTNAME:EXPERT;
#CHARTHASH:1381502282;
#STEPSTYPE:dance-single;
#BANNER:;
#DESCRIPTION:;
#CHARTSTYLE:;
#DIFFICULTY:Hard;
#METER:10;
#METERF:10.000000;
#LASTSECONDHINT:115.910583;
#RADARVALUES:0.517624,0.475880,0.242115,0.317254,0.025046,434.000000,405.000000,29.000000,38.000000,0.000000,0.000000,0.000000,0.000000,0.000000,0.517624,0.475880,0.242115,0.317254,0.025046,434.000000,405.000000,29.000000,38.000000,0.000000,0.000000,0.000000,0.000000,0.000000;
#CREDIT:YonabearCWY;
#DISPLAYBPM:156.000000;
#NOTES:
1000
0001
0010
1000
,
0100
0001
1000
0010
,
0101
0000
1000
0000
0010
0000
0001
0120
,
0000
1030
0001
1000
0001
0000
0010
0100
,
2000
0000
3001
0100
0002
0000
0103
0010
,
0200
0000
0310
1000
0020
0000
0100
0130
,
0101
0000
0010
0100
1000
0100
0000
0010
,
0000
0100
0001
0100
1000
0000
0110
0000
,
1000
0001
0020
0000
0031
0100
2000
0000
,
3100
0001
0020
0000
0130
1000
0002
0000
,
0103
0000
0010
1000
0100
0010
0001
2000
,
0000
3001
0010
0001
0100
0100
0100
0000
,
0001
0010
0001
0020
0000
0130
1000
0100
,
0020
0000
0031
1000
0002
0000
1003
0100
,
0010
0100
0010
0002
0000
1003
0010
1000
,
0100
0011
0100
1001
,
0010
1000
0010
2000
0000
3100
0010
0001
,
1000
0001
2000
0000
3001
0010
0100
0010
,
0100
2000
0000
3100
0020
0000
0031
1001
,
0000
0010
0010
0010
0000
1000
0001
1000
,
0000
0001
0000
0100
0000
0010
0000
0100
,
1100
0000
0101
0000
0110
0000
1000
0001
,
0010
0100
0000
1000
0000
0001
0000
0100
,
0101
0000
0011
0000
1001
0000
0100
0010
,
1000
0200
0000
0310
0001
0020
0000
0130
,
1000
0002
0000
1003
0001
0020
0000
0031
,
0100
0001
0100
0000
0010
0010
0010
0000
,
1100
0000
0101
0000
0010
0100
0010
1000
,
0001
0010
0001
0010
0100
0000
1000
0000
,
0010
0000
0001
0000
0100
0000
0010
1000
,
0100
0010
0100
0010
0001
0000
1000
0000
,
0100
0000
0001
0000
0010
0000
0001
1000
,
0010
0100
0010
0100
1000
0000
0100
0000
,
0001
0000
0010
0000
0001
0000
1000
0100
,
1000
0100
0010
0001
0100
0000
0010
0000
,
1010
0000
0101
0000
0110
0000
0001
2000
,
0000
0000
0000
0010
3010
0000
1000
0100
,
0010
0001
0010
0001
1000
0010
0010
0000
,
1000
0010
0000
0100
0000
0001
0000
0010
,
0000
1000
0000
0100
0000
0001
0000
0100
,
1000
0000
0001
0100
0001
0001
0001
0000
,
0110
0000
0010
1000
0000
1100
0000
0100
,
0001
0200
0000
0310
1000
0200
0000
0310
,
0001
2000
0000
3010
0010
0010
0100
0000
,
0002
0010
0000
0023
0100
0000
0230
1000
,
0000
1300
0001
0100
0010
0010
0010
0000
,
1002
0000
1003
0200
0000
0310
0001
1000
,
0102
0000
1003
0010
0000
0100
0001
0000
,
0110
0000
0001
0010
0100
1000
1000
0000
,
0100
0000
0001
0000
0010
0000
1000
0100
,
0001
0000
0100
0100
0100
1000
0001
0010
,
1000
0000
0010
0010
0010
0000
1001
0000
,
0110
0000
0001
1000
0100
0000
0010
0010
,
0010
0001
1000
0001
1000
0100
0010
0001
,
1000
0010
0100
0001
,
0010
0000
0001
1000
0100
0010
0010
0000
,
0001
0100
0010
1000
,
0100
1000
0000
0000
0100
1000
0000
0000
0100
0010
0000
0000
0100
0010
0000
0000
,
0001
0000
1000
0100
0001
0000
0001
0100
,
1000
0000
0001
0100
0010
1000
0100
0010
,
0001
0000
1000
0010
0001
0000
0001
0010
,
1000
0001
0000
0000
0010
0000
0100
0000
1000
0100
0000
0000
0011
0000
0000
0000
,
0100
0001
0100
0002
0000
0010
0010
0010
,
0000
1000
1000
1000
0000
0103
0010
0200
,
0000
0001
0001
0001
0000
1000
1000
1300
,
0100
0110
1000
1001
,
1000
0010
1000
0020
0000
0100
0100
0100
,
0000
0001
0001
0001
0000
1000
1000
2030
,
0000
0010
0010
0010
0000
0100
0100
3100
,
1000
0001
0001
0010
0001
0100
0010
0000
,
2002
0000
0000
0000
,
0000
3003
0000
0000
;

//---------------dance-single - ----------------
#NOTEDATA:;
#CHARTNAME:CHALLENGE;
#CHARTHASH:2147483647;
#STEPSTYPE:dance-single;
#BANNER:;
#DESCRIPTION:;
#CHARTSTYLE:;
#DIFFICULTY:Challenge;
#METER:13;
#METERF:13.000000;
#LASTSECONDHINT:117.064423;
#RADARVALUES:0.635700,0.633359,0.100185,0.384044,0.183673,533.000000,521.000000,12.000000,46.000000,0.000000,0.000000,0.000000,0.000000,0.000000,0.635700,0.633359,0.100185,0.384044,0.183673,533.000000,521.000000,12.000000,46.000000,0.000000,0.000000,0.000000,0.000000,0.000000;
#CREDIT:YonabearCWY;
#DISPLAYBPM:156.000000;
#NOTES:
// measure 0
1000
0100
0010
0001
0000
0010
0100
0010
,  // measure 1
0000
0001
1000
0001
0000
0100
0010
0100
,  // measure 2
0001
0000
0010
0000
1000
0000
0100
1001
,  // measure 3
0000
0000
0100
0000
0010
0000
0100
0000
0010
0000
0100
0000
0010
1000
0000
1000
,  // measure 4
0001
0100
0001
0100
0010
0100
0010
0100
,  // measure 5
1000
0100
1000
0100
0001
0100
0001
0010
,  // measure 6
0001
0010
1000
0100
0000
0001
0010
1000
,  // measure 7
0000
0001
0100
1000
0000
0010
0010
0010
,  // measure 8
0010
0100
0001
0100
0001
1000
0100
1000
,  // measure 9
0100
0010
0100
0010
0001
0100
0001
1000
,  // measure 10
0001
0100
1000
0010
0000
0001
0100
1000
,  // measure 11
0000
0001
0010
1000
0000
0100
0100
0100
,  // measure 12
0100
1000
0001
1000
0201
0000
0310
1000
,  // measure 13
0120
0000
0000
0000
1030
0000
0001
0000
0100
0010
0100
0000
0001
0000
0010
0000
,  // measure 14
0200
0000
1300
0100
0002
0000
1003
0010
,  // measure 15
0001
0010
0000
0000
0010
0100
0000
0000
0100
1000
0100
0000
1000
0000
0010
0000
,  // measure 16
0100
0001
2010
0000
3001
0100
0012
0000
,  // measure 17
0103
0000
0010
0000
2100
0000
0000
0000
3001
0100
0001
0000
1000
0000
0100
0000
,  // measure 18
0001
0100
2000
0000
3001
0010
1000
0210
,  // measure 19
0000
0010
0010
0010
0310
1000
0001
0010
,  // measure 20
0100
1000
0200
0000
0310
0001
0020
0000
,  // measure 21
2030
3200
0302
0023
,  // measure 22
0130
1000
0200
0000
0310
0001
0020
0000
,  // measure 23
0230
2300
3002
0023
,  // measure 24
1030
0010
0001
0010
0100
1000
0001
1000
,  // measure 25
0200
0302
0023
2030
,  // measure 26
3100
1000
0100
0001
0100
1000
0010
0100
,  // measure 27
0001
0010
0001
0000
1000
0010
0000
0010
0100
0000
0001
0000
0001
0000
1000
0000
,  // measure 28
0001
0010
0100
2000
0000
0010
0010
0010
,  // measure 29
0000
0100
0100
0100
0000
0001
0001
0001
,  // measure 30
3001
1000
0100
0020
0000
0001
0000
0130
,  // measure 31
0010
0001
0100
0010
0001
0010
1000
0001
,  // measure 32
0100
0010
1000
0200
0000
0001
0001
0001
,  // measure 33
0000
1000
1000
1000
0000
0010
0010
0310
,  // measure 34
0100
1000
0001
0020
0000
0001
0000
1030
,  // measure 35
0010
0001
0010
0100
0010
1000
0100
0210
,  // measure 36
0000
0000
1000
0000
0000
0000
0301
0100
0020
0000
0000
0000
0031
0000
1000
0000
,  // measure 37
0010
0010
0010
0010
1000
0001
0100
0000
,  // measure 38
0021
0001
0000
1030
0010
0001
0001
0002
,  // measure 39
0000
1003
0200
0001
0000
1300
0020
0001
,  // measure 40
0000
0130
0010
1000
0001
0000
0010
0100
,  // measure 41
1000
1000
1000
1000
0000
0011
0000
0100
,  // measure 42
1000
0000
0001
0000
0000
0000
0010
0100
0000
0000
1000
0000
0010
0000
0100
0000
,  // measure 43
0000
0000
0001
1000
0000
0000
0100
0000
0010
0000
0010
0000
0010
0000
0010
0000
,  // measure 44
0002
1000
0000
2003
0100
0000
3100
0010
,  // measure 45
0001
0000
1000
0000
0001
0000
1000
0100
0010
0000
0001
0000
0100
0001
0010
0000
,  // measure 46
0001
0000
1000
0000
0100
1000
0100
1000
0200
0000
0000
0000
0010
0000
0010
0000
,  // measure 47
0310
0000
0001
0020
1000
0000
0031
0200
,  // measure 48
1000
0000
0310
0100
0010
1000
0001
1000
,  // measure 49
0100
0010
0010
0010
0000
0101
0000
0010
,  // measure 50
1000
0000
0001
0000
0010
0001
0010
0001
0010
0000
0100
0000
0010
0000
0010
0000
,  // measure 51
0100
0000
1000
0000
0001
1000
0001
1000
0001
0000
0100
0000
0010
0000
0010
0000
,  // measure 52
0100
0000
0001
0000
0010
0100
0010
0100
0010
0000
0100
0000
1000
0000
1000
0000
,  // measure 53
0001
0000
0100
0000
0100
0000
0100
0000
0010
1000
0010
0000
0100
0010
0000
0010
,  // measure 54
0001
0010
0100
0010
0000
1000
0001
1000
,  // measure 55
0001
0000
0010
0000
1000
0000
0100
0000
0001
0000
1000
0001
1000
0001
1000
0000
,  // measure 56
0001
0100
0010
0100
0000
0001
1000
0001
,  // measure 57
0010
0001
0000
0000
1000
0100
0000
0000
0010
0000
0001
1000
0001
1000
0001
0000
,  // measure 58
0100
0010
1000
0010
0000
0100
0001
0010
,  // measure 59
0001
0000
0100
0000
1000
0000
0010
0000
0001
0000
1000
0001
1000
0001
1000
0000
,  // measure 60
0020
0100
0000
0230
0001
0000
0301
0010
,  // measure 61
0100
1000
0000
0000
0100
0010
0000
0000
0001
0000
1000
0100
1000
0100
1000
0000
,  // measure 62
0010
0001
1000
0100
0001
0000
0100
0010
,  // measure 63
1000
0001
0010
1000
0001
0100
0010
0000
,  // measure 64
0001
1000
0100
0001
1000
0010
0001
0100
,  // measure 65
0010
0100
0010
0000
1000
0000
0100
0000
0010
0000
0000
0000
1001
0000
0000
0000
,  // measure 66
0001
0100
1000
0010
0001
1000
0010
0001
,  // measure 67
0000
1000
0100
0001
0000
0100
1000
0001
,  // measure 68
0020
0000
0032
0100
0000
0103
0010
1000
,  // measure 69
0001
0010
0001
0000
0010
0000
0100
0000
1000
0000
0100
0010
0100
0010
0100
0000
,  // measure 70
0010
0000
0010
0000
0000
0000
0001
1000
0000
0000
0100
0000
0010
0000
0001
0000
,  // measure 71
0000
0000
1000
0100
0000
0000
0010
0000
0002
0000
2000
0000
0000
0000
0000
0000
,  // measure 72
0000
3003
0000
0000
;
