#TITLE:ラブラブギウギ♥;
#SUBTITLE:;
#ARTIST:亜熱帯マジ-SKA爆弾 feat.MAKI;
#TITLETRANSLIT:Love lovegie woogie;
#SUBTITLETRANSLIT:;
#ARTISTTRANSLIT:ANETTAI MAJI-SKA BAKUDEN feat.MAKI;
#GENRE:SHOWA BOOGIE WOOGIE;
#CREDIT:YonabearCWY;
#BANNER:Love lovegie woogie.png;
#BACKGROUND:Love lovegie woogie-bg.png;
#LYRICSPATH:;
#CDTITLE:pop'n music.png;
#MUSIC:Love lovegie woogie.ogg;
#OFFSET:-10.160000;
#SAMPLESTART:50.529049;
#SAMPLELENGTH:15.000000;
#SELECTABLE:YES;
#BPMS:0.000000=190.000000
;
#STOPS:
;
#BGCHANGES:0.000=roulette1.mp4=1.000=1=0=1===CrossFade==,
8.000=darts1.mp4=1.000=0=0=1=====,
16.000=heart6.mp4=1.000=0=0=1=====,
24.000=heart7.mp4=1.000=0=0=1=====,
32.000=sun2.mp4=1.000=0=0=1=====,
40.000=sun3.mp4=1.000=0=0=1=====,
48.000=star4.mp4=1.000=0=0=1=====,
56.000=room2.mp4=1.000=0=0=1=====,
64.000=piano3.mp4=1.000=0=0=1=====,
72.000=wheel6.mp4=1.000=0=0=1=====,
80.000=fan1.mp4=1.000=0=0=1=====,
96.000=piano3.mp4=1.000=0=1=1=StretchRewind====,
104.000=text1.mp4=1.000=0=0=1=====,
112.000=dance11.mp4=1.000=0=0=1=====,
120.000=snow6.mp4=1.000=0=0=1=====,
122.000=roulette1.mp4=1.000=0=1=1=StretchRewind====,
124.000=darts1.mp4=1.000=0=1=1=StretchRewind====,
128.000=heart13.mp4=1.000=0=0=1=====,
136.000=star8.mp4=1.000=0=0=1=====,
144.000=star1.mp4=1.000=0=0=1=====,
152.000=sun3.mp4=1.000=0=1=1=StretchRewind====,
160.000=heart13.mp4=1.000=0=1=1=StretchRewind====,
168.000=star8.mp4=1.000=0=1=1=StretchRewind====,
176.000=star1.mp4=1.000=0=1=1=StretchRewind====,
184.000=sun2.mp4=1.000=0=1=1=StretchRewind====,
188.000=dance11.mp4=1.000=0=1=1=StretchRewind====,
192.000=snow6.mp4=1.000=0=1=1=StretchRewind====,
200.000=piano3.mp4=1.000=0=1=1=StretchRewind====,
208.000=wheel6.mp4=1.000=0=1=1=StretchRewind====,
216.000=star1.mp4=1.000=0=1=1=StretchRewind====,
223.667=heart6.mp4=1.000=0=1=1=StretchRewind====,
240.000=heart7.mp4=1.000=0=1=1=StretchRewind====,
248.000=star1.mp4=1.000=0=1=1=StretchRewind====,
251.000=snow6.mp4=1.000=0=1=1=StretchRewind====,
254.000=star1r.mp4=1.000=0=0=1=====,
258.000=star2.mp4=1.400=0=0=1=====,
262.000=roulette1.mp4=1.000=0=1=1=StretchRewind====,
265.000=wheel6.mp4=1.000=0=1=1=StretchRewind====,
268.000=roulette1r.mp4=1.000=0=0=1=====,
272.000=star2.mp4=1.400=0=0=1=====,
274.667=star2.mp4=0.100=0=0=1=====,
276.333=Love lovegie woogie-bg.png=1.000=0=0=1=====,
99999=-nosongbg-=1.000=0=0=0 // don't automatically add -songbackground-
;
#KEYSOUNDS:;
#ATTACKS:;

//---------------dance-single - ----------------
#NOTES:
     dance-single:
     BEGINNER:
     Beginner:
     4:
     0.000000,0.000000,0.000000,0.000000,0.000000,0.000000,0.000000,0.000000,0.000000,0.000000,0.000000,0.000000,0.000000,0.000000,0.000000,0.000000,0.000000,0.000000,0.000000,0.000000,0.000000,0.000000:
1000
0000
0000
0000
,
1000
0000
0001
0001
,
0001
0000
0000
0000
,
0001
0000
0000
0000
,
0010
0000
0000
0000
,
0010
0000
0100
0100
,
0100
0000
0000
0000
,
0100
0000
0000
0000
,
1000
0000
0000
0000
,
1000
0000
0010
0010
,
0010
0000
0000
0000
,
0010
0000
0000
0000
,
0100
0000
0000
0000
,
0100
0000
0001
0001
,
0001
0000
0000
0000
,
0001
0000
0000
0000
,
1001
0000
0000
0000
,
0000
0000
0000
0000
,
0100
0100
0100
0000
,
0100
0100
0100
0000
,
0010
0000
0000
0000
,
0000
0000
0000
0000
,
0010
0000
0000
0000
,
0000
0000
0000
0000
,
1001
0000
0000
0000
,
0000
0000
0000
0000
,
0010
0010
0010
0000
,
0010
0010
0010
0000
,
0100
0000
0000
0000
,
0000
0000
0000
0000
,
0110
0000
0110
0000
,
1001
0000
0000
0000
,
1000
0000
1000
0000
,
1000
0000
0000
0000
,
0001
0000
0001
0000
,
0001
0000
0000
0000
,
1000
0000
1000
0000
,
1000
0000
0000
0000
,
0000
0000
0000
0000
,
0000
0000
0000
0000
,
0010
0000
0010
0000
,
0010
0000
0000
0000
,
0100
0000
0100
0000
,
0100
0000
0000
0000
,
0010
0000
0010
0000
,
0010
0000
0000
0000
,
1000
1000
1000
0000
,
0001
0001
0001
0000
,
1000
0000
1000
0000
,
0010
0000
0000
0000
,
0100
0000
0100
0000
,
0001
0000
0000
0000
,
0010
0000
0010
0000
,
0100
0000
0000
0000
,
1000
0000
1000
0000
,
0001
0000
0000
0000
,
0100
0100
0100
0000
,
0100
0000
0000
0000
,
0010
0010
0010
0000
,
0010
0000
0000
0000
,
1000
1000
1000
0000
,
1000
0000
0000
0000
,
0110
0000
0000
0110
,
0000
0000
0110
0000
,
0000
0000
1001
0000
,
0000
0000
1001
0000
,
0000
1001
0000
0000
,
1001
0000
0000
0000
,
0110
0000
0000
0000
,
0000
2002
0000
0000
0000
0000
0000
0000
0000
0000
0000
0000
,
0000
0000
0000
0000
,
0000
0000
0000
0000
,
3003
0000
0000
0000
;

//---------------dance-single - ----------------
#NOTES:
     dance-single:
     BASIC:
     Easy:
     6:
     0.000000,0.000000,0.000000,0.000000,0.000000,0.000000,0.000000,0.000000,0.000000,0.000000,0.000000,0.000000,0.000000,0.000000,0.000000,0.000000,0.000000,0.000000,0.000000,0.000000,0.000000,0.000000:
1000
0000
1000
0000
,
1000
0000
0001
0001
,
0001
0100
0000
0100
,
0000
0010
0000
0010
,
0100
0000
0100
0000
,
0010
0000
0010
0010
,
0010
0100
0000
0001
,
0000
1000
0000
0001
,
1000
1000
1000
0000
,
1000
1000
1000
0010
,
0100
0010
0000
0100
,
0000
0001
0000
0010
,
0001
0001
0001
0000
,
0001
0001
0001
1000
,
0010
0000
0100
0000
,
0001
1000
0001
0000
,
1001
0000
0000
0000
0000
2002
0000
0000
0000
0000
0000
0000
,
0000
0000
0000
0000
0000
3003
0000
0000
1001
0000
0000
0000
,
1001
0010
0100
0000
,
0100
0010
0100
0000
,
0001
1000
0100
0010
,
0001
0000
0001
0010
,
0100
1000
0001
0100
,
0010
0000
0000
0100
0000
0000
0001
0000
1000
0000
0000
0000
,
0110
0000
0000
0000
0000
0220
0000
0000
0000
0000
0000
0000
,
0000
0000
0000
0000
0000
0330
0000
0000
0110
0000
0000
0000
,
0110
1000
0001
0000
,
0001
1000
0001
0000
,
1000
0010
0100
0001
,
0010
0000
0100
1000
,
0202
0303
2020
3030
,
0220
0000
0000
0330
,
1000
1000
0001
0000
,
0001
0001
1000
0000
,
0100
0100
0010
0000
,
0010
0010
0100
0000
,
1000
0001
0010
1000
,
0010
0001
1000
0100
,
0001
0100
1000
0001
,
0010
0000
0010
0000
,
0001
0001
1000
0000
,
0100
0100
0010
0000
,
0001
0001
0010
0000
,
0100
0100
1000
0000
,
0100
0010
0001
0100
,
1000
0100
0001
1000
,
0110
0000
0000
1001
0000
0000
0010
0000
0000
0200
0000
0020
,
0000
0000
0000
0330
,
1000
0000
1000
0000
,
1000
0100
0010
0000
,
0001
0000
0001
0000
,
0001
0100
0010
0000
,
1000
0000
1000
0000
,
0001
0100
1000
0000
,
0100
0000
0001
0000
,
0100
0010
1000
0000
,
0001
0000
0010
0000
,
1000
0010
0001
0010
,
0100
0000
1000
0000
,
0001
0100
0010
1000
,
0100
0000
0010
0000
,
0001
1000
0100
0010
,
2100
0000
3001
0102
,
0000
0013
0210
0000
,
0301
1001
0220
0000
,
0000
0330
1020
0000
,
0130
0201
0000
0310
,
2001
0000
3010
1010
,
0102
0000
0000
0000
0000
0000
0000
0000
1003
0000
0000
0000
,
0000
2002
0000
0000
0000
0000
0000
0000
0000
0000
0000
0000
,
0000
0000
0000
0000
,
0000
0000
0000
0000
,
3003
0000
0000
0000
;

//---------------dance-single - ----------------
#NOTES:
     dance-single:
     DIFFICULT:
     Medium:
     8:
     0.000000,0.000000,0.000000,0.000000,0.000000,0.000000,0.000000,0.000000,0.000000,0.000000,0.000000,0.000000,0.000000,0.000000,0.000000,0.000000,0.000000,0.000000,0.000000,0.000000,0.000000,0.000000:
1000
0100
0010
0000
,
0010
0100
1000
0001
,
0100
0000
0100
0000
,
0010
0000
0010
0000
,
1000
0001
0010
0000
,
0100
1000
0001
0010
,
0100
0000
0100
0000
,
0010
0000
0010
0000
,
0001
1000
0100
0000
,
0010
0001
0100
0010
,
1000
0000
1000
0000
,
0001
0000
0001
0000
,
0010
0001
1000
0000
,
0100
0010
0001
0010
,
1000
0000
1000
0000
,
0001
0000
0001
0000
,
1001
0000
0000
0000
0000
2002
0000
0000
0000
0000
0000
0000
,
0000
0000
0000
0000
0000
3003
0000
0000
1001
0000
0000
0000
,
1001
0010
0100
0010
,
1000
0001
1000
0010
,
0001
0010
1000
0100
,
0001
0100
1000
0001
,
0010
0100
0010
0001
,
1000
0100
0010
0100
,
0110
0000
0000
0000
0000
0220
0000
0000
0000
0000
0000
0000
,
0000
0000
0000
0000
0000
0330
0000
0000
0110
0000
0000
0000
,
0110
1000
0001
0010
,
0001
1000
0100
1000
,
0010
0100
0001
0010
,
0100
0000
0000
1000
0000
0000
0001
0000
0100
0000
0000
0000
,
2200
3300
0202
0303
,
0220
0000
0000
0330
,
2000
0001
0010
0001
,
3010
0000
0000
1000
0000
0000
0001
0000
0100
0010
0000
0000
,
0002
1000
0010
1000
,
0013
0000
0000
0100
0000
0000
0001
0000
1000
0001
0000
0000
,
2000
0010
0001
0010
,
3200
0001
1000
0010
,
2300
3001
0002
0013
,
0020
0000
0000
0230
0000
0000
1300
0000
0001
0100
0000
0000
,
0020
1000
0001
1000
,
0130
0000
0000
0010
0000
0000
1000
0000
0001
0100
0000
0000
,
0020
1000
0100
1000
,
0130
0000
0000
0010
0000
0000
1000
0000
0100
0010
0000
0000
,
0002
1000
0010
2003
,
3002
0103
0200
0310
,
1010
0000
0000
0101
0000
0000
1000
0000
0010
0100
0000
0020
,
0200
0000
0000
0330
,
1000
0001
0000
0100
,
0000
0001
0010
1000
,
0010
0100
0000
0010
,
0000
0001
0000
0010
,
0100
1000
1100
0001
,
0100
0101
0010
1000
,
0001
0001
0010
0010
,
0100
0100
1000
1000
,
0001
1000
1010
0100
,
0001
0001
1000
1000
,
0010
0100
0101
0010
,
0010
0001
0001
1000
,
0020
0000
1030
0100
,
0002
0000
0103
1000
,
0001
0000
0000
0100
0000
0000
0001
0000
0010
0001
0000
0000
,
1000
0000
0000
0010
0000
1000
0010
0000
0000
0100
0000
0000
,
0001
0010
2002
0000
,
0000
3003
1000
0010
,
0100
0000
0010
1000
0000
0000
0100
0000
0000
0010
0000
0001
,
1000
0100
0010
0100
,
0220
0000
0000
0000
0000
0000
0330
0000
0110
0000
0000
0000
,
0000
2002
0000
0000
0000
0000
0000
0000
0000
0000
0000
0000
,
0000
0000
0000
0000
,
0000
0000
0000
0000
,
3003
0000
0000
0000
;

//---------------dance-single - ----------------
#NOTES:
     dance-single:
     EXPERT:
     Hard:
     12:
     0.530581,0.596590,0.253453,0.428921,0.541025,381.000000,355.000000,26.000000,44.000000,0.000000,0.000000,0.530581,0.596590,0.253453,0.428921,0.541025,381.000000,355.000000,26.000000,44.000000,0.000000,0.000000:
// measure 0
1000
0000
0000
0001
0000
1000
0010
0000
0000
0100
0000
0001
,  // measure 1
1000
0000
0000
0010
0000
1000
0100
0000
1000
0100
0000
0001
,  // measure 2
0100
1000
0001
0100
,  // measure 3
0001
0010
1000
0001
,  // measure 4
0100
0000
0000
1000
0000
0001
0100
0000
0000
0010
0000
1000
,  // measure 5
0001
0000
0000
0100
0000
0001
0010
0000
0001
0010
0000
1000
,  // measure 6
0010
0001
0100
0010
,  // measure 7
1000
0100
0001
1000
,  // measure 8
0010
0000
0000
0001
0100
0001
0100
0000
0000
0010
0000
1000
,  // measure 9
0100
0000
0000
0010
0001
0010
0001
0000
1000
0010
0000
1000
,  // measure 10
0001
0000
0000
0100
0000
0000
0010
0000
0000
1000
0000
0100
,  // measure 11
0000
0000
1000
0001
0000
1000
0001
0000
1000
0001
0000
0000
,  // measure 12
0010
0000
0000
0100
1000
0100
1000
0000
0000
0010
0000
0100
,  // measure 13
0001
0000
0000
0001
1000
0001
1000
0000
0100
0010
0000
0100
,  // measure 14
0010
0000
0000
0001
0000
0000
1000
0000
0000
0100
0000
0100
,  // measure 15
0000
0000
0010
0100
0000
0010
0100
0000
0010
0100
1000
0001
,  // measure 16
0100
0000
0000
0010
0000
2002
0000
0000
0000
0000
0000
0000
,  // measure 17
0000
0000
0000
0000
0000
3003
0000
0000
0110
0000
0000
0000
,  // measure 18
1001
0000
0000
0100
0000
0010
1000
0000
0000
0100
0000
0010
,  // measure 19
0001
0000
0010
0001
0000
0000
1000
0000
0002
0000
0000
0000
,  // measure 20
0013
1000
0001
0100
,  // measure 21
0010
0001
0100
0001
,  // measure 22
1000
0010
0100
1000
,  // measure 23
0100
0000
0000
0010
0000
0000
1000
0000
0101
0000
0000
0000
,  // measure 24
0011
0000
0000
0100
0000
2002
0000
0000
0000
0000
0000
0000
,  // measure 25
0000
0000
0000
0000
0000
3003
0000
0000
1010
0000
0000
0000
,  // measure 26
0101
0000
0000
0010
0000
0001
1000
0000
0000
0100
0000
1000
,  // measure 27
0010
0000
1000
0010
0000
0000
0001
0000
0020
0000
0000
0000
,  // measure 28
1030
0100
0001
0100
,  // measure 29
0010
0000
0000
0100
0000
0000
1000
0000
0001
0010
0000
0000
,  // measure 30
0202
0303
2020
3030
,  // measure 31
0220
0000
0000
0000
0000
0000
0330
0000
1002
0000
0000
0000
,  // measure 32
2003
0001
0010
0001
,  // measure 33
3100
0000
0010
1000
0000
0010
1000
0000
0010
0100
0000
0010
,  // measure 34
0200
0001
1000
0010
,  // measure 35
0301
0000
1000
0100
0000
1000
0100
0000
0010
0100
0000
0010
,  // measure 36
0200
0001
0010
1000
,  // measure 37
0310
0001
1000
0100
,  // measure 38
0001
0000
0000
1100
0000
0000
0010
0000
0001
0100
0000
0001
,  // measure 39
0100
0000
0001
1000
0000
0001
1000
0000
0210
0000
0000
0000
,  // measure 40
0302
1000
0100
0010
,  // measure 41
1003
0000
0001
0010
0000
0001
0010
0000
1000
0010
0000
1000
,  // measure 42
0020
1000
0001
0100
,  // measure 43
0031
0000
1000
0010
0000
1000
0010
0000
0001
0010
0000
0001
,  // measure 44
0020
0100
0001
0100
,  // measure 45
2030
0100
0001
3100
,  // measure 46
1001
0000
0000
0110
0000
0000
1000
0000
0010
0100
0000
0020
,  // measure 47
0200
0000
0000
0330
,  // measure 48
1000
0001
0010
1000
,  // measure 49
0010
0000
0000
0001
0000
0000
1000
0000
0010
0200
0000
0000
,  // measure 50
0301
1000
0100
0001
,  // measure 51
0100
0000
0000
1000
0000
0001
0100
0000
0020
0000
0000
0000
,  // measure 52
1030
0000
0000
0000
0010
0000
0100
0000
0000
0002
0000
0000
0000
0000
0000
0000
0000
0000
0013
0000
0000
0100
0000
0000
,  // measure 53
1000
0000
0200
0000
0000
0310
0001
0000
1000
0001
0000
0100
,  // measure 54
0002
0010
1000
0010
,  // measure 55
2003
0000
0000
0001
0000
0000
3010
0000
0110
0000
0000
1002
,  // measure 56
0000
0000
0000
1003
0010
1000
0010
0000
0100
0001
0000
0001
,  // measure 57
0010
0000
0010
0100
0000
0100
1000
0000
0000
0101
0000
0000
,  // measure 58
1010
0000
0000
0000
0000
0000
0001
0000
0000
0100
0000
0000
0010
0000
0000
0000
0000
0000
1000
0000
0000
0000
0100
0000
,  // measure 59
0000
0000
0010
0001
0000
0010
0001
0000
1000
0001
0000
0000
,  // measure 60
0100
0000
0000
0010
0000
0000
1000
0000
0000
0010
0000
0000
0100
0000
0000
0000
0001
0000
0010
0000
0000
0000
0001
0000
,  // measure 61
1000
0100
0010
0001
0100
0010
1000
0001
,  // measure 62
0020
0000
0001
0000
0000
0031
0200
0000
0000
0320
0000
1000
,  // measure 63
0000
0000
1030
0002
0000
0000
0103
0000
0001
1000
0000
0001
,  // measure 64
1000
0110
2200
0000
,  // measure 65
0000
0000
0000
3300
0000
0000
0002
0000
0010
0000
0000
0103
,  // measure 66
0020
0000
0000
2030
0000
0010
0000
0000
3100
0020
0000
0000
,  // measure 67
0031
0000
0100
0010
0000
0100
0010
0000
0000
1001
0000
0000
,  // measure 68
0022
0000
0000
0030
0000
0000
1003
0000
0110
0000
0000
0000
,  // measure 69
0000
2002
0000
0000
0000
0000
0000
0000
0000
0000
0000
0000
,  // measure 70
0000
0000
0000
0000
,  // measure 71
0000
0000
0000
0000
0000
0000
0000
0000
0000
0000
0000
0000
3000
0000
1003
0001
,  // measure 72
1000
0000
0000
0000
;
