#VERSION:0.83;
#TITLE:Logic Board;
#SUBTITLE:;
#ARTIST:dj nagureo;
#TITLETRANSLIT:;
#SUBTITLETRANSLIT:;
#ARTISTTRANSLIT:;
#GENRE:TECHNO;
#ORIGIN:;
#TAGS:;
#CREDIT:YonabearCWY;
#BANNER:Logic Board.png;
#BACKGROUND:Logic Board-bg.png;
#PREVIEWVID:;
#JACKET:Logic Board-jacket.png;
#CDIMAGE:;
#DISCIMAGE:;
#LYRICSPATH:;
#CDTITLE:Beatmania IIDX.png;
#MUSIC:Logic Board.ogg;
#OFFSET:-0.090000;
#SAMPLESTART:73.924156;
#SAMPLELENGTH:15.000000;
#SELECTABLE:YES;
#BPMS:0.000000=130.000000
;
#STOPS:;
#DELAYS:;
#WARPS:;
#TIMESIGNATURES:0.000000=4=4
;
#TICKCOUNTS:0.000000=4
;
#COMBOS:0.000000=1
;
#SPEEDS:0.000000=1.000000=0.000000=0
;
#SCROLLS:0.000000=1.000000
;
#LABELS:0.000000=Song Start
;
#BGCHANGES:16.000=water1.mp4=1.000=1=0=1===CrossFade==,
28.000=text26.mp4=1.200=0=0=1=====,
32.000=wave2.mp4=1.000=0=0=1=====,
33.000=fireworks2.mp4=1.000=0=0=1=====,
34.000=wave2.mp4=1.000=0=0=1=====,
35.000=fireworks2.mp4=1.000=0=0=1=====,
36.000=wave2.mp4=1.000=0=0=1=====,
37.000=fireworks2.mp4=1.000=0=0=1=====,
38.000=wave2.mp4=1.000=0=0=1=====,
39.000=fireworks2.mp4=1.000=0=0=1=====,
40.000=wave3.mp4=1.000=0=0=1=====,
41.000=numbers1.mp4=1.000=0=0=1=====,
42.000=wave3.mp4=1.000=0=0=1=====,
43.000=numbers1.mp4=1.000=0=0=1=====,
44.000=wave3.mp4=1.000=0=0=1=====,
45.000=numbers1.mp4=1.000=0=0=1=====,
46.000=wave3.mp4=1.000=0=0=1=====,
47.000=numbers1.mp4=1.000=0=0=1=====,
48.000=planet2.mp4=1.200=0=0=1=====,
56.000=ring6.mp4=1.200=0=0=1=====,
64.000=text25.mp4=1.000=0=0=1=====,
72.000=tunnel12.mp4=1.200=0=0=1=====,
80.000=text25.mp4=1.000=0=1=1=StretchRewind====,
88.000=tunnel12.mp4=1.200=0=1=1=StretchRewind====,
96.000=fireworks2.mp4=1.000=0=1=1=StretchRewind====,
104.000=cube4.mp4=1.000=0=0=1=====,
112.000=numbers2.mp4=1.000=0=1=1=StretchRewind====,
120.000=ring6.mp4=1.200=0=1=1=StretchRewind====,
128.000=water1.mp4=1.000=0=1=1=StretchRewind====,
136.000=tunnel12.mp4=1.200=0=1=1=StretchRewind====,
144.000=numbers2.mp4=1.000=0=1=1=StretchRewind====,
152.000=numbers3.mp4=1.000=0=0=1=====,
153.000=numbers1.mp4=1.000=0=1=1=StretchRewind====,
154.000=numbers3.mp4=1.000=0=0=1=====,
155.000=numbers1.mp4=1.000=0=0=1=====,
156.000=cube4.mp4=1.000=0=1=1=StretchRewind====,
160.000=text5.mp4=1.000=0=0=1=====,
176.000=spark1.mp4=1.400=0=0=1=====,
184.000=text25.mp4=1.000=0=1=1=StretchRewind====,
192.000=text26.mp4=1.200=0=1=1=StretchRewind====,
200.000=ring6.mp4=1.200=0=1=1=StretchRewind====,
208.000=planet2.mp4=1.200=0=1=1=StretchRewind====,
224.000=tunnel12.mp4=1.200=0=1=1=StretchRewind====,
239.500=Logic Board-bg.png=1.000=0=0=1=====,
99999.000=-nosongbg-=1.000=0=0=0=StretchNoLoop====,
99999=-nosongbg-=1.000=0=0=0 // don't automatically add -songbackground-
;
#KEYSOUNDS:;
#ATTACKS:
;

//---------------dance-single - ----------------
#NOTEDATA:;
#CHARTNAME:BASIC;
#CHARTHASH:350204640;
#STEPSTYPE:dance-single;
#BANNER:;
#DESCRIPTION:;
#CHARTSTYLE:;
#DIFFICULTY:Easy;
#METER:5;
#METERF:5.000000;
#LASTSECONDHINT:110.397682;
#RADARVALUES:0.232759,0.315734,0.220177,0.176142,0.000000,185.000000,160.000000,25.000000,20.000000,0.000000,0.000000,0.000000,0.000000,0.000000,0.232759,0.315734,0.220177,0.176142,0.000000,185.000000,160.000000,25.000000,20.000000,0.000000,0.000000,0.000000,0.000000,0.000000;
#CREDIT:YonabearCWY;
#NOTES:
0000
0000
0000
0000
,
0000
0000
0000
0000
,
0000
0000
0000
0000
,
0000
0000
0000
0000
,
1000
1000
1000
0000
,
0001
0001
0001
0000
,
1000
1000
1000
0000
,
2002
0000
0000
3003
,
0010
0010
0000
0010
,
0000
0010
0000
0100
,
0100
0100
0000
0100
,
0000
0100
0000
0100
,
0100
0001
1000
0010
,
1000
0000
1000
0000
,
0001
1000
0100
0001
,
0100
0000
0010
0000
,
2200
0000
0000
3300
,
1000
0010
0001
0100
,
0202
0000
0000
0303
,
0001
0100
1000
0010
,
0110
1000
0000
1000
,
0110
0001
0000
0100
,
1001
0010
0000
1000
,
0101
0010
0100
1000
,
2002
0000
0000
3003
,
2200
0000
0000
3300
,
0022
0000
0000
0033
,
0220
0000
0000
0330
,
0001
0001
0001
0001
,
0001
1000
0100
0010
,
0001
0001
0001
0001
,
0001
0010
0100
0010
,
1001
1000
1000
1000
,
1001
0001
0001
0001
,
0110
0100
0100
0100
,
0110
0010
0010
0010
,
0220
0000
0000
0330
,
2002
0000
0000
3003
,
0100
0110
0010
0110
,
2002
0000
0000
3003
,
1000
0000
1000
0000
,
0001
0001
1000
1000
,
0010
0000
0010
0000
,
0100
0100
0010
0010
,
1000
0000
0100
0010
,
0001
0000
0010
0100
,
1000
0000
0001
0100
,
1000
0000
0001
0100
,
1000
0000
1000
0010
,
0001
0000
1000
0010
,
0001
0000
1000
0001
,
0100
0000
0001
1000
,
0010
0000
0010
0100
,
0101
0000
0010
1000
,
1100
0000
1000
0001
,
1001
0000
0001
1000
,
1001
0010
0100
0010
,
0100
0000
0001
1000
,
0100
0010
0100
0010
,
0001
0000
1000
1001
;

//---------------dance-single - ----------------
#NOTEDATA:;
#CHARTNAME:DIFFICULT;
#CHARTHASH:4159172737;
#STEPSTYPE:dance-single;
#BANNER:;
#DESCRIPTION:;
#CHARTSTYLE:;
#DIFFICULTY:Medium;
#METER:8;
#METERF:8.000000;
#LASTSECONDHINT:110.628456;
#RADARVALUES:0.376188,0.395493,0.193756,0.167335,0.000000,299.000000,277.000000,22.000000,19.000000,0.000000,0.000000,0.000000,0.000000,0.000000,0.376188,0.395493,0.193756,0.167335,0.000000,299.000000,277.000000,22.000000,19.000000,0.000000,0.000000,0.000000,0.000000,0.000000;
#CREDIT:YonabearCWY;
#NOTES:
0000
0000
0000
0000
,
0000
0000
0000
0000
,
0000
0000
0000
0000
,
0000
0000
0000
0000
,
0000
1000
0000
1000
0000
0001
0100
0001
,
0000
0010
0000
0010
0000
1000
0000
0100
,
0000
0001
0000
0001
0000
1000
0100
1000
,
0000
0010
0000
0010
0000
0100
0010
0000
,
1000
0001
1000
0000
0001
1000
0001
0000
,
0100
0010
0100
0000
0010
0100
0110
0000
,
1000
0100
1000
0000
0100
0001
0100
0000
,
0010
0001
0010
0000
0001
1000
0001
0000
,
0010
0000
1000
0000
0100
0001
0100
0000
,
1000
0000
0010
0000
0100
1000
0100
0000
,
0001
0000
1000
0000
0100
0010
0100
0000
,
0001
0000
1000
0000
0010
0100
0010
0000
,
1000
0100
1000
0100
1000
0100
1000
0100
,
0020
0001
1000
0031
,
0001
0100
0001
0100
0001
0100
0001
0100
,
0020
1000
0001
1030
,
0100
0010
0001
0010
0001
0000
1000
0100
,
0002
0100
1000
0103
,
0010
0001
0010
0001
1000
0000
0001
0010
,
2000
0001
0010
3001
,
2002
0000
0000
3003
,
2020
0000
0000
3030
,
0202
0000
0000
0303
,
0220
0000
0000
0330
,
1000
0001
1000
0000
0001
1000
0001
0000
,
0100
0010
1000
0100
,
0010
0001
0010
0000
0100
1000
0100
0000
,
0001
0100
0010
1001
,
0100
0010
1010
0000
0001
0100
0110
0000
,
1000
0001
0010
1000
,
0010
0001
0011
0000
0100
1000
1010
0000
,
1000
0100
0010
1001
,
0220
0000
0000
0330
,
2200
0000
0000
3300
,
0011
1010
0110
0101
,
2001
0000
0000
0000
3100
0010
0110
0000
,
0001
0010
0001
0010
0100
1000
0100
1000
,
0001
1000
0100
0001
,
0100
1000
0100
1000
0010
0100
0010
0100
,
0001
0010
0100
1001
,
0100
0010
0100
0010
0000
1000
0000
0001
,
0100
0001
0010
0001
,
1000
0010
1000
0010
0000
0100
0000
0001
,
0010
0100
1000
0000
0100
0100
0100
0000
,
1000
0010
1000
0010
0100
0001
0100
0001
,
0000
0010
0000
0100
0000
1000
0001
0000
,
0100
0010
0100
1000
0100
0001
0100
0010
,
0000
0100
0000
0001
0000
1000
0001
1000
,
0002
0010
1000
0010
,
0103
0001
0010
0100
1000
0001
1000
0100
,
0020
0001
1000
0001
,
0130
0010
0100
1000
0100
0001
0100
0010
,
0001
1000
0000
0101
0000
0010
0000
1000
,
0010
1000
0000
0100
0000
0010
0000
0100
,
1000
0001
0000
1000
0000
0010
0000
0100
,
0001
0010
0000
0001
0000
1000
0000
1001
;

//---------------dance-single - ----------------
#NOTEDATA:;
#CHARTNAME:EXPERT;
#CHARTHASH:1090487293;
#STEPSTYPE:dance-single;
#BANNER:;
#DESCRIPTION:;
#CHARTSTYLE:;
#DIFFICULTY:Hard;
#METER:13;
#METERF:13.000000;
#LASTSECONDHINT:110.628456;
#RADARVALUES:0.597623,0.580056,0.096878,0.202563,0.440354,475.000000,464.000000,11.000000,23.000000,0.000000,0.000000,0.000000,0.000000,0.000000,0.597623,0.580056,0.096878,0.202563,0.440354,475.000000,464.000000,11.000000,23.000000,0.000000,0.000000,0.000000,0.000000,0.000000;
#CREDIT:YonabearCWY;
#NOTES:
0000
0000
0000
0000
,
0000
0000
0000
0000
,
0000
0000
0000
0000
,
0000
0000
0000
0000
,
0000
0000
1000
0100
0000
0100
0010
0000
0000
0000
0001
0000
1000
0000
0001
0000
,
0000
0000
0010
0000
0100
0000
1000
0000
0000
0000
0001
0100
0001
0100
0001
0000
,
0000
0000
0010
0100
0000
0100
1000
0000
0000
0000
0010
0000
0100
0000
0010
0000
,
2000
0000
0001
0000
3010
0010
1001
0000
,
0100
0001
0000
0001
0020
0000
0000
0000
0130
1000
0000
1000
0002
0000
0000
0000
,
1003
0100
0000
0100
0020
0000
0000
0000
0031
0000
1000
0001
0020
0000
0000
0000
,
0130
1000
0000
1000
0002
0000
0000
0000
0013
0100
0000
0100
0020
0000
0000
0000
,
0031
0100
0000
0100
2000
0000
0000
0000
3100
0001
1000
0200
0000
0000
0010
0000
,
0310
0000
0001
0000
1000
0000
0001
0000
0010
0100
0000
0200
0010
0000
0010
0000
,
0310
0000
0001
0000
1000
0000
0010
0000
0001
0010
0000
0020
0100
0000
0100
0000
,
0130
0000
0010
0000
1000
0000
0001
0000
1000
0010
0000
0020
0001
0000
0001
0000
,
0031
0000
0010
0000
0100
0000
0001
0000
0110
0000
1000
0001
0000
0001
0010
0000
,
0100
1000
0100
0001
0100
1000
0100
0010
,
0100
0000
1000
0002
0000
0000
0013
0000
0100
0000
1000
0200
0000
0000
0310
0000
,
0001
1000
0010
0001
0010
0100
0010
0001
,
0010
0000
1000
0100
2000
0000
0000
0000
3001
0000
0010
0100
0020
0000
0100
0000
,
0130
0000
0000
1000
0100
0000
0000
0010
0001
0010
0000
0001
0100
0000
0010
0000
,
1000
0000
0000
0001
0010
0000
0100
0000
1000
0000
0001
0100
0000
0000
1000
0000
,
0100
0000
0000
0010
0100
0000
0000
0001
1000
0001
0000
0100
0010
0000
0100
0000
,
0001
0000
0010
0100
1000
0000
0100
0000
0010
0001
0000
0001
1000
0000
0010
0000
,
0200
0001
1000
0001
,
0320
0000
1000
1000
0000
0100
0000
1030
,
0002
0000
1000
0000
0003
1000
0100
0000
0020
0000
0001
0000
0000
0000
0031
0000
,
1001
0000
0000
1010
0000
0000
0110
0000
0000
0101
0000
0001
0010
0000
0100
0000
,
1000
1000
1000
1000
1000
1000
1000
1000
,
1000
0000
0001
0010
0000
0000
0100
0000
1000
0000
0000
0100
0010
0000
0001
0000
,
0100
0100
0100
0100
0100
0100
0100
0100
,
0100
0000
0000
0001
1000
0000
0001
0000
0010
0000
0100
1000
0000
0000
0100
0000
,
0010
0010
0010
0010
0010
0010
0010
0010
,
0010
0000
0000
0001
1000
0000
0100
0000
0000
1000
0000
0100
0010
0000
0100
0000
,
0001
0001
0001
0001
0001
0001
0001
0001
,
0001
0000
0000
0100
1000
0000
0100
0000
0000
0010
0000
0001
0100
0001
0100
0000
,
0010
0000
1000
0000
0010
0000
1000
0000
0001
0000
0100
0000
0000
0001
0010
0000
,
0100
0000
1000
0000
0100
0000
0010
0000
0001
0000
0100
0000
0000
0010
1000
0000
,
0010
0000
0101
0000
0010
0010
1002
0000
,
0103
0010
0100
0010
0200
0000
0000
0000
0301
1000
0100
1000
0002
0000
0000
0000
,
0013
0000
0100
0000
1000
0000
0100
0000
0010
0000
0000
0100
0000
1000
0010
0000
,
0100
0000
0001
0000
0010
0000
0100
0000
0011
0000
0000
1001
0000
0000
0010
0000
,
0100
0000
1000
0000
0100
0000
0001
0000
0100
0000
0000
0010
0000
1000
0001
0000
,
0010
0000
0100
0000
1000
0000
0001
0000
1000
0100
0000
0100
0010
0001
1000
0000
,
0010
0000
0100
0000
0010
0000
0100
0001
0010
0000
0001
0000
0010
0000
0001
1000
,
0100
0000
1000
0000
0010
0000
1000
0100
0010
0001
0000
0001
0010
0000
0100
0000
,
1000
0000
0001
0000
0010
0000
0100
0000
1000
0000
0001
0000
0010
0000
0001
1000
,
0100
0000
0010
0000
0100
0000
1000
0001
0010
0100
0000
0100
1000
0000
0001
0000
,
0100
0000
0010
0000
1000
0000
0010
0000
0000
0100
0001
0000
0010
0000
0100
1000
,
0001
0000
0010
0000
0001
0000
1000
0000
0100
0000
0010
0000
0000
0001
1000
0100
,
1000
0000
0010
0000
0100
0000
0001
0010
0100
1000
0100
0000
0010
0000
0001
0000
,
1000
0000
0010
0100
0010
0000
1000
0000
0001
0100
0000
0100
0010
0000
1000
0000
,
0100
0010
0001
0010
0001
1000
0100
1000
,
0100
0000
0001
0000
0100
0000
0001
0000
0100
0000
1000
0000
0100
0000
1000
0001
,
0010
0001
0010
0001
0010
1000
0010
1000
,
0010
0000
0001
0000
0100
0000
0010
0000
1000
0000
0100
0000
0010
0000
0001
1000
,
0100
1000
0010
0000
0100
0000
0001
0000
0010
0000
1000
0000
0010
0000
0001
0000
,
1000
0000
0100
0000
0001
0000
0100
0000
1000
0000
0001
0000
0010
0000
0100
1000
,
0001
1000
0100
0000
0010
0000
0001
0000
1000
0000
0010
0000
0100
0000
0001
0000
,
0010
0000
0100
0000
1000
0000
0001
0000
1000
0100
0010
0001
0000
0000
1001
0000
;

//---------------dance-single - ----------------
#NOTEDATA:;
#CHARTNAME:BEGINNER;
#CHARTHASH:3467803593;
#STEPSTYPE:dance-single;
#BANNER:;
#DESCRIPTION:;
#CHARTSTYLE:;
#DIFFICULTY:Beginner;
#METER:3;
#METERF:3.000000;
#LASTSECONDHINT:0.090000;
#RADARVALUES:0.147204,0.210489,0.061650,0.052842,0.000000,117.000000,110.000000,7.000000,6.000000,0.000000,0.000000,0.000000,0.000000,0.000000,0.147204,0.210489,0.061650,0.052842,0.000000,117.000000,110.000000,7.000000,6.000000,0.000000,0.000000,0.000000,0.000000,0.000000;
#CREDIT:YonabearCWY;
#NOTES:
// measure 0
0000
0000
0000
0000
,  // measure 1
0000
0000
0000
0000
,  // measure 2
0000
0000
0000
0000
,  // measure 3
0000
0000
0000
0000
,  // measure 4
0000
1000
0000
1000
,  // measure 5
0000
0001
0000
0001
,  // measure 6
0000
1000
0000
1000
,  // measure 7
1001
0000
0000
0000
,  // measure 8
0000
0010
0000
0010
,  // measure 9
0000
0010
0000
0010
,  // measure 10
0000
0100
0000
0100
,  // measure 11
0000
0100
0000
0100
,  // measure 12
0001
0000
0001
0000
,  // measure 13
0001
0000
0001
0000
,  // measure 14
1000
0000
1000
0000
,  // measure 15
1000
0000
1000
0000
,  // measure 16
2002
0000
0000
0000
,  // measure 17
3003
0000
0000
0000
,  // measure 18
0220
0000
0000
0000
,  // measure 19
0330
0000
0000
0000
,  // measure 20
2000
0000
0000
3000
,  // measure 21
0001
1000
0001
1000
,  // measure 22
0002
0000
0000
0003
,  // measure 23
1000
0001
1000
0001
,  // measure 24
1000
0000
0000
0000
,  // measure 25
1000
0000
0000
0000
,  // measure 26
0001
0000
0000
0000
,  // measure 27
1001
0000
0000
0000
,  // measure 28
0010
0010
0010
0000
,  // measure 29
0010
0000
0000
0000
,  // measure 30
0100
0100
0100
0000
,  // measure 31
0100
0000
0000
0000
,  // measure 32
0001
0001
0000
0001
,  // measure 33
1000
1000
0000
1000
,  // measure 34
0001
0001
0000
0100
,  // measure 35
0010
0010
0000
0100
,  // measure 36
1001
0000
0000
0000
,  // measure 37
0010
0000
0000
0000
,  // measure 38
0000
0100
0000
0100
,  // measure 39
1001
0000
0000
0000
,  // measure 40
0010
0010
0010
0000
,  // measure 41
0010
0000
0000
0000
,  // measure 42
1000
1000
1000
0000
,  // measure 43
1000
0000
0000
0000
,  // measure 44
0100
0100
0100
0000
,  // measure 45
0100
0000
0000
0000
,  // measure 46
0001
0001
0001
0000
,  // measure 47
0001
0000
0000
0000
,  // measure 48
0010
0010
0010
0010
,  // measure 49
0010
0000
0000
0000
,  // measure 50
1000
1000
1000
1000
,  // measure 51
1000
0000
0000
0000
,  // measure 52
0001
0001
0001
0001
,  // measure 53
0001
0000
0000
0000
,  // measure 54
0100
0100
0100
0100
,  // measure 55
0100
0000
0000
0000
,  // measure 56
0010
0010
0010
0010
,  // measure 57
0010
0000
0000
0000
,  // measure 58
1000
0000
0001
0000
,  // measure 59
1000
0000
0001
1001
;
