#TITLE:Last Message;
#SUBTITLE:;
#ARTIST:good-cool feat. Meg;
#TITLETRANSLIT:;
#SUBTITLETRANSLIT:;
#ARTISTTRANSLIT:;
#GENRE:;
#CREDIT:;
#BANNER:Last Message.png;
#BACKGROUND:Last Message-bg.png;
#LYRICSPATH:;
#CDTITLE:Beatmania IIDX.png;
#MUSIC:Last Message.ogg;
#OFFSET:0.000000;
#SAMPLESTART:40.221001;
#SAMPLELENGTH:15.000000;
#SELECTABLE:YES;
#DISPLAYBPM:155.000000;
#BPMS:0.000000=155.009995
;
#STOPS:
;
#BGCHANGES:0.000=Last Message.avi=1.000=1=0=0=StretchNoLoop==CrossFade==,
99999.000=-nosongbg-=1.000=0=0=0=StretchNoLoop====,
99999=-nosongbg-=1.000=0=0=0 // don't automatically add -songbackground-
;
#KEYSOUNDS:;
#ATTACKS:;

//---------------dance-single - ----------------
#NOTES:
     dance-single:
     :
     Beginner:
     3:
     0.172809,0.217073,0.020503,0.000000,0.000000,118.000000,116.000000,2.000000,0.000000,0.000000,0.000000,0.172809,0.217073,0.020503,0.000000,0.000000,118.000000,116.000000,2.000000,0.000000,0.000000,0.000000:
0000
0000
0000
0000
,
0000
0000
0000
0000
,
0000
0000
0000
0000
,
0000
0000
0000
0000
,
0000
0000
0000
0000
,
0000
0000
0000
0000
,
1000
0000
0001
0000
,
1000
0000
0001
0000
,
0001
0000
1000
0000
,
0010
0000
0100
0000
,
0001
0000
0000
0000
,
1000
0000
0000
0000
,
0010
0000
1000
0000
,
0001
0000
0100
0000
,
0010
0000
0000
0000
,
1000
0000
0001
0000
,
0100
0000
0000
0000
,
1000
1000
1000
0000
,
0001
0000
0000
0000
,
0001
0000
0000
0000
,
1000
1000
1000
0000
,
0010
0010
0000
0000
,
1001
0000
0000
0000
,
0110
0000
0000
0000
,
0010
0010
0010
0010
,
0010
0000
0000
0000
,
0100
0000
0001
0000
,
1000
0000
0010
0000
,
1000
1000
1000
0000
,
0001
0001
0001
0000
,
1000
0000
0100
0000
,
0010
0000
0001
0000
,
0001
0000
1000
0000
,
0010
0000
0100
0000
,
0001
0000
0000
0000
,
1000
0000
0000
0000
,
0010
0000
0100
0100
,
0100
0000
0001
0001
,
0001
0000
1000
1000
,
1000
0000
0010
0010
,
0010
0000
0100
0100
,
0100
0000
0001
0001
,
0001
0000
1000
1000
,
1000
0000
0010
0000
,
1000
0000
0001
0000
,
1000
0000
0001
0000
,
0001
0001
0001
0000
,
0100
0100
0100
0000
,
0001
0000
1000
0000
,
0001
0000
1000
0000
,
1000
1000
1000
0000
,
0100
0100
0100
0000
,
1000
0000
0001
0000
,
0001
0000
1000
0000
,
1000
0000
1000
0000
,
1000
1000
0000
0000
,
0010
0000
0100
0000
,
1000
0000
0010
0000
,
0001
0000
0100
0000
,
0010
0000
1000
0000
,
0001
0000
0100
0000
;

//---------------dance-single - ----------------
#NOTES:
     dance-single:
     :
     Easy:
     6:
     0.237246,0.343228,0.123016,0.000000,0.000000,162.000000,150.000000,12.000000,0.000000,0.000000,0.000000,0.237246,0.343228,0.123016,0.000000,0.000000,162.000000,150.000000,12.000000,0.000000,0.000000,0.000000:
0000
0000
0000
0000
,
0000
0000
0000
0000
,
0000
0000
0000
0000
,
0000
0000
0000
0000
,
0000
0000
0000
0000
,
0000
0000
0000
0000
,
0010
0000
0001
0000
,
0010
0000
1000
0000
,
0001
0000
1000
0000
,
0110
0000
1001
0000
,
1000
0100
0001
0100
,
1000
0100
0001
0100
,
0010
0000
1000
0100
,
0001
0100
1000
0100
,
0010
0000
0000
0000
,
0001
0100
0001
1000
,
0010
0000
0000
0000
,
1000
0100
0010
0001
,
1000
0000
0000
0000
,
0100
0000
0000
0000
,
0010
0010
0010
0010
,
0100
0100
0100
0100
,
1001
0000
0000
0000
,
0110
0000
0000
0000
,
0010
0010
0010
0010
,
1001
0110
0001
1000
,
0001
0000
0000
0000
,
0000
1000
0000
0001
0000
0000
0000
0000
,
0010
0010
0010
0010
,
1001
0110
1000
0001
,
1000
0000
0000
0000
,
0000
0001
0000
1000
0000
0000
0000
0000
,
0001
0001
1000
1000
,
0010
0010
0100
0100
,
0001
0000
0000
0000
,
1000
0000
0000
0000
,
0010
0000
0000
0000
,
0100
0000
0000
0000
,
0001
0000
0000
0000
,
1000
0000
0000
0000
,
0010
0000
0000
0000
,
0100
0000
0000
0000
,
0001
0000
0000
0000
,
0010
0010
0010
0010
,
1000
0100
0001
0100
,
1000
0100
0001
0100
,
0001
0001
0001
0001
,
0100
0100
0100
0100
,
0001
0100
1000
0100
,
0001
0100
1000
0100
,
1000
1000
1000
1000
,
0100
0100
0100
0100
,
1001
0110
0001
1000
,
0001
0000
1000
0100
,
0000
0000
0000
0000
,
1000
1000
0100
0100
,
1001
0110
1000
0001
,
1000
0000
0010
0010
,
0001
0100
1000
0100
,
0001
0001
0100
0100
,
0001
0000
1000
0000
0000
0001
0000
0100
;

//---------------dance-single - ----------------
#NOTES:
     dance-single:
     :
     Medium:
     8:
     0.345617,0.436836,0.153770,0.266535,0.000000,236.000000,221.000000,15.000000,26.000000,0.000000,0.000000,0.345617,0.436836,0.153770,0.266535,0.000000,236.000000,221.000000,15.000000,26.000000,0.000000,0.000000:
0000
0000
0000
0000
,
0000
0000
0000
0000
,
0000
0000
0000
0000
,
0000
0000
0000
0000
,
0000
0000
0000
0000
,
0000
0000
0000
0000
,
0010
1000
0001
0100
,
0001
0100
0001
1000
,
0001
0100
0001
0100
,
0010
0000
1000
0000
0010
1000
0000
0001
,
1000
0100
0001
0010
,
0100
1000
0010
1000
,
0002
1000
1000
1003
,
0200
0010
0310
1001
,
0001
1000
0001
1000
,
0010
0100
0010
0100
,
1000
0010
0100
0001
,
0110
0110
1001
1001
,
2000
3010
0020
0130
,
0200
0301
0002
1003
,
1000
0100
0010
0001
,
2000
0000
3000
0001
,
0220
0000
0000
0330
,
2002
0000
0000
3003
,
0010
0010
0010
0010
,
0001
1000
0000
0001
0000
0200
0000
0300
,
0010
1000
0010
0010
,
1000
0001
0000
0100
0000
0000
0000
0000
,
0010
1000
0010
0100
,
0001
0000
0100
0000
0001
0100
1000
0000
,
2000
0100
0100
3100
,
0100
0010
0000
1000
0000
0000
0000
0000
,
0001
0001
1000
1000
,
0001
0000
0001
0000
1000
0001
0000
1000
,
0001
0000
0100
0000
0000
0010
0000
0200
,
0000
0000
0000
0000
0300
0001
0000
1000
,
0100
0100
0100
0100
,
0100
0100
0100
0100
,
1000
1000
1000
1000
,
1000
1000
1000
1000
,
0001
0001
0001
0001
,
0001
0001
0001
0001
,
0010
0010
0010
0010
,
0010
0001
0100
1001
,
0020
1000
0100
1030
,
2000
0001
0100
3001
,
0020
0000
1030
2000
0000
3001
0002
0000
,
0103
0200
0000
0310
0010
0000
1001
0000
,
1000
0100
0001
0000
1000
0100
0001
0000
,
0001
0100
1000
0000
0001
0100
1000
0000
,
0002
0000
0103
0200
0000
0310
0020
0000
,
1030
2000
0000
3001
0001
0000
0110
0000
,
0110
1001
0001
1000
,
0010
1000
0001
0010
,
0000
0001
1000
0000
0001
0100
0000
0001
,
0000
1000
2000
0000
3000
0000
1001
0000
,
1001
0110
1000
0001
,
2000
0010
0001
3010
,
0001
0100
1000
0100
,
0001
0000
0010
0000
0100
1000
0000
0001
,
0001
0000
1000
0000
0010
1000
0000
0100
;

//---------------dance-single - ----------------
#NOTES:
     dance-single:
     :
     Hard:
     11:
     0.494994,0.561647,0.307541,0.194776,0.000000,338.000000,308.000000,30.000000,19.000000,0.000000,0.000000,0.494994,0.561647,0.307541,0.194776,0.000000,338.000000,308.000000,30.000000,19.000000,0.000000,0.000000:
0000
0000
0000
0000
,
0000
0000
0000
0000
,
0000
0000
0000
0000
,
0000
0000
0000
0000
,
0000
0000
0000
0000
,
0000
0000
0000
0000
,
1000
0100
0010
0000
0100
0000
0011
0000
,
1000
0100
0010
0100
1000
0001
0100
0000
,
1000
0010
0100
0000
0010
0000
0101
0000
,
1000
0100
1000
0001
0010
0000
1001
0000
,
0100
0000
0001
0000
0100
0010
1000
0000
,
0100
0000
1000
0000
0100
0010
0001
0000
,
0100
0000
0010
0000
0100
0001
1000
0000
,
0100
0000
0010
0000
0100
1000
0001
1000
,
0010
0000
0100
0000
0010
1000
0010
0000
,
0100
0000
0010
0000
0100
0001
0100
0000
,
0001
0000
0010
0000
0100
0010
0001
0000
,
1000
0000
0010
0000
0100
0010
1000
0001
,
0020
0001
0100
0031
,
2000
0010
0001
3010
,
0200
0010
1000
0310
,
0002
0100
1000
0103
,
2000
0000
3100
0000
0100
0010
0000
1000
,
0002
0100
0003
0100
0000
0010
0000
0001
,
1000
0100
1000
0000
0110
0000
0011
0000
,
0100
0100
0000
0010
0000
1001
0000
0000
,
1200
0010
1300
0110
,
0021
0100
0031
0110
,
1000
0100
0010
0000
0001
0100
0000
0001
,
0000
1000
0100
0000
0011
0000
1001
0000
,
0201
0010
0301
0110
,
1020
0100
1030
0110
,
0001
0100
0010
0000
1000
0100
0000
1000
,
0000
0001
0100
0000
0010
1000
0000
1001
,
0000
0000
0110
0100
0000
0010
0000
1001
,
1000
1000
0001
0001
0000
0100
0000
0110
,
0010
0001
0010
0001
0010
0001
0010
0001
,
0010
1000
0010
1000
0010
1000
0010
1000
,
0100
1000
0100
1000
0100
1000
0100
1000
,
0100
0010
0100
0010
0100
0010
0100
0010
,
0001
0010
0001
0010
0001
0010
0001
0010
,
0001
1000
0001
1000
0001
1000
0001
1000
,
0100
1000
0100
1000
0100
1000
0100
1000
,
0100
0010
0100
0010
0100
0010
0110
0000
,
0010
0010
0001
0001
1000
1000
0100
0010
,
0000
0100
0010
0001
0100
0010
0100
0000
,
0002
0000
0103
0020
0000
1030
0200
0000
,
0310
0002
0000
1003
0010
0000
0110
0000
,
0010
0010
1000
1000
0001
0001
0100
0010
,
0000
0100
0010
1000
0100
0010
0100
0000
,
2000
0000
3100
0020
0000
0031
0200
0000
,
0310
2000
0000
3001
0010
0000
0110
0000
,
1000
0100
0010
0000
0100
0000
0011
0000
,
1000
0100
0010
0100
1000
0001
0100
0000
,
1000
0010
0100
0000
0010
0000
0101
0000
,
1000
0100
1000
0001
0010
0000
1001
0000
,
0001
0010
0100
0000
0010
0000
1100
0000
,
0001
0010
0100
0010
0001
1000
0010
0000
,
0001
0100
0010
0000
0100
0000
1010
0000
,
0001
0010
0001
1000
0100
0010
0000
1001
,
0200
0000
0000
0000
0300
0010
0000
1001
;

//---------------dance-single - ----------------
#NOTES:
     dance-single:
     :
     Challenge:
     15:
     0.726382,0.812933,0.379300,0.317792,0.579202,496.000000,459.000000,37.000000,31.000000,0.000000,0.000000,0.726382,0.812933,0.379300,0.317792,0.579202,496.000000,459.000000,37.000000,31.000000,0.000000,0.000000:
// measure 0
0000
0000
0000
0000
,  // measure 1
0000
0000
0000
0000
,  // measure 2
0000
0000
0000
0000
,  // measure 3
0000
0000
0000
0000
,  // measure 4
0000
0000
0000
0000
,  // measure 5
0000
0000
0000
0000
,  // measure 6
1000
1001
0000
0012
0000
0100
0203
0000
,  // measure 7
0301
0010
0100
1000
0010
0100
0001
1000
0100
0010
0100
0001
0100
1000
0010
0100
,  // measure 8
0001
1000
0000
0000
0001
0000
0100
0001
0000
0010
0000
0100
1000
0000
0100
0000
,  // measure 9
1000
0001
0100
0000
0001
1000
0001
0010
0000
0000
0110
0000
0000
0000
1001
0000
,  // measure 10
1001
0000
1000
0100
0000
0000
0010
0000
0001
0000
0100
0000
0010
0000
1000
0000
,  // measure 11
0100
0010
0001
0100
0010
0001
0010
0100
,  // measure 12
0010
0000
1000
0001
0000
0000
0010
0000
0001
0000
0010
0000
1000
0000
0010
0000
,  // measure 13
0100
0000
0001
0000
0010
0001
0000
0001
1000
0010
1000
0000
0001
0100
0001
0200
,  // measure 14
0000
0000
0000
0310
0100
0000
0010
0000
1000
0000
0100
0000
0010
0000
0100
0000
,  // measure 15
0010
0001
0100
1000
0100
0010
0100
0001
,  // measure 16
1000
0000
1000
0010
0000
0000
0100
0000
0001
0000
0010
0000
1000
0000
0010
0000
,  // measure 17
0001
0100
0000
0100
0001
0010
0001
0000
1000
0100
1000
0100
0010
0001
0010
0001
,  // measure 18
2000
0000
0010
0000
0100
0100
0000
0001
,  // measure 19
3002
0000
0023
0000
2030
0000
3010
0001
,  // measure 20
1001
0000
0210
0000
0000
0302
0000
2003
,  // measure 21
0001
0000
3001
0020
0000
0031
1000
0100
,  // measure 22
0010
1000
0010
0001
0100
0001
0100
1000
,  // measure 23
0100
0010
0100
0010
1000
0001
0010
0100
,  // measure 24
1000
0000
0010
0000
0001
0000
0010
0000
1000
0000
0100
0000
0010
0001
0010
0000
,  // measure 25
0011
0011
0000
1001
0000
0120
0000
0000
,  // measure 26
1030
0000
0000
1000
0010
0000
0100
0000
0001
0000
0001
0000
0001
0000
0001
0000
,  // measure 27
0000
0011
0000
1001
0000
1000
0100
0010
,  // measure 28
0001
0010
0000
0010
0100
0000
1000
0000
1000
0100
0000
0100
0001
0000
0100
0000
,  // measure 29
1000
0100
1000
0000
0001
0100
0001
0000
1000
0100
0010
0001
0100
0010
1000
0100
,  // measure 30
1000
0000
0000
1000
0001
0000
0100
0000
0010
0000
0010
0000
0010
0000
0010
0000
,  // measure 31
0000
1001
0000
0110
0000
0010
1000
0001
,  // measure 32
0010
0001
0000
0001
0100
0000
0010
0000
1000
0100
0000
0100
0010
0000
0001
0000
,  // measure 33
1000
0001
1000
0010
0100
0001
0010
0001
0000
0000
0011
0000
0000
0000
1001
0000
,  // measure 34
1000
0100
0010
0000
0001
0010
1000
0000
0000
0000
0101
0000
0000
0000
0011
0000
,  // measure 35
0001
0010
0100
1000
0100
0000
1100
0000
1000
0001
1000
0000
0000
0001
0010
0000
,  // measure 36
0011
0000
0001
0100
0000
0000
0010
0000
0000
1000
0100
0000
0000
0000
1000
0000
,  // measure 37
0000
0000
0001
1000
0000
0000
0010
0000
0000
0100
0001
0000
0010
0000
0001
0000
,  // measure 38
1000
0000
1000
0100
0000
0000
0010
0000
0000
0010
0001
0000
0000
0000
0100
0000
,  // measure 39
0000
0000
0001
1000
0001
0000
1000
0000
0000
1000
0100
0010
0001
0010
0001
0000
,  // measure 40
1000
0000
0001
0100
0000
0000
0001
0000
0000
0010
0001
0000
0000
0000
1000
0000
,  // measure 41
0100
0000
0010
0001
0000
0000
0010
0000
0000
0001
0100
0000
0010
0000
1000
0000
,  // measure 42
0100
0000
1000
0001
0000
0000
0100
0000
0000
0010
1000
0000
0010
0000
0100
0000
,  // measure 43
0001
0000
0010
0001
0010
0100
1000
0000
1000
0100
0001
0100
0001
0100
0001
0000
,  // measure 44
1100
1000
0100
0100
0010
0010
0001
0012
,  // measure 45
0000
0000
2003
0000
0001
0000
3002
0000
0100
0000
0103
0000
0110
0000
1000
0001
,  // measure 46
0200
0000
0310
2000
0000
3100
0020
0000
,  // measure 47
0031
0200
0000
0301
1000
0100
2100
0000
,  // measure 48
3010
0010
1000
1000
0001
0001
0100
0120
,  // measure 49
0000
0000
1030
0100
0010
0000
0002
0000
1000
0000
1000
0000
1003
0000
0100
0010
,  // measure 50
0002
0000
0013
0200
0000
1300
0002
0000
,  // measure 51
1003
0000
0020
0000
0000
0000
0130
0000
0010
1000
0010
0000
0100
0001
0100
1000
,  // measure 52
0100
0110
0000
1002
0000
0100
0203
0000
,  // measure 53
0301
1000
0100
0010
0001
0100
0010
1000
0100
0001
0100
1000
0010
0100
0001
0010
,  // measure 54
0001
0000
0100
0000
0100
0000
0000
0000
0001
0000
1000
0010
0000
1000
0010
0000
,  // measure 55
0000
0000
0110
0000
0000
0000
0100
0000
0001
0100
1000
0100
0002
0000
0000
0000
,  // measure 56
0103
0101
0000
2001
0000
0010
3020
0000
,  // measure 57
1030
0100
0010
0001
0100
0010
1000
0001
0010
0001
0100
0010
1000
0100
0010
0100
,  // measure 58
1000
0010
0000
0000
0100
0000
0001
0010
0000
0100
0000
1000
0100
0000
1000
0000
,  // measure 59
0001
0010
0001
0000
1000
0100
0010
0001
0000
0000
0011
0000
0000
0000
1001
0000
,  // measure 60
1100
0000
1000
0100
0001
0000
1100
0000
0000
0000
1001
0000
0000
0000
0010
0000
,  // measure 61
0110
0000
0000
0000
;

//---------------dance-double - ----------------
#NOTES:
     dance-double:
     :
     Easy:
     5:
     0.243104,0.343228,0.164022,0.000000,0.000000,166.000000,150.000000,16.000000,0.000000,0.000000,0.000000,0.243104,0.343228,0.164022,0.000000,0.000000,166.000000,150.000000,16.000000,0.000000,0.000000,0.000000:
00000000
00000000
00000000
00000000
,
00000000
00000000
00000000
00000000
,
00000000
00000000
00000000
00000000
,
00000000
00000000
00000000
00000000
,
00000000
00000000
00000000
00000000
,
00000000
00000000
00000000
00000000
,
00100000
00000000
00001000
00000000
,
00010000
00000000
00000100
00000000
,
00000001
00000000
00000100
00000000
,
00011000
00000000
10010000
00000000
,
10000000
01000000
00010000
00001000
,
00000100
00000001
00001000
00000010
,
00001000
00000000
00010000
01000000
,
10000000
01000000
00010000
00100000
,
00010000
00000000
00000000
00000000
,
00011000
00000100
00000001
00001000
,
00000100
00000000
00000000
00000000
,
10000000
01000000
00100000
00010000
,
10000000
00000000
00000000
00000000
,
00000100
00000000
00000000
00000000
,
00100000
00100000
00010000
00010000
,
00001000
00001000
00000100
00000100
,
00001001
00000000
00000000
00000000
,
01100000
00000000
00000000
00000000
,
00000010
00000010
00000100
00000100
,
00011000
00010000
01100000
10000000
,
00010000
00000000
00000000
00000000
,
00000000
10000000
00000000
00010000
00000000
00000000
00000000
00000000
,
00100000
00100000
01000000
01000000
,
00011000
00001000
00000110
00000001
,
00001000
00000000
00000000
00000000
,
00000000
00000001
00000000
00001000
00000000
00000000
00000000
00000000
,
00010000
00010000
01000000
01000000
,
00010000
00010000
00001000
00001000
,
00010000
00000000
00000000
00000000
,
10010000
00000000
00000000
00000000
,
00000100
00000000
00000000
00000000
,
01100000
00000000
00000000
00000000
,
00010000
00000000
00000000
00000000
,
00000001
00000000
00000000
00000000
,
00100000
00000000
00000000
00000000
,
00000100
00000000
00000000
00000000
,
00010000
00000000
00000000
00000000
,
00000010
00000010
00000100
00000100
,
00010000
01000000
00010000
00000100
,
00000001
00001000
00010100
01000000
,
10000000
10000000
10000000
10000000
,
01000000
01000000
00010000
00010000
,
00001000
00000100
00000001
00001000
,
00000100
00010000
01000000
10000000
,
00010000
00010000
00010000
00010000
,
00001000
00001000
00001000
00001000
,
00010000
00011000
00000100
00001001
,
00000100
00000000
00001000
00000010
,
00000000
00000000
00000000
00000000
,
10000000
10000000
01000000
01000000
,
00011000
00001000
00000110
00001000
,
00000001
00000000
00100000
00100000
,
00010000
01000000
10000000
01000000
,
00010000
00010000
00001000
00001000
,
00010000
00000000
10000000
00000000
00000000
00010000
00000000
01000000
;

//---------------dance-double - ----------------
#NOTES:
     dance-double:
     :
     Medium:
     7:
     0.320721,0.405634,0.174273,0.276787,0.000000,219.000000,202.000000,17.000000,27.000000,0.000000,0.000000,0.320721,0.405634,0.174273,0.276787,0.000000,219.000000,202.000000,17.000000,27.000000,0.000000,0.000000:
00000000
00000000
00000000
00000000
,
00000000
00000000
00000000
00000000
,
00000000
00000000
00000000
00000000
,
00000000
00000000
00000000
00000000
,
00000000
00000000
00000000
00000000
,
00000000
00000000
00000000
00000000
,
00000100
00010000
00001000
01000000
,
00010000
10000000
00100000
00010000
,
00001000
01000000
00001000
00010000
,
00010100
00000000
00011000
00000000
,
00001000
00010000
01000000
10000000
,
00010000
10000000
00100000
10000000
,
00020000
00030000
00100000
00001000
,
00010000
00000100
00001000
00000010
,
00002000
00003000
00000200
00010300
,
00001000
00010000
00100000
01000000
,
20000000
30000000
02000000
03000000
,
10000000
00010000
00100000
00001000
,
00020000
00001000
00000100
00031000
,
00002000
00010000
00100000
00013000
,
01000000
10000000
00010000
10000000
,
00100000
00100000
00010000
00010000
,
00002000
00010000
01000000
00013000
,
00000200
00000010
00001000
00000310
,
00000001
00000001
00000100
00000100
,
00000110
00000000
00000000
00010010
00000000
00011000
00000000
00000000
,
00020000
00000000
00100000
00130000
,
00000000
01000000
00000000
00001000
00000000
00000000
00010000
00000000
,
00000100
00000100
00000010
00000010
,
00001001
00000100
00001000
00010000
,
00002000
00000000
01000000
01003000
,
00000000
00100000
00000000
10000000
00000000
00000000
00010000
00000000
,
10000000
10000000
01000000
01000000
,
00010000
00010000
00001000
00001000
,
00000010
00000000
00000100
00000000
00001000
00000001
00000000
00001000
,
00000010
00000000
00000100
00000000
00000001
00001000
00000000
00000001
,
00000200
00000000
00001000
00001000
,
00002300
00000000
00010000
00010000
,
00023000
00000000
00100000
00100000
,
00230000
00000000
10000000
10000000
,
20300000
00000000
01000000
01000000
,
32000000
00000000
00010000
00010000
,
03020000
00000000
00001000
00001000
,
00031000
00000010
00000001
00001001
,
00000100
00001000
00000100
00000010
,
00010000
00001000
00100000
01100000
,
02000000
00000000
03000000
00020000
00000000
00030000
00002000
00000000
,
00003000
00000020
00000000
00000030
00000001
00000000
00001001
00000000
,
00000010
00001000
00000010
00000100
,
00010000
00001000
01000000
01100000
,
00200000
00000000
00300000
00020000
00000000
00030000
00002000
00000000
,
00003000
00000200
00000000
00000300
00000001
00000000
00001001
00000000
,
00000100
00001000
00010000
00011000
,
00010000
00100000
10000000
00100000
,
10000000
01000000
00010000
01010000
,
00010000
00001000
00010000
00000000
00000100
00000000
00000110
00000000
,
00000010
00001000
00010000
00011000
,
00010000
01000000
10000000
01000000
,
10000000
00100000
00010000
00110000
,
00010000
00001000
00010000
00000000
00000010
00000100
00000000
00000010
,
00002000
00000000
00000000
00000000
00003000
00000100
00000000
00000011
;

//---------------dance-double - ----------------
#NOTES:
     dance-double:
     :
     Hard:
     11:
     0.493530,0.561647,0.307541,0.194776,0.000000,337.000000,307.000000,30.000000,19.000000,0.000000,0.000000,0.493530,0.561647,0.307541,0.194776,0.000000,337.000000,307.000000,30.000000,19.000000,0.000000,0.000000:
00000000
00000000
00000000
00000000
,
00000000
00000000
00000000
00000000
,
00000000
00000000
00000000
00000000
,
00000000
00000000
00000000
00000000
,
00000000
00000000
00000000
00000000
,
00000000
00000000
00000000
00000000
,
10000000
01000000
00010000
00000000
00001000
00000000
00000110
00000000
,
00000001
00000100
00001000
00000000
00000100
00010000
00001000
00000000
,
00010000
01000000
00100000
00000000
00010000
00000000
01100000
00000000
,
01000000
10000000
01000000
00010000
00001000
00000000
00010100
00000000
,
00000010
00000000
00000001
00000000
00000100
00001000
00000100
00000000
,
00000010
00000000
00001000
00000000
00000100
00010000
00001000
00000000
,
00010000
00000000
01000000
00000000
10000000
00010000
10000000
00000000
,
00100000
00000000
00010000
00000000
00001000
00000100
00000010
00001000
,
00000100
00000000
00000010
00000000
00000001
00000100
00000001
00000000
,
00000100
00000000
00001000
00000000
00010000
00001000
00010000
00000000
,
00001000
00000000
01000000
00000000
00100000
01000000
00010000
00000000
,
10000000
00000000
00100000
00000000
10000000
01000000
00100000
00001000
,
00020000
00001000
00000100
00031000
,
00000200
00000010
00000001
00000310
,
00002000
00000100
00000001
00003100
,
00020000
00001000
00000100
00031000
,
00200000
00000000
01300000
00000000
10000000
00010000
00000000
01000000
,
00200000
01000000
00300000
00001000
00000000
00010000
00000000
00000100
,
00001000
00000001
00001000
00000000
00001010
00000000
00000110
00000000
,
00000001
00000001
00000000
00000100
00000000
00001010
00000000
00000000
,
00000102
00001000
00000103
00000110
,
00000201
00000010
00001300
00011000
,
00100000
01000000
00100000
00000000
10000000
01000000
00000000
00100000
,
00000000
00001000
00010000
00000000
00011000
00000000
00001100
00000000
,
00000021
00000100
00000031
00001001
,
00001200
00000010
00001300
00011000
,
00001000
01000000
00100000
00000000
10000000
01000000
00000000
00100000
,
00000000
00001000
00010000
00000000
00000100
00000010
00000000
00000110
,
00000000
00000000
00001001
00001000
00000000
00000001
00000000
00000101
,
00000100
00000100
00001000
00001000
00000000
00000100
00000000
00000110
,
00000100
00001000
00000100
00001000
00000100
00001000
00000100
00001000
,
00010000
00001000
00010000
00001000
00010000
00001000
00010000
00001000
,
00010000
00100000
00010000
00100000
00010000
00100000
00010000
00100000
,
10000000
00100000
10000000
00100000
10000000
00100000
10000000
00100000
,
10000000
01000000
10000000
01000000
10000000
01000000
10000000
01000000
,
00010000
01000000
00010000
01000000
00010000
01000000
00010000
01000000
,
00010000
00001000
00010000
00001000
00010000
00001000
00010000
00001000
,
00000010
00001000
00000010
00001000
00000010
00001000
00000110
00000000
,
00000010
00000001
00000001
00001000
00001000
00000010
00000100
00000010
,
00000000
00000100
00001000
00010000
00001000
00010000
01000000
00000000
,
00200000
00000000
01300000
00020000
00000000
00031000
00000020
00000000
,
00000130
00002000
00000000
00003001
00000100
00000000
00000110
00000000
,
00000100
00000001
00000001
00001000
00001000
00000100
00000010
00000100
,
00000000
00000010
00001000
00010000
00001000
00010000
00100000
00000000
,
02000000
00000000
03100000
00020000
00000000
00031000
00000200
00000000
,
00000310
00002000
00000000
00003001
00000010
00000000
00000110
00000000
,
00000100
00000001
00000100
00000000
00001000
00000000
00001100
00000000
,
00010000
00001000
00010000
00000100
00000010
00000001
00001000
00000000
,
00000010
00010000
00001000
00000000
00010000
00000000
00011000
00000000
,
01000000
00010000
01000000
00100000
01000000
00000000
01100000
00000000
,
01000000
10000000
01000000
00000000
00010000
00000000
01010000
00000000
,
00001000
00010000
00001000
01000000
00100000
10000000
00010000
00000000
,
00100000
00001000
00010000
00000000
00001000
00000000
00011000
00000000
,
00000100
00001000
00000100
00000010
00000100
00000010
00000000
00000011
,
00002000
00000000
00000000
00000000
00003000
00000100
00000000
00011000
;

//---------------dance-double - ----------------
#NOTES:
     dance-double:
     :
     Challenge:
     15:
     0.726382,0.812933,0.338295,0.164022,0.553574,496.000000,463.000000,33.000000,16.000000,0.000000,0.000000,0.726382,0.812933,0.338295,0.164022,0.553574,496.000000,463.000000,33.000000,16.000000,0.000000,0.000000:
00000000
00000000
00000000
00000000
,
00000000
00000000
00000000
00000000
,
00000000
00000000
00000000
00000000
,
00000000
00000000
00000000
00000000
,
00000000
00000000
00000000
00000000
,
00000000
00000000
00000000
00000000
,
10000000
00010000
00000000
00100000
00001000
00001000
00001000
00000000
,
00010000
00001000
00010000
00001000
00000010
00000001
00000010
00000001
00001000
00000100
00001000
00000100
00000010
00000001
00000100
00000010
,
00001000
00000010
00000000
00000000
00000100
00000000
00000010
00010000
00000000
00001000
00000000
00010000
00001000
00000000
00010000
00000000
,
00001000
00010000
00001000
00000000
00100000
00001000
00100000
00010000
00000000
00000000
10010000
00000000
00000000
00000000
01100000
00000000
,
10010000
00000000
00000000
10000000
01000000
00000000
00100000
00000000
00010000
00000000
00100000
00000000
00001000
00000000
00010000
00000000
,
00000100
00000000
00001000
00000100
00000000
00000000
00001000
00000000
00000010
00000000
00000001
00000000
00000010
00000000
00001000
00000000
,
00001100
00000000
00000000
00000100
00010000
00000000
00001000
00000000
01000000
00000000
10000000
00000000
01000000
00000000
00100000
00000000
,
10000000
00000000
00100000
00000000
01000000
00010000
01000000
00100000
00000000
10000000
00010000
00000000
00100000
00010000
00100000
00001000
,
00000000
00000000
00000000
00010000
00001000
00000000
00000100
00000000
00000010
00000000
00000100
00000000
00000001
00000000
00001000
00000000
,
00000100
00000000
00001000
00000001
00000000
00000000
00000010
00000000
00000100
00000000
00000010
00000000
00001000
00000000
00000100
00000000
,
00010000
00000000
00000000
00010000
00001000
00000000
00100000
00000000
00010000
00000000
10000000
00000000
01000000
00000000
00100000
00000000
,
00010000
10000000
00010000
00000000
10000000
01000000
00100000
00000000
00010000
01000000
00010000
01000000
00100000
10000000
00010000
01000000
,
00001000
00000000
00000000
00001000
00020000
00000000
00000000
00000000
00001000
00000000
00001000
00000000
00000000
00000000
00030100
00000000
,
00002000
00000000
00000010
00000000
00010000
00000000
00000100
00003200
,
00000000
00001300
00000002
00000000
00000000
00000203
00000000
00000310
,
00001000
00000000
00001000
00000200
00000000
00010300
00001000
01000000
,
00100000
00000000
10000000
01000000
00100000
00010000
00100000
01000000
,
00000000
10000000
00010000
00100000
00001000
00010000
00001000
00000100
,
00000001
00000000
00000000
00000000
00001000
00000000
00000100
00000000
00000010
00000000
00000100
00000000
00001000
00000001
00001000
00000000
,
00001100
00001100
00000000
00010100
00000000
00012000
00000000
00000000
,
00013000
00000000
00000000
00010000
00001000
00000000
01000000
00000000
00100000
00000000
00100000
00000000
00100000
00000000
00100000
00000000
,
00000000
10010000
00000000
01010000
00000000
00100000
00001000
00010000
,
00000100
00001000
00000000
00001000
00000100
00000000
00001000
00000000
00000001
00001000
00000000
00001000
00000001
00000000
00000010
00000000
,
00000001
00000010
00000001
00000000
00001000
00000100
00001000
00000000
00000010
00000100
00000010
00000100
00000001
00001000
00000001
00001000
,
00000100
00000000
00000000
00010000
00000100
00000000
00001000
00000000
00000100
00000000
00000100
00000000
00000100
00000000
00000100
00000000
,
00000000
00010100
00000000
00011000
00000000
00001000
01000000
00100000
,
10000000
01000000
00000000
01000000
00100000
00000000
01000000
00000000
00010000
01000000
00000000
01000000
10000000
00000000
01000000
00000000
,
10000000
00010000
10000000
00100000
01000000
00010000
00100000
00010000
00000000
00000000
01010000
00000000
00000000
00000000
00110000
00000000
,
00100000
00001000
00010000
00000000
00010000
00000010
00000100
00000000
00000000
00000000
00001001
00000000
00000000
00000000
00000110
00000000
,
00000010
00001000
00000100
00001000
00000100
00000000
00010100
00000000
00010000
00001000
01000000
00000000
00000000
00000000
01100000
00000000
,
10010000
00000000
00000000
10000000
01000000
00000000
00100000
00000000
01000000
00000000
10000000
00000000
00010000
00000000
00100000
00000000
,
00001000
00000000
00000000
00001000
00010000
00000000
00000100
00000000
00000010
00000000
00000001
00000000
00000010
00000000
00000100
00000000
,
00010000
00000000
00000000
00010000
00000010
00000000
00000100
00000000
00000001
00000000
00001000
00000000
00000100
00000000
00000000
00000100
,
00010000
00000000
00001000
00010000
00001000
00000000
01000000
00000000
00100000
00000000
10000000
01000000
10000000
01000000
00100000
00000000
,
00010000
00000000
00000000
00010000
00100000
00000000
00001000
00000000
00010000
00000000
00001000
00000000
00000100
00000000
00000001
00000000
,
00000100
00000000
00000000
00000100
00000010
00000000
00001000
00000000
00000100
00000000
00000010
00000000
00010000
00000000
00000010
00000000
,
00000001
00000000
00000000
00000001
00001000
00000000
00000100
00000000
00010000
00000000
00001000
00000000
00010000
00000000
01000000
00000000
,
10000000
00000000
00100000
10000000
00100000
10000000
00010000
00000000
00100000
00010000
00100000
00010000
00001000
00010000
00100000
00000000
,
00010000
00010000
10000000
10000000
01000000
01000000
00100000
00210000
,
00000000
00000000
00302000
00000000
00010000
00000000
00010000
00000000
00010000
00000000
00013000
00000000
00011000
00000000
00001000
00010000
,
00000020
00000000
00000100
00000100
00000000
00000001
00000001
00000000
,
00001000
00000000
00001000
00000000
00000000
00000000
00000100
00000000
00000130
00000000
00000000
00000000
00001001
00000000
00001000
00000100
,
00001000
00001000
00000010
00000010
00000100
00000100
00000001
00002001
,
00000000
00000000
00003200
00000000
00010000
00000000
00010000
00000000
00010000
00000000
00010300
00000000
00011000
00000000
00001000
01000000
,
00200000
00000000
10000000
10000000
00000000
00010000
00010000
00000000
,
01000000
00000000
01300000
00000000
00000000
00000000
10000000
00000000
00010000
00000000
00100000
00000000
00010000
01000000
00100000
01000000
,
00010000
00110000
00000000
00102000
00000000
00010000
00013000
00000000
,
00010000
00000010
00000100
00000010
00001000
00000100
00001000
00000001
00000010
00000100
00001000
00000100
00010000
00001000
00010000
00001000
,
01000000
00000000
00100000
00000000
00100000
00000000
00000000
00000000
10000000
00000000
00010000
00100000
00000000
00010000
00100000
00000000
,
00000000
01000000
00100000
00000000
00010000
00000000
10000000
00000000
00010000
00100000
01000000
00100000
00020000
00000000
00000000
00000000
,
00130000
00101000
00000000
00021000
00000000
00000100
00030100
00000000
,
00000100
00010000
00001000
00010000
00001000
00100000
01000000
10000000
01000000
00100000
01000000
00010000
01000000
00100000
00010000
10000000
,
01000000
00100000
00000000
00000000
00010000
00000000
00100000
00010000
00000000
00100000
00000000
00001000
00100000
00000000
00001000
00000000
,
00010000
00001000
00010000
00000000
00000100
00001000
00000100
00000010
00000000
00000000
00000011
00000000
00000000
00000000
00001001
00000000
,
00000100
00000000
00001000
00000100
00010000
00000000
00011000
00000000
00000000
00000000
01001000
00000000
00000000
00000000
00100000
00000000
,
10010000
00000000
00000000
00000000
;
