#TITLE:LOVE IS ORANGE;
#SUBTITLE:;
#ARTIST:Orange Lounge;
#TITLETRANSLIT:;
#SUBTITLETRANSLIT:;
#ARTISTTRANSLIT:;
#GENRE:;
#CREDIT:;
#BANNER:LOVE IS ORANGE.png;
#BACKGROUND:LOVE IS ORANGE-bg.png;
#LYRICSPATH:;
#CDTITLE:Beatmania IIDX.png;
#MUSIC:LOVE IS ORANGE.ogg;
#OFFSET:-5.450000;
#SAMPLESTART:48.122997;
#SAMPLELENGTH:15.000000;
#SELECTABLE:YES;
#BPMS:0.000000=180.000000
;
#STOPS:45.000000=0.675000,
91.000000=0.660000,
122.000000=0.330000
;
#BGCHANGES:;
#KEYSOUNDS:;
#ATTACKS:;

//---------------dance-single - ----------------
#NOTES:
     dance-single:
     :
     Beginner:
     4:
     0.177704,0.238946,0.077745,0.019436,0.000000,128.000000,120.000000,8.000000,2.000000,0.000000,0.000000,0.177704,0.238946,0.077745,0.019436,0.000000,128.000000,120.000000,8.000000,2.000000,0.000000,0.000000:
0000
0000
0000
0000
,
0000
0000
0000
0000
,
0000
0000
0000
0000
,
0000
0000
0000
0000
,
1000
1000
1000
0000
,
1000
0000
1000
0000
,
0001
0001
0001
0000
,
0001
0000
0001
0000
,
0100
0100
0100
0000
,
0100
0000
0100
0000
,
0010
0010
0010
0000
,
0020
0030
1001
0000
,
0100
0000
0100
0000
,
0000
0000
0010
0000
,
0010
0000
0010
0000
,
0000
0000
1001
0000
,
0010
0000
0010
0000
,
0000
0000
0100
0000
,
0100
0000
0100
0000
,
0000
0000
0001
0001
,
0001
0000
1000
1000
,
1000
0000
0010
0010
,
0010
0000
0200
0300
,
0110
0000
1000
0000
,
1000
0000
0000
0000
,
0001
0000
0001
0000
,
0001
0000
0000
0000
,
0110
0000
0001
0000
,
0001
0000
0000
0000
,
1000
0000
1000
0000
,
1000
0000
1001
0010
,
0010
0010
0000
0010
,
0000
0000
0000
0100
,
0100
0100
0000
0100
,
0000
0000
0000
0001
,
0001
0001
0000
0001
,
0000
0000
0000
1000
,
1000
1000
0000
1000
,
0000
0000
0000
0001
,
0000
0000
0000
0010
,
0000
0000
0000
0100
,
0000
0000
0000
1000
,
0000
0000
0000
0100
,
0000
0000
0000
0010
,
0000
0000
0000
0001
,
0000
0001
0000
1000
,
0000
1000
0000
1001
,
0000
0000
0000
0010
,
0000
0000
0000
0010
,
0000
0000
0000
0010
,
0000
0010
0000
1001
,
0000
0000
0000
0100
,
0000
0000
0000
0100
,
0000
0000
0000
0100
,
0000
0100
0000
0001
,
0000
0000
0000
0001
,
0000
0000
0000
1000
,
0000
0000
0000
1000
,
0000
0001
0000
1000
,
0000
0000
0000
1000
,
0000
0000
0000
0001
,
0000
0000
0000
0001
,
0000
1000
0000
0001
,
0001
0001
0000
0001
,
0001
0001
0000
1000
,
0000
1000
0000
1000
,
0000
0001
0000
1000
,
1000
1000
0000
1000
,
1000
1000
0000
0001
,
0000
0001
0000
1000
,
0000
1001
0000
0000
;

//---------------dance-single - ----------------
#NOTES:
     dance-single:
     :
     Easy:
     7:
     0.292933,0.375486,0.281827,0.281827,0.000000,211.000000,182.000000,29.000000,29.000000,0.000000,0.000000,0.292933,0.375486,0.281827,0.281827,0.000000,211.000000,182.000000,29.000000,29.000000,0.000000,0.000000:
0000
0000
0000
0000
,
0000
0000
0000
0000
,
0000
0000
0000
0000
,
0000
0000
0000
0000
,
1010
1000
1000
0000
,
0001
0000
0000
0100
0000
0000
0001
0000
,
0101
0001
0001
0000
,
1000
0000
0000
0001
0000
0000
1000
0000
,
0010
0000
0100
0010
,
0001
0000
0010
0100
,
1000
0000
0001
1000
,
0020
0000
0030
0000
1001
0000
0000
0001
,
0100
0001
1000
1000
,
1000
0000
0010
0000
,
0100
0000
0001
0000
,
1000
0000
0000
0000
0110
0000
0000
1000
,
0001
0010
0001
0001
,
0001
0000
0100
0000
,
0010
0000
1000
0000
,
0100
0000
0000
0000
1002
0000
0000
0010
,
0000
0000
0003
0000
2001
0000
0000
0100
,
0000
0000
3000
0000
0120
0000
0000
1000
,
0000
0030
0200
0300
,
1001
0000
0000
0001
0010
0000
0100
0000
,
1000
1000
1000
0000
,
0001
0000
1000
0000
,
0010
0010
0010
0000
,
1001
0000
0000
0100
0010
0000
0001
0000
,
1000
1000
1000
0000
,
0001
0000
0100
0000
,
0010
0010
1001
1100
,
0100
0100
1000
0100
,
0000
1000
0000
0001
,
0000
0010
0000
0001
,
0000
1000
0000
0000
0001
0000
0110
0000
,
0100
0100
0001
1000
,
0000
0010
0000
0100
,
0000
0001
0000
0010
,
0000
0001
1000
0000
0010
0000
0200
0000
,
0000
0301
0001
1000
,
0000
0010
0000
0200
,
0000
0310
0010
1000
,
0100
0011
0000
0002
,
0000
1003
1000
0002
,
0000
0013
0010
0100
,
0000
1000
0000
0001
,
1000
1001
0000
0220
,
0000
0330
0000
2002
,
0000
3003
0000
2200
,
0000
3300
0000
0022
,
0033
2200
3300
0220
,
0000
0000
0330
2002
,
0000
0000
3003
2020
,
0000
0000
3030
0202
,
0303
2020
3030
0001
,
0001
0001
0000
1000
,
1000
1000
0000
0001
,
0100
0010
1000
0100
,
0011
0100
1010
0100
,
0100
0100
0000
0010
,
0010
0010
0000
0100
,
0001
1000
0010
0100
,
1001
0010
0110
1000
,
0100
0001
0100
1000
,
0001
0010
1000
0010
,
0000
0001
0000
1000
,
0000
0001
0000
0100
,
0010
1000
0100
0010
,
0001
0010
0100
1000
,
0000
0001
0000
0100
,
0000
0110
0000
0000
;

//---------------dance-single - ----------------
#NOTES:
     dance-single:
     :
     Medium:
     10:
     0.460919,0.512026,0.388727,0.349854,0.000000,332.000000,292.000000,40.000000,36.000000,0.000000,0.000000,0.460919,0.512026,0.388727,0.349854,0.000000,332.000000,292.000000,40.000000,36.000000,0.000000,0.000000:
0000
0000
0000
0000
,
0000
0000
0000
0000
,
0000
0000
0000
0000
,
0000
0000
0000
0000
,
1002
0000
0010
0020
0000
0000
0033
0000
,
2001
0000
0100
0200
0000
0000
3300
0000
,
0120
0000
1000
2000
0000
0000
3030
0000
,
0210
0000
0001
0002
0000
0000
0303
0000
,
2000
0000
3001
0010
1000
0000
0010
0000
,
0002
0000
1003
0100
0001
0000
0100
0000
,
2000
0000
3001
0010
0000
0100
1000
0000
,
0010
0010
0010
0000
1001
0000
0000
0001
,
0100
0000
0000
0010
1000
0000
0100
0010
,
0100
0000
1000
0000
0001
0000
0000
1000
,
0010
0000
0100
0000
0001
0000
0000
0010
,
0100
1000
0001
0000
0110
0000
0000
0001
,
1000
0000
0000
0100
0010
0000
0001
0000
,
1000
0001
1000
0000
0001
0000
0010
0000
,
0100
1000
0100
0000
0011
0000
1100
0000
,
0101
0000
0000
0000
2001
0000
0010
0010
,
0000
0000
3100
0000
1002
0000
0010
0010
,
0000
0000
0103
0000
1001
0000
0010
0100
,
0000
0001
1000
0000
0010
0010
0010
0000
,
1000
0001
0000
0010
0100
1000
0100
0000
,
0011
1100
1001
0000
,
0100
0001
0100
0000
0010
0000
1000
0000
,
0001
0100
0001
0000
1000
1000
1000
0000
,
0001
0100
0000
0010
1000
0100
0010
0000
,
0101
0110
1010
0000
,
0010
0100
0010
0000
1000
0000
0100
0000
,
0010
0001
0010
0000
1001
0000
0001
1000
,
0001
0000
1000
0001
1000
0000
0101
0000
,
0001
0100
1000
0000
1000
0100
0001
0000
,
0010
0000
0100
0000
1000
0100
0020
0000
,
0000
0032
0000
0000
1003
0000
0010
0100
,
0010
0000
0100
0010
0100
0000
1010
0000
,
1000
0010
0001
0000
0001
0010
1000
0000
,
0100
0000
0010
0000
0001
1000
0001
0000
,
1000
1000
0000
0010
0010
0000
0201
0000
,
0000
0301
2000
0000
0000
3100
0010
0000
,
0001
1000
0001
0000
1000
0000
0200
0000
,
0000
1300
0001
0000
0020
0000
0031
1000
,
0000
0100
0010
0000
1001
0000
0120
0000
,
0000
1030
0200
0000
0000
0310
0001
0000
,
1000
0000
0001
0010
0000
0001
1000
0000
,
0100
0010
0001
0000
0010
0000
0100
0000
,
1000
0001
0100
0000
0010
0000
2002
0000
,
0000
0000
3003
0220
,
0000
0000
0330
2002
,
0000
0000
3003
2200
,
3300
0022
0033
0102
,
0100
0200
0303
2010
,
0010
0020
3030
0120
,
1000
0000
1030
1001
,
0001
0000
0010
0100
1000
0000
0001
0100
,
0000
0001
0100
0001
0000
1000
0010
1000
,
0000
0010
0100
0000
0001
0000
1000
0000
,
0100
0010
0001
1001
,
0000
0000
0110
0000
0000
0000
1000
0010
,
0000
1000
0010
1000
0000
0010
0100
0010
,
0000
0100
0001
0000
0010
0000
0100
0000
,
1000
0001
0100
1010
,
0000
0101
0000
0010
,
0010
0000
0010
1000
0010
0000
0100
0000
,
0100
0000
0100
0001
0100
0000
0001
0010
,
1000
0000
1000
0010
0001
0000
1100
0000
,
0010
0000
0101
0000
0010
0000
1000
0100
,
1000
0000
1000
0001
1000
0000
0001
0010
,
0001
0000
0001
1000
0001
0000
1000
0100
,
0001
0000
0001
0100
1000
0000
0010
0000
,
0100
1001
0000
0000
;

//---------------dance-single - ----------------
#NOTES:
     dance-single:
     :
     Hard:
     12:
     0.606692,0.618805,0.301263,0.427600,0.063168,437.000000,406.000000,31.000000,44.000000,0.000000,0.000000,0.606692,0.618805,0.301263,0.427600,0.063168,437.000000,406.000000,31.000000,44.000000,0.000000,0.000000:
0000
0000
0000
0000
,
0000
0000
0000
0000
,
0000
0000
0000
0000
,
0000
0000
0000
0000
,
1000
0002
0000
0013
0100
0010
0001
0010
,
0100
2000
0000
3001
0100
0100
0100
0000
,
1001
0000
0010
1000
0000
0100
0001
0000
,
0100
1000
0000
0100
0010
0001
1000
0100
,
0020
0000
0031
0010
1000
0010
0001
0100
,
0010
0200
0000
0301
1000
1000
1000
0000
,
1001
0000
0010
0001
0000
0100
1000
0100
,
0001
0001
0001
0000
1000
0001
0000
0001
,
0010
0000
0010
0100
0000
0100
1000
0100
,
0010
0001
1000
0001
0010
0100
0000
1000
,
0100
0010
0100
0010
0001
1000
0000
0001
,
0010
0010
0010
0000
0001
1000
0000
0100
,
0010
0000
0001
0010
0000
0100
1000
0100
,
0010
0001
1000
0000
0010
0100
0001
0100
,
0010
0010
0010
0000
1000
0100
0010
0001
,
1000
0010
0010
0010
0201
0000
0000
0010
,
0310
1000
0100
0000
0012
0000
2003
0010
,
0000
3020
0100
0000
0230
0000
0301
0100
,
1000
0100
0010
0000
1000
1000
1000
0000
,
0001
0100
0000
1000
0100
0010
1000
0010
,
0100
0001
0010
0100
1000
0010
0100
0000
,
0001
0010
0000
0100
1000
0100
0010
0001
,
1000
0010
0000
0100
0001
0001
0001
0000
,
0110
0000
1000
0010
0001
0010
0100
0010
,
1000
0100
0000
0010
0001
0010
0100
1000
,
0001
1000
0100
0001
0100
0100
0100
0000
,
0010
0001
1000
0010
1001
0000
0012
0000
,
0000
1000
1000
0000
0000
0010
0023
0000
,
0130
2000
0001
0000
3001
1000
0100
2000
,
0000
3001
0200
0000
0310
1000
2200
0000
,
3300
0022
0000
0033
1001
0000
0210
0000
,
0000
0001
0001
0000
0000
1000
1000
0000
,
0301
0200
0010
0000
0310
0100
0001
2000
,
0000
3100
0020
0000
0031
0010
0100
1000
,
0001
0010
0000
0100
1000
0000
0101
0000
,
1000
0010
0001
0000
0001
0010
1000
0100
,
0010
0000
0100
0000
1000
0000
0001
0000
0000
0100
0001
0000
0010
0000
0100
0000
,
1000
0001
0100
0010
1000
0000
0001
0010
,
0100
0000
0010
0000
0001
0000
1000
0000
0000
0010
0100
0000
0001
0000
1000
0000
,
0000
0100
0010
0001
0010
1000
0010
0100
,
0010
0000
0001
0000
0010
0000
1000
0000
0000
0010
0100
0000
0010
0000
0001
0000
,
1000
0100
0010
0001
1000
0000
0001
0100
,
0010
0000
1000
0000
0100
0000
0001
0000
0100
1000
0100
0000
2002
0000
0000
0000
,
0000
0000
3003
0220
,
0000
0000
0000
0000
0330
1000
2020
0000
,
0000
0000
3030
0022
,
0033
2200
3300
0102
,
1000
0000
0000
0000
0010
0000
0013
0000
0000
0001
0000
0000
2010
0000
0000
0000
,
0001
0000
0000
0000
0100
0000
3100
0000
0000
1000
0000
0000
0201
0000
0000
0000
,
1000
0000
0000
0000
0010
0000
0310
0000
0000
0100
0000
0000
1001
0000
0000
0001
,
0010
0100
1000
0100
0010
0000
0001
1000
,
0000
0000
0100
0000
0010
0000
0001
0000
0000
0110
0000
0000
0100
0000
1000
0000
,
0000
0000
0100
0000
0010
0000
1000
0000
0000
0101
0000
0000
0001
0000
1000
0000
,
0100
0010
0001
0100
0010
1000
0202
0000
,
0303
0000
2020
0000
3030
0000
0100
0001
,
0000
0000
0010
0000
0100
0000
1000
0000
0000
0110
0000
0000
0010
0000
0001
0000
,
0000
0000
0010
0000
1000
0000
0100
0000
0000
0011
0000
0000
1000
0000
0001
0000
,
0010
0100
1000
0001
0100
0010
1000
0010
,
0000
0100
0002
0000
1003
0010
0100
0001
,
0010
1000
0010
0001
0100
0010
0100
0001
,
1000
0100
0001
0100
1000
0010
0100
0010
,
1000
0100
0010
0001
0100
0010
2020
0000
,
3030
0000
0202
0000
0303
0000
0001
1000
,
0010
0001
0010
1000
0100
0010
0100
1000
,
0001
0010
1000
0010
0001
0100
0010
0100
,
0001
1000
0100
0001
0100
1000
0010
0100
,
0000
1001
0000
0000
0010
0000
0000
0000
1000
0000
0001
0000
1001
0000
0000
0000
;

//---------------dance-single - ----------------
#NOTES:
     dance-single:
     :
     Challenge:
     14:
     0.681660,0.790695,0.291545,0.398445,0.228377,491.000000,461.000000,30.000000,41.000000,0.000000,0.000000,0.681660,0.790695,0.291545,0.398445,0.228377,491.000000,461.000000,30.000000,41.000000,0.000000,0.000000:
0000
0000
0000
0000
,
0000
0000
0000
0000
,
0000
0000
0000
0000
,
0000
0000
0000
0000
,
0201
0000
1300
0100
0001
0010
0100
0010
,
0100
2000
0000
3010
0001
1000
0100
0001
,
0120
0000
1030
0010
0001
0010
0100
0010
,
1000
0200
0000
0310
0001
0001
0001
0000
,
1020
0000
0031
0010
1000
0100
0010
0100
,
0010
0002
0000
0013
0100
1000
0001
1000
,
0200
0000
0310
0002
0000
0013
0100
1000
,
1001
1001
1001
0000
0100
0010
0000
0100
,
1000
0100
0001
0100
0010
1000
0001
0010
,
0100
0100
0100
0000
1000
0001
0010
0100
,
0010
0001
1000
0100
0001
0100
0000
0010
,
0001
0001
0001
0000
1000
0010
0000
0001
,
0010
0100
0001
0100
0010
1000
0100
0010
,
0001
0001
0001
0000
1000
0001
0010
0100
,
0010
1000
0010
0001
0010
0100
0010
0001
,
1000
0001
0010
0100
1020
0000
0000
0031
,
0010
0100
1000
0100
0021
0000
0000
0031
,
1000
0100
0010
0001
0210
0000
0301
1000
,
0100
0001
0100
0010
1001
1001
1001
0000
,
1000
0001
0000
0010
0100
1000
0100
0001
,
0100
1000
0010
0100
0001
0001
0001
0000
,
1000
0010
0001
0010
0100
1000
0100
0001
,
0100
0010
0000
1000
0010
0010
0010
0000
,
0100
1000
0000
0100
0010
0100
1000
0100
,
0010
1000
0001
0010
0001
0010
1000
0001
,
0100
1000
0100
0010
0001
0001
0001
0000
,
1000
0001
0010
0100
1001
0000
0020
1000
,
0000
1030
0200
0000
0310
0001
0100
1000
,
0100
0001
2000
0001
0000
3001
0020
0100
,
0000
0230
1000
0000
1300
0001
0022
0000
,
0033
2002
0000
3003
0102
0000
1003
0020
,
0000
0130
0002
0000
1003
0010
0001
0010
,
1000
0100
0020
0000
0031
0010
0200
1000
,
0000
0000
1300
0000
0020
0000
0000
0000
0130
0000
0001
0000
1001
0000
0000
0001
,
0010
0000
0100
0000
0000
1000
0100
0000
0010
0000
0001
0000
1000
0100
0000
1000
,
0100
0000
1000
0010
0000
1000
0010
0000
0000
0100
0001
0000
0010
0001
0010
0000
,
0001
0000
1000
0001
1000
0000
0100
0000
0000
0010
0001
0000
0100
0010
0100
0000
,
0001
0000
0010
0001
0000
1000
0001
0000
0010
0100
0010
0000
0001
1000
0001
0000
,
0100
0000
0010
0100
0010
0000
1000
0000
0000
0001
0100
0010
1000
0000
0000
0001
,
0100
0000
0010
0000
0000
1000
0100
0000
0010
0001
0000
1000
0001
0000
0100
0010
,
0100
0000
0001
0000
0010
0000
0100
0000
0000
1000
0001
1000
0100
0010
0000
0001
,
0010
0000
0100
0000
1000
0000
0001
0000
0000
0010
0001
0100
0001
0000
1000
0010
,
1000
0000
0001
0000
0100
0000
0010
0000
0000
1000
0001
0000
0202
0000
0000
0000
,
0000
0000
0303
2020
,
0000
0000
0000
0000
3030
0010
0220
0000
,
0000
0000
0330
2002
,
3003
0220
0330
2001
,
0100
0000
0000
0000
3001
0000
0010
0000
0000
0100
0000
0000
1200
0000
0000
0000
,
0001
0000
0000
0000
0310
0000
1000
0000
0000
0010
0000
0000
0201
0000
0000
0000
,
1000
0000
0000
0000
0310
0000
0100
0000
0000
0001
0000
0000
1001
0000
0000
1000
,
0010
0100
0001
0001
0001
0000
1000
0010
,
0000
1000
0100
0000
1000
0000
0001
0000
0000
0010
0000
0000
0001
0000
0100
0000
,
0000
0001
1000
0001
0010
0000
0100
0000
0000
1000
0000
0000
0100
0000
0010
0000
,
0001
1000
0100
0010
0001
0100
0010
1000
,
0000
0000
0101
0000
0000
0000
0001
0000
0000
1000
0000
0010
0100
0000
0001
0000
,
0000
0000
1000
0000
0100
0000
0010
0000
0000
0100
0000
0000
1000
0000
0001
0000
,
0000
0000
0010
0000
0100
0000
0001
0000
0000
0100
0000
0000
1000
0000
0010
0000
,
0100
0001
0010
0100
1000
0001
0100
0010
,
0000
0000
1000
0000
0001
0100
0001
0100
0001
0000
1010
0000
0001
0000
0100
0000
,
1000
0100
0001
1000
0010
0100
0010
1000
,
0001
0010
1000
0010
0001
0100
0010
1000
,
0010
0100
0001
0010
0100
1000
0001
2000
,
0000
3100
0010
0002
0000
1003
0001
0010
,
1000
0010
0001
1000
0100
0010
0100
1000
,
0001
0010
1000
0010
0001
0100
0010
0100
,
0001
1000
0100
0010
0100
0001
0100
1000
,
0000
1001
0000
0000
0010
0000
0000
0000
0100
0000
1000
0000
1001
0000
0000
0000
;
