#TITLE:LET'S GROOVE;
#SUBTITLE:(The Euro-Speedo Revenge);
#ARTIST:BEAT BOX feat. DJ SPEEDO;
#TITLETRANSLIT:;
#SUBTITLETRANSLIT:;
#ARTISTTRANSLIT:;
#GENRE:EURO SPEED;
#CREDIT:YonabearCWY;
#BANNER:LET'S GROOVE (The Euro-Speedo Revenge).png;
#BACKGROUND:LET'S GROOVE (The Euro-Speedo Revenge)-bg.png;
#LYRICSPATH:;
#CDTITLE:Dance Mania SPEED G4.png;
#MUSIC:LET'S GROOVE (The Euro-Speedo Revenge).ogg;
#OFFSET:-5.500000;
#SAMPLESTART:44.128689;
#SAMPLELENGTH:15.000000;
#SELECTABLE:YES;
#BPMS:0.000000=174.000000
;
#STOPS:
;
#BGCHANGES:0.000=afro1.mp4=1.000=1=0=1===CrossFade==,
8.000=afro1.mp4=1.500=0=0=1=====,
12.000=afro1.mp4=2.000=0=0=1=====,
16.000=heart5.mp4=1.500=0=0=1=====,
32.000=heart6.mp4=1.500=0=0=1=====,
44.000=heart8.mp4=1.500=0=0=1=====,
48.000=ring2.mp4=2.000=0=0=1=====,
64.000=heart2.mp4=2.000=0=0=1=====,
72.000=ring2.mp4=2.000=0=0=1=====,
74.000=heart2.mp4=2.000=0=0=1=====,
76.000=afro1.mp4=2.000=0=1=1=StretchRewind====,
80.000=blizzard1.mp4=1.500=0=0=1=====,
88.000=groove1.mp4=1.500=0=0=1=====,
96.000=bubble1.mp4=1.500=0=0=1=====,
104.000=boy7.mp4=2.000=0=0=1=====,
108.000=floor2.mp4=2.000=0=0=1=====,
112.000=heart5.mp4=1.500=0=1=1=StretchRewind====,
120.000=heart6.mp4=1.500=0=1=1=StretchRewind====,
128.000=ring2.mp4=2.000=0=1=1=StretchRewind====,
136.000=heart2.mp4=2.000=0=1=1=StretchRewind====,
144.000=bubble2.mp4=1.500=0=0=1=====,
152.000=rain1.mp4=2.000=0=0=1=====,
160.000=blizzard1.mp4=1.500=0=1=1=StretchRewind====,
168.000=groove1.mp4=1.500=0=1=1=StretchRewind====,
175.000=heart5.mp4=1.500=0=1=1=StretchRewind====,
191.500=heart6.mp4=1.500=0=1=1=StretchRewind====,
204.000=boy7.mp4=2.000=0=1=1=StretchRewind====,
208.000=ring2.mp4=2.000=0=1=1=StretchRewind====,
216.000=heart2.mp4=2.000=0=1=1=StretchRewind====,
224.000=ring2.mp4=2.000=0=1=1=StretchRewind====,
232.000=heart2.mp4=2.000=0=1=1=StretchRewind====,
240.000=afro1.mp4=2.000=0=1=1=StretchRewind====,
248.000=blizzard1.mp4=1.500=0=1=1=StretchRewind====,
256.000=afro1.mp4=2.000=0=1=1=StretchRewind====,
264.000=floor2.mp4=2.000=0=1=1=StretchRewind====,
268.000=heart8.mp4=1.500=0=1=1=StretchRewind====,
271.500=LET'S GROOVE (The Euro-Speedo Revenge)-bg.png=1.000=0=0=1=====,
99999.000=-nosongbg-=1.000=0=0=0=StretchNoLoop====,
99999=-nosongbg-=1.000=0=0=0 // don't automatically add -songbackground-
;
#KEYSOUNDS:;
#ATTACKS:;

//---------------dance-single - ----------------
#NOTES:
     dance-single:
     BEGINNER:
     Beginner:
     4:
     0.214009,0.302464,0.099209,0.059526,0.000000,151.000000,141.000000,10.000000,6.000000,0.000000,0.000000,0.214009,0.302464,0.099209,0.059526,0.000000,151.000000,141.000000,10.000000,6.000000,0.000000,0.000000:
1000
0000
0000
0000
,
1000
0000
0000
0000
,
0001
0000
0000
0000
,
0001
0000
0000
0000
,
0010
0010
0010
0000
,
0010
0010
0010
0000
,
0100
0100
0100
0000
,
0100
0100
0100
0000
,
0001
0001
0001
0000
,
0001
0001
0001
0000
,
1000
1000
1000
0000
,
2002
0000
3003
0000
,
0010
0000
0010
0000
,
0100
0000
0100
0000
,
0001
0000
0001
0000
,
0010
0000
0010
0000
,
0100
0000
0100
0000
,
1000
0000
1000
0000
,
0100
0000
0100
0000
,
0010
0010
0010
0010
,
1001
0000
0100
0100
,
0100
0000
0100
0000
,
1001
0000
0010
0010
,
0010
0000
0010
0000
,
0110
0000
1000
1000
,
1000
0000
1000
0000
,
0110
0000
0001
0001
,
0001
0000
0001
0000
,
1001
0000
1001
0000
,
0100
0100
0100
0000
,
0010
0000
0100
0000
,
0010
0000
0100
0000
,
0110
0000
0110
0000
,
0001
0001
0001
0000
,
1000
0000
0001
0000
,
1000
0000
0001
0000
,
1000
0000
1000
0000
,
0020
0000
0030
0000
,
0100
0000
0100
0000
,
0002
0000
0003
0000
,
0010
0000
0010
0000
,
2000
0000
3000
0000
,
0100
0000
0100
0000
,
0002
0000
0003
0000
,
1000
1000
1000
0000
,
1000
0000
0000
0000
,
1000
1000
1000
0000
,
1000
0000
0000
0000
,
0001
0001
0001
0000
,
0001
0000
0000
0000
,
0001
0001
0001
0000
,
0001
0000
0000
0000
,
0100
0000
0100
0000
,
0100
0000
0000
0000
,
0010
0000
0010
0000
,
0010
0000
0000
0000
,
1000
0000
1000
0000
,
1000
0000
0000
0000
,
0001
0000
0001
0000
,
0001
0000
0000
0000
,
1000
1000
1000
0000
,
1000
0000
0000
0000
,
0001
0001
0001
0000
,
0001
0000
0000
0000
,
0010
0010
0010
0000
,
0010
0000
0000
0000
,
0100
0100
0100
0000
,
0100
0100
0100
1001
;

//---------------dance-single - ----------------
#NOTES:
     dance-single:
     BASIC:
     Easy:
     7:
     0.311801,0.336072,0.208340,0.119051,0.000000,220.000000,199.000000,21.000000,12.000000,0.000000,0.000000,0.311801,0.336072,0.208340,0.119051,0.000000,220.000000,199.000000,21.000000,12.000000,0.000000,0.000000:
1000
0010
1010
0000
,
0001
0000
0000
0001
0000
0000
0001
0000
,
0100
0001
0101
0000
,
1000
0000
0000
1000
0000
0000
1000
0000
,
0010
0010
0010
0000
,
0100
0100
0100
0000
,
0010
0010
0010
0000
,
0100
0100
0100
0000
,
0001
0001
0001
0000
,
1000
1000
1000
0000
,
0001
0001
0001
0000
,
2002
0000
0000
3003
,
0100
0000
0100
0000
,
0010
0000
0010
0000
,
1000
0000
1000
0000
,
0001
0001
1000
1000
,
0100
0010
0001
0000
,
1000
0010
0100
0000
,
0001
0010
0100
0000
,
1000
0001
1000
0001
,
0110
0000
1000
1000
,
1000
0000
0000
0001
0000
0000
1000
0000
,
1001
0000
0010
0010
,
0010
0000
0000
0100
0000
0000
0010
0000
,
0101
0000
0001
0001
,
0001
0000
0000
1000
0000
0000
0010
0000
,
1100
0000
0100
0100
,
0100
0000
0000
0010
0000
0100
0010
0000
,
2001
0010
0000
0010
,
0000
0000
3010
0000
0000
0010
0010
0000
,
0100
0001
1000
0100
,
0011
0000
0000
2002
0000
0000
3003
0000
,
0120
1000
0000
1000
,
0000
0000
1030
0000
0000
1000
1000
0000
,
0010
0100
0001
0010
,
1100
0000
0000
2002
0000
0000
3003
0000
,
0010
0001
0100
0001
,
1000
0010
1000
0100
,
1000
0000
1000
0000
,
0011
0000
0000
0220
0000
0000
0330
0000
,
0100
0001
0010
0001
,
1000
0010
1000
0100
,
0010
0000
0010
0000
,
0110
0000
0000
2002
0000
0000
3003
0000
,
0100
0100
0100
0000
,
0100
0100
0100
0000
,
0010
0010
0010
0000
,
0010
0010
0010
0000
,
1000
1000
1000
0000
,
1000
1000
1000
0000
,
0001
0001
0001
0000
,
0001
0001
0001
1001
,
0110
0000
0010
0000
,
0010
0100
0001
0100
,
0010
0000
1000
0000
,
0100
1000
0001
1000
,
0101
0000
0001
0000
,
0001
0010
0100
1000
,
0010
0000
0010
0000
,
0100
0001
1000
0100
,
0010
0000
0010
0000
,
0001
0000
0001
0000
,
1000
0000
1000
0000
,
0010
0100
0001
0010
,
0100
0000
0100
0000
,
0010
0000
0010
0000
,
0001
0000
0001
0000
,
1000
1000
1000
1001
;

//---------------dance-single - ----------------
#NOTES:
     dance-single:
     EXPERT:
     Hard:
     14:
     0.680292,0.707052,0.257944,0.228181,0.238102,480.000000,454.000000,26.000000,23.000000,0.000000,0.000000,0.680292,0.707052,0.257944,0.228181,0.238102,480.000000,454.000000,26.000000,23.000000,0.000000,0.000000:
0012
0000
0000
1003
0010
0000
0100
0000
,
0101
0000
0010
1000
0000
0100
0010
0000
,
2100
0000
0000
3001
0010
0000
0100
0000
,
0010
0001
0000
1001
0000
0100
0020
0000
,
0130
0001
0010
0000
0100
1000
0001
0000
,
1000
0000
0010
0000
0100
0001
0010
0001
,
1000
0010
0100
0000
0001
0010
0100
0000
,
1000
0000
0001
0000
0010
0000
0100
1000
,
0001
0100
0010
0000
1000
0100
0000
1000
,
0000
0001
0000
0100
0001
0010
0100
1000
,
0001
1000
0100
0000
1000
0010
0000
0100
,
0010
0010
0010
0010
0000
0100
0100
0100
,
0100
0000
0000
0001
0000
1000
0010
0000
0100
0000
0000
0010
0000
0100
0001
0000
,
1000
0000
0100
1000
0000
1000
0010
0000
0100
0000
0001
0010
0000
0010
0100
0000
,
1000
0000
0000
0100
0000
0010
0001
0000
1000
0000
0000
0001
0000
1000
0010
0000
,
0100
0000
0010
1000
0000
1000
0100
0000
1000
0000
0100
0010
0000
0010
0001
0000
,
0100
0000
0000
0001
0000
1000
0100
0000
1000
0000
0000
0010
0000
1000
0001
0000
,
0100
0000
0010
1000
0000
1000
0001
0000
0100
0000
0010
0100
0010
0000
0100
0000
,
0001
0000
0000
0010
0000
0100
1000
0000
0010
0000
0000
0100
0000
0010
0001
0000
,
0010
0000
0100
0000
0010
0000
1000
0000
0010
0000
0100
0000
0001
1000
0001
1000
,
0001
1000
0010
0100
1000
0100
0010
0100
,
2000
0000
3100
0010
0000
0010
0002
0000
,
0013
0100
0010
0001
0010
0100
0010
1000
,
0002
0000
1003
0100
0000
0100
0020
0000
,
0130
1000
0100
0001
0100
1000
0100
0000
,
0012
0000
1003
0010
0010
0010
0010
0000
,
1000
0001
0010
0100
0010
0001
1000
0000
,
0210
0000
0301
1000
1000
1000
1000
0000
,
0102
0000
1003
1000
1000
0010
0100
0001
,
0010
0010
0010
0010
0000
0100
0001
0000
,
1000
0010
0000
0000
0101
0000
0000
0000
0010
0100
0000
0000
1001
0000
0000
0000
,
0100
0100
0100
0100
0000
1000
0100
0010
,
2100
0000
3001
0001
0001
1000
0010
0000
,
1000
1000
1000
1000
0000
0010
0100
0000
,
0001
0010
0000
0000
1100
0000
0000
0000
1000
0001
0000
0000
0110
0000
0000
0000
,
0001
0001
0001
2002
0000
0000
3003
0000
,
0100
0001
0010
0000
0001
1000
0010
0000
,
0100
0100
0100
0100
0000
0001
0010
0000
,
1200
0000
0001
0000
0010
0010
0010
0000
,
1300
0100
0020
0002
0000
0000
0033
0000
,
1000
0010
0001
0000
0010
0100
0001
0000
,
0010
0010
0010
0010
0000
0100
1000
0001
,
0021
0000
1000
0000
0100
0100
0100
0000
,
0031
0010
0200
2000
0000
0000
3300
0000
,
1000
0100
0010
0001
0010
1000
0000
0011
,
0000
0100
0000
1010
0000
0001
0100
0010
,
1000
0100
0010
0001
0100
0010
0000
0100
,
1000
0000
0010
0010
0010
0010
0000
0100
,
0001
0010
0001
1000
0100
1000
0000
0110
,
0000
0001
0000
1001
0000
0100
0010
0001
,
1000
0010
0001
0010
1000
0100
0010
0000
,
0001
0000
0101
0000
0000
0000
1001
0000
0100
0010
0100
0000
0001
0000
0010
0000
,
1200
0000
0310
0010
0010
0001
1000
0010
,
0100
0100
0100
0100
0000
0001
1000
0000
,
0100
0001
0000
0001
0010
0000
0000
0000
0100
1000
0000
1000
0002
0000
0000
0000
,
0013
0010
0010
0010
0000
0100
0001
1000
,
0021
0000
0130
0100
0100
1000
0001
0010
,
0001
0001
0001
0001
0000
1000
0010
0000
,
0100
0010
0000
0010
1000
0000
0000
0000
0100
0010
0000
0010
0001
0000
0000
0000
,
1000
0000
1000
0000
1000
0000
1000
0010
1000
0000
0001
0000
0100
0001
0100
0000
,
1000
0100
0001
0100
0010
0100
1000
0100
,
0001
0100
0010
0100
0000
0001
2000
0000
,
3100
0010
0001
1000
0001
0010
0100
1000
,
0001
0001
0001
0001
0000
1000
0010
0001
,
0010
0100
0010
0001
0010
1000
0010
0100
,
0010
0100
1000
0100
0001
0100
0010
0100
,
0010
1000
0000
1000
0100
0000
0010
0000
0001
0100
0000
0100
0010
0000
1000
0000
,
0010
0010
0010
0010
0000
1001
1001
1001
;

//---------------dance-single - ----------------
#NOTES:
     dance-single:
     DIFFICULT:
     Medium:
     10:
     0.559824,0.538707,0.376995,0.148814,0.059526,395.000000,357.000000,38.000000,15.000000,0.000000,0.000000,0.559824,0.538707,0.376995,0.148814,0.059526,395.000000,357.000000,38.000000,15.000000,0.000000,0.000000:
1000
0000
0001
0010
0001
0000
0100
0000
,
0020
0000
0000
0130
0010
0000
1000
0000
,
0001
0000
0010
0100
0010
0000
0100
0000
,
1000
0001
0000
0010
0000
0001
0100
0000
,
0101
0010
1010
0100
,
0110
0000
0001
1000
0001
0000
1000
0000
,
0010
1010
0100
0101
,
0010
1000
0010
0000
0100
0000
0001
0010
,
1000
0011
0100
1010
,
0100
0001
0010
0000
0100
0000
1000
0000
,
0010
1100
0010
0101
,
0010
0100
0010
0100
0000
0001
1000
0001
,
1000
0000
0000
0010
0000
0000
0100
0000
0001
0000
0000
0010
0000
0000
0100
0000
,
1000
0000
0100
0010
0001
0000
1010
0000
,
0010
0000
0000
0100
0000
0000
0001
0000
1000
0000
0000
0010
0000
0000
1000
0000
,
0100
0000
0010
0001
1000
0001
0100
0000
,
0011
0000
0000
1000
0000
0000
0001
0000
0100
0000
0000
0010
0000
0000
1000
0000
,
0100
0000
0010
0001
1000
0000
0110
0000
,
0001
0000
0000
0010
0000
0000
0001
0000
1000
0000
0000
0100
0000
0000
1000
0000
,
0010
1000
0010
0100
0001
0100
0001
0010
,
0100
0000
1000
0100
0001
0000
1000
0000
,
0101
0000
0000
0011
0000
0001
2000
0000
,
3010
0000
0100
0001
1000
0000
0010
0000
,
1100
0000
0000
1001
0000
0100
0002
0000
,
0013
0000
0001
1000
0010
0000
0100
0000
,
0110
0000
0000
1001
0000
1000
0100
0010
,
0001
0000
0100
0001
0010
0000
0100
0000
,
1100
0000
0000
1001
0000
0010
0200
0000
,
0301
1000
0010
1000
0000
0100
1000
0100
,
0000
1000
0010
1000
0000
0100
0010
0000
,
0011
0100
1100
0010
,
0100
0001
0010
0100
1000
0000
0001
0000
,
0100
0001
0010
0001
0000
0100
0001
0100
,
0000
0010
1000
0010
0000
0100
1000
0000
,
0101
0010
1001
0100
,
1000
0100
0010
0001
1000
0000
0010
0000
,
0200
0001
1000
0010
,
1300
0000
0002
0200
0000
0000
0303
0000
,
1000
0000
0010
0000
0100
0100
0100
0000
,
0001
0010
0200
2000
0000
0000
3300
0000
,
0020
0100
0001
1000
,
0130
0010
0001
1000
0000
0010
0100
0000
,
0001
0000
0010
0000
0001
1000
0001
1000
,
0100
0010
0002
2000
0000
0000
3003
0000
,
1100
0000
0011
0000
0100
0100
0000
0001
,
0000
1000
0000
0001
0000
1000
0010
0100
,
0101
0000
1010
0000
1000
1000
0000
0001
,
0000
0010
0100
1000
0000
0100
0010
0001
,
1001
0000
0110
0000
0001
0001
0000
0010
,
0000
0001
0000
1000
0000
0010
0100
0010
,
1010
1001
0101
1001
,
0010
0100
0000
0110
0000
1000
0002
0000
,
0013
0001
0010
0000
0001
1000
0001
0000
,
1000
0000
0010
0100
0000
0100
1000
0000
,
0100
0001
0100
0000
0010
1000
0010
0000
,
0100
0100
0100
0100
0000
0010
0100
1000
,
0001
0000
0010
0001
0010
0000
0100
1000
,
0100
0000
1000
0001
0000
0001
0010
0000
,
0100
0001
0100
0000
0010
0001
0010
0000
,
0001
0001
0001
0001
0001
0000
0110
0000
,
1000
0000
0000
0010
0000
0000
0100
0000
0001
0000
0000
0010
0000
0000
0100
0000
,
1000
0000
0001
0010
0100
0000
0010
0100
,
0001
0000
0000
0100
0000
0000
1000
0000
0010
0000
0000
0100
0000
0000
0001
0000
,
1000
0010
0001
0000
0010
0100
0001
1000
,
0002
0010
1000
0100
,
0023
0000
0031
0010
1000
0000
0110
0000
,
1000
0100
0001
0000
0001
0100
1000
0000
,
0010
0010
0010
0010
0000
1000
0001
1001
;

//---------------dance-double - ----------------
#NOTES:
     dance-double:
     DIFFICULT:
     Medium:
     10:
     0.518723,0.538707,0.248023,0.168656,0.029763,366.000000,341.000000,25.000000,17.000000,0.000000,0.000000,0.518723,0.538707,0.248023,0.168656,0.029763,366.000000,341.000000,25.000000,17.000000,0.000000,0.000000:
00001000
00000000
00000010
00000100
00000010
00000000
00010000
00000000
,
00011000
00000000
00000000
00100000
00000000
00010000
10000000
00000000
,
00010000
00000000
01000000
00100000
01000000
00000000
00001000
00000000
,
00011000
00000000
00000000
00010010
00000000
00000100
00000002
00000000
,
00001003
00000010
00001000
00000000
00000010
00010000
00000000
00000100
,
00000000
00010000
00000000
00001000
00000000
00010000
00001000
00000000
,
00100000
00000000
01000000
00000000
10000000
00010000
00000000
10000000
,
00000000
00100000
00000000
01000000
00000000
00010000
00100000
00001000
,
00100000
00001000
00010000
00000000
00000100
00010000
00000000
00001000
,
00000000
00000010
00000000
00000001
00000000
00001000
00000010
00000000
,
00001000
00000100
00001000
00000000
00000100
00010000
00000000
00010000
,
00001000
00100000
00001000
00100000
00000000
00010000
01000000
00010000
,
01000000
00000000
00000000
00100000
00000000
00000000
10000000
00000000
01000000
00000000
00000000
00000000
00100000
00000000
00001000
00000000
,
00010000
00000000
00000000
00001000
00000000
00000000
00000100
00000000
00000010
00000000
00000000
00000000
00001001
00000000
00000000
00000000
,
00000100
00000000
00000000
00000001
00000000
00000000
00000010
00000000
00000001
00000000
00000000
00000000
00000010
00000000
00000100
00000000
,
00001000
00000000
00000000
00000100
00000000
00000000
00010000
00000000
00001000
00000000
01000000
00000000
00100000
00000000
00010000
00000000
,
00100000
00000000
00000000
01000000
00000000
00000000
00010000
00000000
10000000
00000000
00000000
00000000
01000000
00000000
00100000
00000000
,
00001000
00000000
00010000
00000100
00000000
00000100
00001000
00000000
,
00000010
00000000
00000000
00001000
00000000
00000000
00000100
00000000
00000010
00000000
00000000
00000000
00000001
00000000
00000010
00000000
,
00000100
00010000
00001000
00011000
,
00001000
00000000
01000000
00010000
01000000
00000000
00100000
00000000
,
10100000
00000000
00000000
01010000
00000000
10000000
00020000
00000000
,
00130000
00000000
00001000
00010000
00001000
00000000
00000100
00000000
,
00000011
00000000
00000000
00001010
00000000
00000010
00020000
00000000
,
00031000
00010000
00001000
00000000
00100000
00000000
01000000
00000000
,
10010000
00000000
01000000
00100000
00000000
01000000
00200000
00000000
,
00301000
00100000
00001000
00000000
00010000
00000000
00000100
00000000
,
00000110
00000000
00000001
00001000
00000000
00000001
00002000
00000000
,
00003010
00001000
00000100
00000000
00001000
00000010
00000100
00000000
,
00000001
00001000
00000001
00001000
00000000
00000010
00000010
00000000
,
00010100
00010000
00011000
00001000
,
00100000
00001000
02000000
00020000
00000000
00000000
03030000
00000000
,
00010000
10000000
01000000
00000000
10000000
00010000
01000000
00000000
,
00100000
01000000
00100000
01000000
00000000
00010000
00010000
00000000
,
01001000
00100000
00101000
00001000
,
00010000
00000100
00002000
00000020
00000000
00000000
00003030
00000000
,
00000100
00000000
00000001
00000000
00000010
00000100
00000010
00000000
,
00000100
00000000
00010000
00000000
00001000
00010000
00001000
00000000
,
00200000
01000000
00010000
01000000
,
00310000
00000000
20000000
00020000
00000000
00000000
30030000
00000000
,
00100000
00000000
10000000
00010000
10000000
00000000
00100000
00000000
,
01000000
00000000
00001000
00100000
00001000
00000000
00010000
00000000
,
00000200
00000001
00001000
00000001
,
00001300
00000000
00000010
00000100
00000220
00000000
00000330
00000000
,
00001000
00000000
00000001
00000000
00000010
00000100
00000000
00010000
,
00000000
00001000
00000000
00100000
00000000
00010000
10000000
00000000
,
01000000
00000000
10000000
00000000
00100000
01000000
00000000
00010000
,
00000000
01000000
00000000
00001000
00000000
00010000
00001000
00000100
,
00000010
00000000
00001000
00000000
00000001
00000100
00000000
00000001
,
00000000
00001000
00000000
00000100
00000000
00010000
00001000
00000000
,
00010000
00000000
00100000
00000000
01000000
00010000
10000000
00000000
,
10010000
10010000
00000000
01000000
00000000
01100000
01100000
00000000
,
00010000
00000000
01000000
00010000
01000000
00000000
00001000
00000000
,
00100000
00000000
00001000
00010000
00001000
00000000
00010000
00000000
,
00000100
00000010
00000001
00000000
00001000
00000100
00000010
00000000
,
00000001
00001000
00000010
00000220
00000000
00000000
00000330
00000000
,
00001000
00000000
00000010
00001000
00000010
00000000
00010000
00000000
,
00001000
00000000
00100000
00001000
00100000
00000000
00010000
00000000
,
01000000
00010000
10000000
00000000
01000000
00100000
00010000
00000000
,
10000000
10000000
00010000
00010000
,
01100000
00000000
10000000
00100000
00010000
00000000
00100000
00000000
,
01000000
00000000
00001000
00100000
00001000
00000000
00010000
00000000
,
00001000
00010000
00001000
00000000
00010000
00000010
00010000
00000000
,
00000100
00010000
00000100
00000000
00001000
00000000
00000100
00000000
,
00000110
00000000
00000001
00000100
00001000
00000000
00000100
00000000
,
00000010
00000000
00000100
00010000
00001000
00000000
00010000
00001000
,
00010000
00000000
00001000
01000000
00001000
00000000
00011000
00000000
,
00100000
00001000
00100000
00001000
00000000
00100000
00010000
10010000
;

//---------------dance-double - ----------------
#NOTES:
     dance-double:
     EXPERT:
     Hard:
     14:
     0.676041,0.673383,0.248023,0.208340,0.148814,477.000000,452.000000,25.000000,21.000000,0.000000,0.000000,0.676041,0.673383,0.248023,0.208340,0.148814,477.000000,452.000000,25.000000,21.000000,0.000000,0.000000:
00001000
00000001
00000010
00000100
00010000
00000000
01000000
00000000
,
10100000
00000000
01000000
00010000
00000000
00100000
01000000
00000000
,
10000000
01000000
00100000
00001000
00010000
00000000
00000100
00000000
,
00001010
00000000
00000100
00000001
00000000
00000010
00000100
00000000
,
00001001
00000000
00000010
00000000
00000001
00000100
00000000
00000010
,
00000000
00000000
00001000
00000000
00000000
00000000
00000100
00000000
00000000
00000000
00010000
00001000
00010000
00000000
00001000
00000000
,
01100000
00000000
00010000
00000000
10000000
01000000
00000000
00100000
,
00000000
01000000
00000000
00100000
00000000
00001000
00010000
00000100
,
00000010
00000001
00001000
00000000
00000010
00000100
00000001
00000000
,
00000010
00000000
00000000
00000000
00000100
00000000
00000000
00000000
00010000
00000000
01000000
00100000
01000000
00000000
10000000
00000000
,
00010000
00100000
01000000
00000000
00100000
01000000
10000000
00000000
,
01000000
01000000
01000000
01000000
00000000
00100000
00100000
00100000
,
00100000
00000000
00001000
00100000
00000000
00100000
00010000
00000000
00100000
00000000
00001000
00010000
00000000
00010000
00000100
00000000
,
00001000
00000010
00000001
00000010
00001000
00000100
00000020
00000000
,
00000031
00000000
00001000
00000010
00000000
00000010
00010000
00000000
00000100
00000000
00010000
00001000
00000000
00001000
00100000
00000000
,
00010000
01000000
10000000
01000000
00010000
01000000
00200000
00000000
,
10300000
00100000
02000000
00000000
03010000
00100000
00002000
00000000
,
00013000
00000000
00000100
00001000
00000100
00000000
00010000
00000000
00000010
00000000
00001000
00000000
00000002
00000000
00000000
00000000
,
00000103
00000001
00000020
00000000
00000130
00010000
00002000
00000000
,
00013000
00000000
00000100
00000000
00010000
00000000
00001000
00000000
00010000
00000000
00001000
00000000
00100000
00001000
00100000
00001000
,
00100000
00010000
01000000
10000000
01000000
00010000
00100000
00010000
,
10000000
01000000
00100000
00010000
00000000
00100000
02000000
00000000
,
03100000
00001000
00010000
00001000
00100000
01000000
00100000
00001000
,
00020000
00000000
00030100
00001000
00000000
00001000
00000002
00000000
,
00000103
00000001
00000100
00001000
00000100
00000001
00001000
00000010
,
00002000
00000000
00003100
00010000
00010000
00010000
00020000
00000000
,
00031000
00100000
00001000
00010000
00000100
00000010
00000100
00010000
,
00001000
00000000
00010000
00100000
01000000
10000000
20010000
00000000
,
30100000
00000000
01000000
00010000
01000000
10000000
01010000
00000000
,
00100000
00100000
00100000
00100000
00000000
00001000
00010000
00000000
,
00001000
00000010
00000000
00000000
00000101
00000000
00000000
00000000
00000100
00010000
00000000
00000000
00101000
00000000
00000000
00000000
,
01000000
01000000
01000000
01000000
00000000
00100000
00010000
00001000
,
00000100
00000000
00001000
00000001
00000010
00000100
00000011
00000000
,
00000100
00000100
00000100
00000100
00000000
00010000
00001000
00000000
,
00010000
01000000
00000000
00000000
10100000
00000000
00000000
00000000
00100000
00001000
00000000
00000000
00010100
00000000
00000000
00000000
,
00001000
00000000
00001010
00000000
00000000
00000000
00000101
00000000
00000001
00001000
00000001
00001000
00000001
00000000
00000010
00000000
,
00000100
00000000
00010000
00001000
00100000
00000000
00010000
01000000
,
00100000
00100000
00100000
00100000
00000000
10000000
00010000
00000000
,
10200000
00000000
00010000
00000000
10000000
10000000
10300000
00000000
,
10000000
00010000
00100000
20020000
00000000
00000000
00000000
30030000
,
00000000
00000000
00010000
00000100
00001000
00000000
00000010
00000000
,
00000100
00000100
00000100
00000100
00000000
00000001
00000010
00000100
,
00001200
00000000
00000001
00000000
00001300
00000100
00000010
00000001
,
00000100
00000010
00001000
00002002
00000000
00000000
00003003
00000000
,
00000100
00000010
00001000
00000010
00000100
00010000
00000100
00000010
,
00001000
00000100
00010000
00000100
00000000
00010000
00001000
00000000
,
00100000
00010000
10000000
00010000
01000000
00010000
00001000
00010000
,
01000000
00010000
00000000
00100000
00001000
00001000
00001000
00000000
,
00010000
00001000
00000100
00000010
00000100
00001000
00000100
00000010
,
00001000
00000001
00000010
00000100
00000001
00001000
00000010
00000100
,
00001000
00010000
00001000
00010000
00100000
01000000
10000000
00010000
,
01000000
00000000
01010000
00000000
00000000
00000000
10010000
00000000
00100000
01000000
00100000
00000000
01000000
00000000
10000000
00000000
,
01010000
00000000
10000000
00100000
01000000
00010000
00100000
00000000
,
00010000
00010000
00010000
00010000
00000000
00100000
01000000
00000000
,
00100000
00001000
00000000
00001000
00010000
00000000
00000000
00000000
00000010
00001000
00000000
00001000
00000100
00000000
00000000
00000000
,
00001000
00001000
00001000
00001000
00000000
00000001
00000010
00000100
,
00001100
00000000
00000100
00000010
00000001
00001000
00000001
00000000
,
00001000
00001000
00001000
00001000
00000000
00000010
00000100
00000000
,
00001000
00010000
00000000
00010000
00000100
00000000
00000000
00000000
00010000
00001000
00000000
00001000
00100000
00000000
00000000
00000000
,
00010000
00000000
00010000
00000000
00010000
00000000
00010000
01000000
00010000
00000000
10000000
00000000
00100000
10000000
00100000
00000000
,
10000000
01000000
00100000
00000000
01000000
00100000
00001000
00000000
,
00010000
00001000
00010000
00000100
00000010
00000100
00010000
00001000
,
00010000
00000100
00000010
00001000
00000010
00000100
00000010
00000001
,
00001000
00001000
00001000
00002002
00000000
00000000
00003003
00000000
,
00000001
00000010
00000100
00000000
00000010
00001000
00010000
00000000
,
00001000
00010000
00001000
00100000
00010000
01000000
00010000
00100000
,
00001000
00010000
00001000
00000000
00010000
00100000
01000000
00000000
,
00100000
00100000
00100000
00100000
00000000
10010000
10010000
10010000
;

//---------------dance-double - ----------------
#NOTES:
     dance-double:
     BASIC:
     Easy:
     7:
     0.270700,0.436893,0.119051,0.059526,0.000000,191.000000,179.000000,12.000000,6.000000,0.000000,0.000000,0.270700,0.436893,0.119051,0.059526,0.000000,191.000000,179.000000,12.000000,6.000000,0.000000,0.000000:
// measure 0
00000001
00001000
00000010
00000000
,  // measure 1
00010000
00000000
00000000
00010000
00000000
00000000
00000000
00000000
,  // measure 2
00001000
01000000
00010000
00000000
,  // measure 3
00100000
00000000
00000000
00100000
00000000
00000000
00000000
00000000
,  // measure 4
00010000
00010000
00010000
00000000
,  // measure 5
10000000
10000000
10000000
00000000
,  // measure 6
01000000
01000000
01000000
00000000
,  // measure 7
00100000
00100000
00100000
00000000
,  // measure 8
00001000
00001000
00001000
00000000
,  // measure 9
00000010
00000010
00000010
00000000
,  // measure 10
00000001
00000001
00000001
00000000
,  // measure 11
00002002
00000000
00000000
00003003
,  // measure 12
00000010
00001000
00000010
00010000
,  // measure 13
00001000
00000000
00001000
00000000
,  // measure 14
00010000
00001000
00010000
00100000
,  // measure 15
01000000
00000000
01000000
00000000
,  // measure 16
00010000
00100000
01000000
10000000
,  // measure 17
00010000
00000000
00010000
00000000
,  // measure 18
01000000
00001000
00010000
00001000
,  // measure 19
00100000
00011000
00010100
00001100
,  // measure 20
00001001
00000100
00000100
00000000
,  // measure 21
00000010
00000000
00000000
00000010
00000000
00000000
00000000
00000000
,  // measure 22
00011000
00001000
00001000
00000000
,  // measure 23
00010000
00000000
00000000
00010000
00000000
00000000
00000000
00000000
,  // measure 24
01001000
01000000
01000000
00000000
,  // measure 25
00010000
00000000
00000000
00010000
00000000
00000000
00000000
00000000
,  // measure 26
01100000
00100000
00100000
00000000
,  // measure 27
10010000
00000000
00000000
20020000
00000000
00000000
30030000
00000000
,  // measure 28
10000000
01000000
10000000
00000000
,  // measure 29
00010000
01000000
00010000
00000000
,  // measure 30
01000000
00000000
00001000
00000000
,  // measure 31
00010000
00000000
00000100
00000000
,  // measure 32
00000010
00000001
00000010
00000000
,  // measure 33
00000100
00001000
00000100
00000000
,  // measure 34
00010000
00000000
00000100
00000000
,  // measure 35
00010000
00000000
00001000
00000000
,  // measure 36
00100000
00100000
00100000
00000000
,  // measure 37
01000000
00000000
01000000
00000000
,  // measure 38
01000000
01000000
01000000
00000000
,  // measure 39
10000000
00000000
10000000
00000000
,  // measure 40
00010000
00010000
00010000
00000000
,  // measure 41
00010000
00000000
01000000
00000000
,  // measure 42
00001000
00001000
00001000
00000000
,  // measure 43
00000010
00000000
00000001
00001000
,  // measure 44
00000001
00000000
00000001
00000000
00000001
00000000
00000000
00001000
,  // measure 45
00000000
00001000
00000000
00001000
00000000
00000000
00000000
00000000
,  // measure 46
00000100
00000000
00000100
00000000
00000100
00000000
00000000
00010000
,  // measure 47
00000000
00010000
00000000
00010000
00000000
00000000
00000000
00000000
,  // measure 48
00100000
00000000
00100000
00000000
00100000
00000000
00000000
00010000
,  // measure 49
00000000
00010000
00000000
00010000
00000000
00000000
00000000
00000000
,  // measure 50
10000000
10000000
10000000
00000000
,  // measure 51
02200000
00000000
00000000
03300000
,  // measure 52
10000000
00010000
10000000
00000000
,  // measure 53
00010000
01000000
00010000
00000000
,  // measure 54
00100000
00000000
00001000
00000000
,  // measure 55
00010000
00000000
00000100
00000000
,  // measure 56
00000010
00000001
00000010
00000000
,  // measure 57
00000100
00000001
00000100
00000000
,  // measure 58
00001000
00000000
00000100
00000000
,  // measure 59
00010000
00000000
00001000
00000000
,  // measure 60
01000000
00000000
01000000
00000000
,  // measure 61
00010000
00000000
00010000
00000000
,  // measure 62
00001000
00000000
00001000
00000000
,  // measure 63
00010000
00000000
00010000
00000000
,  // measure 64
01000000
00000000
01000000
00000000
,  // measure 65
00100000
00000000
00100000
00000000
,  // measure 66
00010000
00000000
00010000
00000000
,  // measure 67
00001000
00000100
00000010
00001001
;
