#VERSION:0.83;
#TITLE:LET'S GET DOWN;
#SUBTITLE:(MO-FUNK MIX);
#ARTIST:JT PLAYAZ;
#TITLETRANSLIT:;
#SUBTITLETRANSLIT:;
#ARTISTTRANSLIT:;
#GENRE:;
#ORIGIN:;
#TAGS:;
#CREDIT:;
#BANNER:LET'S GET DOWN (MO-FUNK MIX).png;
#BACKGROUND:LET'S GET DOWN (MO-FUNK MIX)-bg.png;
#PREVIEWVID:;
#JACKET:LET'S GET DOWN (MO-FUNK MIX)-jacket.png;
#CDIMAGE:;
#DISCIMAGE:;
#LYRICSPATH:;
#CDTITLE:Dance Mania Bass 5.png;
#MUSIC:LETS GET DOWN (MO-FUNK MIX).mp3;
#OFFSET:-5.500000;
#SAMPLESTART:13.733276;
#SAMPLELENGTH:15.000000;
#SELECTABLE:YES;
#DISPLAYBPM:145.000000;
#BPMS:0.000000=145.770004;
#STOPS:;
#DELAYS:;
#WARPS:;
#TIMESIGNATURES:0.000000=4=4;
#TICKCOUNTS:0.000000=4;
#COMBOS:0.000000=1;
#SPEEDS:0.000000=1.000000=0.000000=0;
#SCROLLS:0.000000=1.000000;
#FAKES:;
#LABELS:0.000000=Song Start;
#BGCHANGES:4.000=ddr4.mp4=2.000=1=0=1===CrossFade==,
12.000=silhouette2.mp4=2.000=0=0=1=====,
14.000=dance10.mp4=2.000=0=0=1=====,
16.000=silhouette2.mp4=2.000=0=0=1=====,
18.000=dance10.mp4=2.000=0=0=1=====,
20.000=star8.mp4=1.200=0=0=1=====,
28.000=cube8.mp4=2.000=0=0=1=====,
36.000=star8.mp4=1.200=0=1=1=StretchRewind====,
44.000=smoke2.mp4=2.000=0=0=1=====,
50.500=silhouette2.mp4=0.010=0=0=1=====,
51.000=star8.mp4=0.010=0=0=1=====,
51.500=ddr4.mp4=0.010=0=0=1=====,
52.000=cube8.mp4=2.000=0=1=1=StretchRewind====,
60.000=disco1.mp4=2.000=0=0=1=====,
68.000=disco2.mp4=2.000=0=0=1=====,
76.000=smoke1.mp4=2.000=0=0=1=====,
84.000=cube8.mp4=2.000=0=1=1=StretchRewind====,
92.000=disco1.mp4=2.000=0=1=1=StretchRewind====,
96.000=disco2.mp4=2.000=0=1=1=StretchRewind====,
97.000=smoke1.mp4=2.000=0=1=1=StretchRewind====,
98.000=floor1.mp4=2.000=0=0=1=====,
100.000=star8.mp4=1.200=0=1=1=StretchRewind====,
108.000=candy2.mp4=2.000=0=0=1=====,
116.000=star8.mp4=1.200=0=1=1=StretchRewind====,
124.000=car5.mp4=2.000=0=0=1=====,
129.500=car5.mp4=0.010=0=0=1=====,
132.000=dance6.mp4=2.000=0=0=1=====,
140.000=cube11.mp4=2.000=0=0=1=====,
148.000=dance10.mp4=2.000=0=0=1=====,
156.000=dance6.mp4=2.000=0=1=1=StretchRewind====,
160.000=ddr4.mp4=2.000=0=1=1=StretchRewind====,
164.000=dance6.mp4=2.000=0=1=1=StretchRewind====,
172.000=dance10.mp4=2.000=0=0=1=====,
176.000=silhouette2.mp4=2.000=0=1=1=StretchRewind====,
177.000=cube11.mp4=2.000=0=1=1=StretchRewind====,
178.000=floor1.mp4=2.000=0=1=1=StretchRewind====,
180.000=star8.mp4=1.200=0=1=1=StretchRewind====,
188.000=cube8.mp4=2.000=0=1=1=StretchRewind====,
196.000=star8.mp4=1.200=0=1=1=StretchRewind====,
201.000=candy2.mp4=2.000=0=1=1=StretchRewind====,
203.000=car5.mp4=2.000=0=1=1=StretchRewind====,
205.000=smoke2.mp4=2.000=0=1=1=StretchRewind====,
207.000=floor1.mp4=2.000=0=1=1=StretchRewind====,
211.750=LET'S GET DOWN (MO-FUNK MIX)-bg.png=1.000=0=0=1=====,
99999=-nosongbg-=1.000=0=0=0 // don't automatically add -songbackground-
;
#KEYSOUNDS:;
#ATTACKS:
;

//---------------dance-single - ----------------
#NOTEDATA:;
#CHARTNAME:;
#STEPSTYPE:dance-single;
#BANNER:;
#DESCRIPTION:;
#CHARTSTYLE:;
#DIFFICULTY:Beginner;
#METER:4;
#METERF:0.000000;
#RADARVALUES:0.144840,0.216089,0.071688,0.000000,0.000000,99.000000,92.000000,7.000000,0.000000,0.000000,0.000000,0.000000,0.000000,0.000000,0.144840,0.216089,0.071688,0.000000,0.000000,99.000000,92.000000,7.000000,0.000000,0.000000,0.000000,0.000000,0.000000,0.000000;
#CREDIT:;
#DISPLAYBPM:145.000000;
#NOTES:
0000
0000
0000
0000
,
1000
0000
0000
0000
,
1000
0000
0000
0000
,
1001
1000
0000
1000
,
0000
1000
0000
0000
,
1000
0000
1000
0000
,
1000
0000
0000
0000
,
0001
0000
0001
0000
,
0001
0000
0000
0000
,
1000
0000
1000
0000
,
1000
0000
0000
0000
,
0001
0000
0001
0000
,
0001
0000
0000
0000
,
0110
0000
0010
0000
,
0010
0000
0000
0000
,
0110
0000
0100
0000
,
0100
0000
0000
0000
,
1001
0000
1000
1000
,
1000
0000
0001
0001
,
0001
0000
0010
0010
,
0010
0000
0100
0100
,
0100
0000
1000
0000
,
0010
0000
0100
0000
,
0001
0000
0010
0000
,
0100
0000
0000
0000
,
1000
0000
1000
0000
,
1000
0000
0000
0000
,
0001
0000
0001
0000
,
0001
0000
0000
0000
,
0010
0000
0010
0000
,
0010
0000
0000
0000
,
0100
0000
0100
0000
,
0100
0000
0000
0000
,
1001
0000
0010
0000
,
1000
0000
0000
0000
,
1001
0000
0010
0000
,
0001
0000
0000
0000
,
0100
0000
0010
0000
,
0100
0000
0000
0000
,
0010
0000
1000
0000
,
0010
0000
0000
0000
,
1000
1000
1000
0000
,
0001
0001
0001
0000
,
0010
0010
0010
0000
,
0100
0100
0100
0000
,
1000
0000
0010
0000
,
1000
0000
0000
0000
,
0001
0000
0100
0000
,
0001
0000
0000
0000
,
0010
0000
0000
0010
,
0000
0100
0000
0010
,
0000
0100
0000
0010
,
0000
0000
0000
1001
;

//---------------dance-single - ----------------
#NOTEDATA:;
#CHARTNAME:;
#STEPSTYPE:dance-single;
#BANNER:;
#DESCRIPTION:;
#CHARTSTYLE:;
#DIFFICULTY:Easy;
#METER:6;
#METERF:0.000000;
#RADARVALUES:0.313087,0.352393,0.389165,0.000000,0.005121,214.000000,176.000000,38.000000,0.000000,0.000000,0.000000,0.000000,0.000000,0.000000,0.313087,0.352393,0.389165,0.000000,0.005121,214.000000,176.000000,38.000000,0.000000,0.000000,0.000000,0.000000,0.000000,0.000000;
#CREDIT:;
#DISPLAYBPM:145.000000;
#NOTES:
0000
0000
0000
0000
,
1000
1000
0001
0000
,
0001
0001
0010
0000
,
0001
1001
0000
1001
,
0000
1001
0000
1001
,
0010
0100
0010
0000
,
1000
0000
0001
0000
1001
0000
0001
0010
,
0000
0001
0100
1000
,
0100
0001
0010
0100
,
1000
0010
0001
0000
,
0010
0000
0100
0000
0110
0000
0010
1000
,
0000
0001
0010
1000
,
0010
0001
1000
0000
,
1100
0000
0010
0010
,
0101
0000
1000
1000
,
0100
0000
0001
0000
,
0100
1000
1000
1001
,
0010
0000
0100
0000
,
0001
0010
0100
1000
,
0001
0000
1000
0000
,
0001
1000
0100
0010
,
0001
0100
0001
0100
,
0001
0010
1000
0010
,
0001
0010
0100
1000
,
0101
0011
1001
1100
,
0010
1000
0010
0000
,
0100
0000
0001
0000
0011
0000
1000
0100
,
0000
0010
0010
0100
,
0001
0001
1000
0101
,
0001
1000
0001
0000
,
1000
0000
0100
0000
0110
0000
0100
0010
,
0000
0001
0001
1000
,
0100
0100
1001
0000
,
1100
0101
1000
0000
,
0011
1010
0001
0000
,
0100
0010
0100
0010
,
1000
0001
1000
0000
,
0001
1010
1000
0101
,
0010
0010
1001
0000
,
0100
1001
0010
1001
,
0010
0000
0100
0100
,
0100
0000
0001
0100
,
1000
0000
0001
0010
,
1000
0000
0100
0010
,
1001
0101
1010
0110
,
1000
0010
1000
0100
,
1000
0000
0100
0000
1001
0000
0001
0010
,
0000
0100
0010
0100
,
1000
0100
0001
0100
,
1100
0000
0011
0000
,
1001
0000
1100
0000
,
0110
0000
1001
0000
,
0011
0000
0000
0000
1000
0000
0000
0000
0100
0000
0000
0000
0010
0000
0000
0001
;

//---------------dance-single - ----------------
#NOTEDATA:;
#CHARTNAME:;
#STEPSTYPE:dance-single;
#BANNER:;
#DESCRIPTION:;
#CHARTSTYLE:;
#DIFFICULTY:Medium;
#METER:9;
#METERF:0.000000;
#RADARVALUES:0.444760,0.433714,0.512059,0.000000,0.046085,304.000000,254.000000,50.000000,0.000000,0.000000,0.000000,0.000000,0.000000,0.000000,0.444760,0.433714,0.512059,0.000000,0.046085,304.000000,254.000000,50.000000,0.000000,0.000000,0.000000,0.000000,0.000000,0.000000;
#CREDIT:;
#DISPLAYBPM:145.000000;
#NOTES:
0000
0000
0000
0000
,
1000
0000
1000
0001
0010
0000
0100
0000
,
1000
0000
0001
1000
0100
0000
1001
0000
,
0010
0000
1000
0001
0000
0000
1000
0001
,
0000
0000
1000
0001
0000
0000
1000
0001
,
1000
0010
0100
0001
,
0011
0000
1001
0000
1100
0000
0010
0100
,
0000
0000
0010
0000
1000
0000
0010
0000
1000
0000
0000
1000
0001
0000
0000
0000
,
0010
0010
0001
0101
,
0001
1000
0010
0100
,
1100
0000
1010
0000
0110
0000
0001
0100
,
0000
0000
0001
0000
1000
0000
0001
0000
1000
0000
0000
0001
0100
0000
0000
0000
,
0010
0000
0000
0100
0000
0000
0001
0000
0000
0000
0001
0000
1000
0000
0001
0000
,
1000
0000
1000
0010
,
0100
0000
0001
1000
,
1000
0001
0100
0000
0001
0100
0010
0000
,
1000
0001
0010
0000
0001
1000
1001
0000
,
0010
0100
1000
0000
0001
0000
0010
0000
,
0000
0001
1000
0010
,
1000
0000
0100
0010
0001
0000
1000
0010
,
1010
1001
0101
0000
,
0010
0000
0010
0000
0001
0100
0001
0000
,
1000
0000
1000
0000
0001
1000
0001
0000
,
1100
0000
1010
0000
0001
0100
1000
0000
,
0110
0000
1001
0000
1000
0010
0001
0000
,
0010
0000
0100
0000
0001
0010
0001
0000
,
1010
0000
1001
0000
0101
0000
1000
0001
,
0000
0000
0010
0000
0100
0000
0010
0000
0100
0000
0000
1000
0001
0000
0000
0000
,
0100
0100
1001
0010
,
1000
0000
0100
0000
1000
0001
1000
0000
,
0110
0000
1001
0000
1100
0000
1000
0010
,
0000
0000
1000
0000
0001
0000
1000
0000
0001
0000
0000
0001
0010
0000
0000
0000
,
0100
0000
0000
0010
0000
0000
1001
0000
0000
0000
0000
0000
0000
0000
0000
0000
,
1100
0000
0101
0000
1000
1000
1000
0000
,
0110
0000
1001
0000
0010
0010
0010
0000
,
1000
0100
0001
0000
0001
0100
1000
0000
,
0100
0010
0100
1000
0100
0001
0100
0000
,
1100
1000
0101
0001
,
0100
0010
1000
0000
0010
0100
0001
0000
,
1001
0110
1010
0101
,
1001
0000
0000
0000
0010
0010
0010
0000
,
1001
0000
0000
0000
0100
0100
0100
0000
,
1001
0000
0000
0000
0010
0010
0010
0000
,
1000
0100
0010
0000
0001
0100
1000
0000
,
0101
0011
1001
1010
,
0100
0000
0001
0000
1000
0010
1000
0001
,
1000
0000
0110
0000
0101
0000
0001
0010
,
0000
0000
0001
0000
0100
0000
0001
0000
0100
0000
0000
0100
0010
0000
0000
0000
,
0100
0100
0011
1000
,
0001
0000
1000
0000
0010
0100
0010
0001
,
0010
1100
0110
0101
,
0001
1010
1001
0101
,
0010
0000
0000
0100
0000
0000
0010
0000
0000
0000
1000
0000
0001
0000
1000
0001
;

//---------------dance-single - ----------------
#NOTEDATA:;
#CHARTNAME:;
#STEPSTYPE:dance-single;
#BANNER:;
#DESCRIPTION:;
#CHARTSTYLE:;
#DIFFICULTY:Hard;
#METER:12;
#METERF:0.000000;
#RADARVALUES:0.572043,0.596357,0.460853,0.000000,0.225306,391.000000,346.000000,45.000000,0.000000,0.000000,0.000000,0.000000,0.000000,0.000000,0.572043,0.596357,0.460853,0.000000,0.225306,391.000000,346.000000,45.000000,0.000000,0.000000,0.000000,0.000000,0.000000,0.000000;
#CREDIT:;
#DISPLAYBPM:145.000000;
#NOTES:
// measure 0
0000
0000
0000
0000
,  // measure 1
1000
0000
0000
1000
0001
0000
0000
0000
0010
0000
0001
0000
0100
0000
0000
0000
,  // measure 2
0010
0000
0000
0010
0100
0000
0000
0000
0001
0000
1000
0000
0100
0000
0010
0000
,  // measure 3
0001
0000
1000
0100
1100
0000
0001
0010
,  // measure 4
0011
0000
0100
0010
0110
0000
0001
1000
,  // measure 5
1001
0000
1000
0010
0100
0001
1000
0000
,  // measure 6
0001
0010
0100
1000
1001
0000
0001
0010
,  // measure 7
0000
0000
0001
0000
0001
0000
0001
0000
0001
0000
0000
0100
0001
0000
0000
0000
,  // measure 8
0001
0000
0000
1010
0000
0000
1001
0000
0000
0000
0100
0000
0010
0000
0001
0000
,  // measure 9
1001
0000
0010
0001
0100
0010
1000
0000
,  // measure 10
0100
1000
0100
0010
1001
0000
1000
0100
,  // measure 11
0000
0000
0010
0000
0010
0000
0010
0000
0010
0000
0000
0001
1000
0000
0000
0000
,  // measure 12
0100
0000
0000
0110
0000
0000
1001
0000
0000
0000
0010
0000
0010
0000
0010
0100
,  // measure 13
0010
0000
0000
0000
1000
0000
0000
0000
0100
1000
0100
1000
0000
0000
0000
0000
,  // measure 14
0010
0010
0100
0100
0001
0100
0010
0000
,  // measure 15
1000
0000
0000
0010
1000
0000
0000
0000
0001
0000
0000
0100
0001
0000
0000
0000
,  // measure 16
1000
0100
0010
0001
0100
0010
1001
0000
,  // measure 17
0001
0001
0100
0000
1000
1000
0100
0000
,  // measure 18
0001
0100
1000
0100
0010
1000
0100
0000
,  // measure 19
1010
0000
0000
0000
0010
1000
0000
0000
1001
0000
0000
0000
0010
0001
0000
0000
,  // measure 20
0100
0001
0010
0001
1001
0000
0000
0001
,  // measure 21
0010
0000
0001
1000
0001
0000
1000
0000
0001
0000
0100
0000
0001
0100
0001
0000
,  // measure 22
0000
0000
1000
0001
1000
0000
0001
0000
1000
0000
0100
0000
1000
0100
1000
0000
,  // measure 23
0000
0000
0100
1000
0100
0000
0010
0000
0100
0000
0010
0000
0001
0010
0001
0000
,  // measure 24
1001
0000
0110
0000
1000
0100
0010
0001
,  // measure 25
1001
0000
0001
0010
0100
1000
0001
0000
,  // measure 26
1000
0001
0100
0010
0110
0000
0001
0100
,  // measure 27
0000
0000
0010
0000
0010
0000
0010
0000
0010
0000
0000
0010
1000
0000
0000
0000
,  // measure 28
0100
0000
0000
1100
0000
0000
1001
0000
0000
0000
1000
0000
0001
0000
1000
0001
,  // measure 29
1000
0000
0010
0100
0001
1000
0100
0000
,  // measure 30
1000
0100
0010
0001
0011
0000
0001
0100
,  // measure 31
0000
0000
0010
0000
0010
0000
0010
0000
0010
0000
0000
0100
0001
0000
0000
0000
,  // measure 32
0010
0000
0000
0011
0000
0000
0110
0000
0000
0000
0000
0000
0000
0000
0000
0000
,  // measure 33
1001
0000
0000
0000
0110
0000
0000
0000
0001
0100
0000
0001
1000
0000
0000
0000
,  // measure 34
1000
1000
0010
0000
0100
0100
0001
0000
,  // measure 35
1000
0100
0010
0001
1000
1000
1000
0000
,  // measure 36
0001
0010
0100
1000
0001
0001
0001
0000
,  // measure 37
1010
0000
0000
1000
0100
0000
0000
0000
0101
0000
0000
0001
0010
0000
0000
0000
,  // measure 38
0100
0000
0010
0000
1000
0000
0100
0000
0010
0100
0010
0100
0000
0000
1000
0000
,  // measure 39
1100
1100
0001
0001
0110
0110
1000
1000
,  // measure 40
0001
0000
0000
0001
0010
0000
0001
0000
1000
0000
0001
1000
0001
0000
0000
0000
,  // measure 41
0101
0000
0000
0100
0010
0000
0000
0000
1000
0000
0100
0000
0100
0000
0000
0000
,  // measure 42
1010
0000
0000
0010
0100
0000
0000
0000
0001
0000
0100
0000
0100
0000
0000
0000
,  // measure 43
0001
1000
0010
0000
1000
0001
0100
0000
,  // measure 44
1010
0000
0000
0000
0101
0000
0000
0000
0010
1000
0010
1000
0000
0000
0001
0000
,  // measure 45
0101
0000
1000
0010
0100
0001
1000
0000
,  // measure 46
0001
0010
0100
1000
1010
0000
0100
0001
,  // measure 47
0000
0000
0010
0000
0010
0000
0010
0000
0010
0000
0000
0001
0100
0000
0000
0000
,  // measure 48
0010
0000
0000
1001
0000
0000
0110
0000
0000
0000
0100
0000
0010
0000
1000
0001
,  // measure 49
1000
0000
0000
0001
0010
0000
0100
0000
1000
0000
0100
0000
0010
0000
0000
0000
,  // measure 50
1001
0000
0000
1000
0010
0000
0100
0000
0001
0000
0010
0000
0100
0000
0000
0000
,  // measure 51
1100
0000
0000
1000
0001
0000
0010
0000
0100
0000
1000
0000
0001
0000
0010
0000
,  // measure 52
0011
0000
0000
1001
0000
0000
1100
0000
0000
0000
0010
0000
0010
0000
0010
0100
;
