#VERSION:0.83;
#TITLE:カゴノトリ;
#SUBTITLE:;
#ARTIST:橙色特別室;
#TITLETRANSLIT:Kagonotori;
#SUBTITLETRANSLIT:;
#ARTISTTRANSLIT:Daidaiiro tokubetsushitsu;
#GENRE:;
#ORIGIN:;
#TAGS:;
#CREDIT:;
#BANNER:Kagonotori.png;
#BACKGROUND:Kagonotori-bg.png;
#PREVIEWVID:;
#JACKET:Kagonotori-jacket.png;
#CDIMAGE:;
#DISCIMAGE:;
#LYRICSPATH:;
#CDTITLE:GUITAR FREAKS & drummania.png;
#MUSIC:Kagonotori.ogg;
#OFFSET:-1.530000;
#SAMPLESTART:56.360867;
#SAMPLELENGTH:15.000000;
#SELECTABLE:YES;
#BPMS:0.000000=70.000000
,40.000000=140.000000
,120.000000=70.000000
,154.000000=140.000000
;
#STOPS:;
#DELAYS:;
#WARPS:;
#TIMESIGNATURES:0.000000=4=4
;
#TICKCOUNTS:0.000000=4
;
#COMBOS:0.000000=1
;
#SPEEDS:0.000000=1.000000=0.000000=0
;
#SCROLLS:0.000000=1.000000
;
#LABELS:0.000000=Song Start
;
#BGCHANGES:-1.500=Kagonotori.mp4=1.000=1=0=0=StretchNoLoop==CrossFade==,
189.000=Kagonotori-bg.png=1.000=0=0=1=====,
99999=-nosongbg-=1.000=0=0=0 // don't automatically add -songbackground-
;
#KEYSOUNDS:;
#ATTACKS:
;

//---------------dance-single - ----------------
#NOTEDATA:;
#CHARTNAME:;
#CHARTHASH:2147483647;
#STEPSTYPE:dance-single;
#BANNER:;
#DESCRIPTION:;
#CHARTSTYLE:;
#DIFFICULTY:Beginner;
#METER:3;
#METERF:3.000000;
#LASTSECONDHINT:114.244293;
#RADARVALUES:0.126291,0.163807,0.034668,0.017334,0.000000,102.000000,98.000000,4.000000,2.000000,0.000000,0.000000,0.000000,0.000000,0.000000,0.126291,0.163807,0.034668,0.017334,0.000000,102.000000,98.000000,4.000000,2.000000,0.000000,0.000000,0.000000,0.000000,0.000000;
#CREDIT:;
#NOTES:
0000
0000
0000
0000
,
0000
0000
0000
0000
,
0000
0000
0000
0000
,
1000
0000
1000
0000
,
0001
0000
0001
0000
,
0010
0000
0010
0000
,
0100
0000
0100
0000
,
1000
0000
1000
0000
,
0001
0000
0001
0000
,
0001
0000
1000
0000
,
1000
0000
0000
0000
,
1000
0000
0000
0000
,
0001
0000
0000
0000
,
0001
0000
0000
0000
,
0100
0000
0100
0100
,
0000
0000
0010
0010
,
0000
0000
1000
1000
,
0000
0000
0001
0001
,
0100
0000
0010
0010
,
0000
0000
1000
1000
,
0000
0000
0001
0001
,
0000
0000
0100
0100
,
0010
0000
0100
0100
,
0001
0000
0010
0010
,
0001
0000
0001
0001
,
1000
0000
0100
0100
,
0010
0000
0001
0010
,
0001
0000
1000
0001
,
1000
0000
0010
0100
,
0010
0000
1000
0001
,
1001
0000
0000
0000
,
1001
0000
0000
0000
,
0010
0010
0010
0000
,
0100
0100
0100
0000
,
0001
0001
0001
0000
,
1000
1000
1000
0000
,
0100
0100
0100
0000
,
0010
0010
0010
0000
,
1001
0000
0001
0000
,
0000
0000
0001
0000
,
0000
0000
1000
0000
,
0000
0000
1000
0000
,
0000
0000
0100
0100
,
0100
0000
0100
0100
,
0100
0000
0010
0010
,
0010
0000
0010
0010
,
0010
0000
0220
0000
,
0300
0030
0000
0000
;

//---------------dance-single - ----------------
#NOTEDATA:;
#CHARTNAME:;
#CHARTHASH:2147483647;
#STEPSTYPE:dance-single;
#BANNER:;
#DESCRIPTION:;
#CHARTSTYLE:;
#DIFFICULTY:Easy;
#METER:6;
#METERF:6.000000;
#LASTSECONDHINT:114.244293;
#RADARVALUES:0.251343,0.348089,0.208008,0.225342,0.000000,203.000000,179.000000,24.000000,26.000000,0.000000,0.000000,0.000000,0.000000,0.000000,0.251343,0.348089,0.208008,0.225342,0.000000,203.000000,179.000000,24.000000,26.000000,0.000000,0.000000,0.000000,0.000000,0.000000;
#CREDIT:;
#NOTES:
0000
0000
0000
0000
,
0000
0000
0000
0000
,
0000
0000
0000
0000
,
1001
0000
0001
0100
0010
0000
0110
0000
,
0010
1000
0100
0000
1001
0000
1000
0001
,
0010
0001
0101
0000
0100
0010
1000
0010
,
0120
0100
0100
0130
,
2001
0001
0001
3001
,
0020
0000
0030
0001
0020
0000
0030
0001
,
2000
0000
3000
0001
0200
0000
0300
0010
,
1000
1000
0000
1000
,
0100
0010
0000
0001
,
0010
0100
0000
1000
,
0010
0100
0001
1000
,
1001
0001
0010
0001
,
0101
1000
0010
1000
,
0110
0010
0001
0010
,
0110
0100
1000
0100
,
0010
0100
0001
1001
,
1000
0100
0001
1100
,
1000
0001
0010
1100
,
0010
0001
0100
1001
,
0020
0130
0100
0002
,
2003
3001
0100
0020
,
2030
3100
1000
0002
,
0023
0031
0100
0020
,
2030
0001
0000
3001
,
0200
1000
0000
1300
,
0200
0001
0000
0301
,
0020
1000
0000
1030
,
0220
0000
0000
0000
0000
0000
0000
0330
,
2002
0000
0000
0000
0000
0000
0000
3003
,
1000
1000
0000
1000
0100
0010
0000
0010
,
0001
1000
0000
0010
0100
0001
0000
0001
,
0100
1000
0000
1000
0100
0001
0000
0001
,
0010
1000
0000
1000
0010
0001
0000
0001
,
1000
1000
0000
1000
0010
0010
0000
0100
,
0001
0001
0000
0010
0100
0100
0000
1000
,
2002
0000
0003
3000
0010
0000
0010
0000
,
1000
1001
0100
0100
,
0001
1001
0100
0001
,
0100
1000
0100
0010
,
0100
0001
1000
1000
,
0010
1010
1000
1000
,
0010
0110
0100
0100
,
0001
0011
0001
0001
,
1000
1001
0220
0000
,
0300
0030
0000
0000
;

//---------------dance-single - ----------------
#NOTEDATA:;
#CHARTNAME:;
#CHARTHASH:2147483647;
#STEPSTYPE:dance-single;
#BANNER:;
#DESCRIPTION:;
#CHARTSTYLE:;
#DIFFICULTY:Medium;
#METER:11;
#METERF:11.000000;
#LASTSECONDHINT:114.244293;
#RADARVALUES:0.419731,0.634750,0.190674,0.130005,0.255677,339.000000,317.000000,22.000000,15.000000,0.000000,0.000000,0.000000,0.000000,0.000000,0.419731,0.634750,0.190674,0.130005,0.255677,339.000000,317.000000,22.000000,15.000000,0.000000,0.000000,0.000000,0.000000,0.000000;
#CREDIT:;
#NOTES:
0000
0000
0000
0000
,
0000
0000
0000
0000
,
0000
0000
0000
0000
,
1100
0000
0000
1000
0100
0000
1000
0001
0010
0001
0010
0000
0101
0000
0000
0001
,
1000
0000
0100
0010
0001
0010
0100
1000
0002
0000
0000
1000
1003
0000
0001
0010
,
0100
0000
0000
0010
0000
0000
0001
0000
0020
0000
0000
0000
0000
0000
0001
0000
0031
0000
0010
0000
0001
0000
1000
0000
0100
0000
1000
0000
1010
0000
0000
0000
,
1001
1000
0010
0010
0100
0100
0001
0001
,
0010
0010
0001
0001
1000
1000
0100
0100
,
0010
0000
0000
0001
0100
0000
0010
0000
1000
0000
0000
1000
0100
0000
0010
0000
,
0001
0000
0000
0001
1000
0000
0010
0000
0100
0000
0000
0100
0001
1000
0010
0000
,
0200
0000
0010
0310
0000
0010
0100
0000
,
0002
0000
1000
1003
0000
1000
0001
0000
,
2000
0000
0010
3010
0000
0010
1000
0000
,
1000
0001
0010
0001
,
0100
0010
0100
0000
0010
1000
0010
0000
,
0100
0001
0100
0000
0010
0001
0010
0000
,
1000
0010
1000
0000
0001
0100
0001
0000
,
0010
0100
0010
0000
0001
0010
0001
1000
,
0100
1000
0010
0000
0010
1000
0001
0000
,
0001
0100
0010
0000
0010
0100
1000
0000
,
0100
0001
0100
0000
0001
0010
1000
0000
,
0010
0001
0010
0000
0001
0100
1000
0000
,
0100
0001
0100
0000
0010
0000
1001
0000
,
0100
0010
0100
0000
1000
0000
1001
0001
,
0100
0001
0100
0000
0010
0000
0110
0000
,
1000
0001
1000
0000
0100
0000
0110
0100
,
1000
0001
0010
0001
0100
0100
0100
0010
,
1000
0010
1000
0001
0100
0001
0001
0001
,
0010
0001
0010
1000
0010
0010
0010
0001
,
0100
0010
1000
0000
0001
0100
0010
0000
,
2002
0000
0000
0000
0000
0000
0000
3003
,
0220
0000
0000
0000
0000
0000
0000
0330
,
1000
0010
1000
0010
0000
0100
0001
0100
0002
0000
0013
0100
1000
0100
0010
0000
,
0001
0010
0001
0010
0000
0001
1000
0001
2000
0000
3100
0010
0001
0010
0100
0000
,
1000
1000
0000
0010
0000
1000
0000
0001
0100
0001
0000
0010
0000
0001
0000
0100
,
0010
0100
0000
0010
0000
1000
0000
0010
0100
0010
0000
0100
0000
0001
0000
1000
,
1001
0001
0010
0000
0100
1000
0001
0000
0010
0001
1000
0100
0010
0001
0100
0000
,
0110
0010
1000
0000
1000
0100
0001
0100
1000
0000
0010
0100
0010
0001
0010
1000
,
2002
0000
3000
0003
1001
0000
0010
0000
,
0100
0001
0011
0000
0101
0000
0010
1000
,
1100
1000
0001
0000
0110
0000
0100
0001
,
0010
0100
1100
0000
1000
0010
0100
0001
,
1001
0001
0011
0000
0001
0100
0010
1000
,
0100
0010
0001
0000
0001
0010
1000
0010
,
0001
0100
0010
0000
1000
0100
0001
0100
,
1000
0001
0010
0000
0001
1000
1000
0100
,
0010
0001
0001
0010
2002
0000
0000
0000
,
3000
0003
0000
0000
;

//---------------dance-single - ----------------
#NOTEDATA:;
#CHARTNAME:;
#CHARTHASH:2147483647;
#STEPSTYPE:dance-single;
#BANNER:;
#DESCRIPTION:;
#CHARTSTYLE:;
#DIFFICULTY:Hard;
#METER:15;
#METERF:15.000000;
#LASTSECONDHINT:114.244293;
#RADARVALUES:0.570785,0.839509,0.199341,0.182007,0.706362,461.000000,438.000000,23.000000,21.000000,0.000000,0.000000,0.000000,0.000000,0.000000,0.570785,0.839509,0.199341,0.182007,0.706362,461.000000,438.000000,23.000000,21.000000,0.000000,0.000000,0.000000,0.000000,0.000000;
#CREDIT:;
#NOTES:
// measure 0
0000
0000
0000
0000
,  // measure 1
0000
0000
0000
0000
,  // measure 2
0000
0000
0000
0000
,  // measure 3
1001
0000
0000
1000
1100
0000
1000
0001
0010
0010
0000
0001
1001
0000
0000
0100
,  // measure 4
0110
0000
0000
0000
0010
0000
1000
0000
0100
1000
0100
1000
0100
0000
1000
0000
1001
0000
0000
0000
0000
0000
0001
0000
0011
0000
0000
0000
0100
0000
0001
0000
,  // measure 5
1000
0000
1000
0000
0000
0000
0001
0000
0101
0000
0000
0000
1000
0000
0010
0000
0100
0000
0000
0000
0010
0000
0100
0000
0001
1000
0001
1000
0001
1000
0000
0000
,  // measure 6
0100
0200
1000
2300
0100
3200
0010
0320
,  // measure 7
0001
0032
0100
0203
0010
0320
1000
2030
,  // measure 8
3001
1000
0001
1000
0001
1000
0000
0000
1000
0000
0100
0000
0001
0000
0000
0000
1100
0000
0000
0000
1000
0000
0010
0000
0100
0000
0000
0000
0101
0000
0000
0000
,  // measure 9
0001
0010
0001
0010
0001
0000
0100
0000
0110
0000
0000
0000
0010
0000
1000
0000
0002
0000
0000
0000
1000
0000
2003
0000
0000
0000
0001
0000
3001
0000
1000
0000
,  // measure 10
1200
0000
1000
1000
0000
0000
1000
1300
,  // measure 11
0020
0000
0100
0100
0000
0000
0100
0130
,  // measure 12
0002
0000
1000
1000
0000
0000
1000
1003
,  // measure 13
0001
1000
0001
1000
0001
1000
0001
1000
0001
1000
0001
1000
0001
1000
0001
1000
,  // measure 14
0001
0000
0000
0001
1000
0000
0000
0000
0100
0000
0010
0000
0001
0000
0000
0000
,  // measure 15
0100
0000
0000
0010
1000
0000
0100
0000
0001
0000
0100
0000
0010
0000
0001
0000
,  // measure 16
1000
0000
0000
0010
0100
0000
0000
0000
0001
0000
1000
0000
0100
0000
0000
0000
,  // measure 17
1000
0000
0000
0100
0001
0000
0100
0000
1000
0000
0100
0000
0010
0000
0001
0000
,  // measure 18
1000
0000
0000
0001
0100
0010
1000
0000
0100
0000
0010
0000
1000
0000
0000
0000
,  // measure 19
0010
0000
0000
0001
1000
0100
0010
0000
0100
0000
1000
0000
0001
0000
0100
0000
,  // measure 20
1000
0000
0000
0100
0010
1000
0001
0000
0100
0000
0010
0000
1000
0000
0000
0000
,  // measure 21
0001
0000
0000
1000
0001
0010
0100
0000
1000
0000
0001
1000
0100
0000
1000
0000
,  // measure 22
0010
0000
0000
1000
0001
0000
1000
0000
0100
0000
0000
0001
0100
0000
0000
0100
,  // measure 23
0010
0000
0000
0100
1000
0000
0001
1000
0001
0000
1000
0000
0010
0000
0000
0010
,  // measure 24
0100
0000
0000
0100
0001
0000
1000
0000
0100
0000
0010
0000
0100
1000
0001
0000
,  // measure 25
1000
0000
0000
0001
0010
0000
0001
0000
1000
0100
1000
0100
1000
0000
0010
0000
,  // measure 26
0100
0000
0001
1000
0000
0000
0100
0000
1000
0000
0010
1000
0010
1000
0010
0000
,  // measure 27
0100
0000
0001
0010
0000
0000
0001
0000
1000
0000
0100
0010
0001
0000
0010
0100
,  // measure 28
1000
0000
0001
1000
0000
0000
0100
0000
0010
0000
0001
1000
0001
1000
0001
0000
,  // measure 29
0100
0010
0100
0010
0100
0010
0100
0010
0100
0010
0100
0010
0100
0010
0100
0020
,  // measure 30
0200
0000
0000
0330
,  // measure 31
2002
0000
0000
3003
,  // measure 32
1001
0000
0001
0010
0000
0010
0100
0000
0000
0000
1000
0100
0000
0100
0001
0000
0100
0000
0000
0000
1000
0000
0100
0000
0010
0000
0000
0000
0100
0000
1000
0000
,  // measure 33
1001
0000
1000
0010
0000
0010
0100
0000
0000
0000
0001
0100
0000
0100
0010
0000
1000
0000
0000
0000
0001
0000
1000
0000
0100
0000
0000
0000
1000
0000
0001
0000
,  // measure 34
1001
1000
0010
1000
0100
0000
1000
0100
0001
0000
0001
0100
1000
0100
0010
0100
,  // measure 35
0001
0000
1000
0010
0001
0000
0001
0010
1000
0000
0010
0001
1000
0100
0010
0000
,  // measure 36
1100
0000
1000
0010
1000
0010
0000
0000
0000
0000
0100
0001
0100
0000
0001
0000
1000
0000
0010
0100
0010
0100
0000
0000
0000
0000
0010
1000
0010
0000
1000
0000
,  // measure 37
1010
0000
1000
0100
0010
0001
0000
0000
0000
0000
0001
0010
0001
0000
0100
0000
0101
0000
0001
1000
0010
0100
0000
0000
0000
0000
0010
1000
0010
0000
0100
0000
,  // measure 38
2002
0000
0000
0000
0003
0000
3000
0000
1001
0000
0000
1000
0100
0000
1000
0000
,  // measure 39
0010
0000
0100
0000
0001
0000
0000
0001
1000
0100
0010
0000
0001
0000
0100
0000
,  // measure 40
0001
1000
0100
1000
0100
1000
0100
0000
1000
0000
0000
0010
0100
0000
0001
0000
,  // measure 41
0010
0000
1000
0000
0010
0000
0000
0001
0010
0001
1000
0000
0100
0000
1000
0000
,  // measure 42
0010
0100
0000
0100
0001
0000
1001
0000
0100
0000
0000
0100
0010
0000
0100
0000
,  // measure 43
1000
0000
0001
0010
0001
0010
0001
0000
1001
0000
0000
1000
0010
0000
0001
0000
,  // measure 44
0010
0000
1000
0100
1000
0100
1000
0000
1001
0000
0000
0001
1000
0000
0100
0000
,  // measure 45
0010
0000
0100
0000
1000
0000
0001
0000
1000
0001
1000
0001
1000
0001
1000
0001
,  // measure 46
0100
0010
0100
0010
0100
0010
0100
0020
0200
0000
0000
0000
0000
0000
0000
0000
,  // measure 47
0300
0030
0000
0000
;
