#TITLE:Jack;
#SUBTITLE:;
#ARTIST:DesQ;
#TITLETRANSLIT:;
#SUBTITLETRANSLIT:;
#ARTISTTRANSLIT:;
#GENRE:MIXTURE;
#CREDIT:;
#BANNER:Jack.png;
#BACKGROUND:Jack-bg.png;
#LYRICSPATH:;
#CDTITLE:pop'n music.png;
#MUSIC:Jack.mp3;
#OFFSET:-5.390000;
#SAMPLESTART:59.130001;
#SAMPLELENGTH:15.000000;
#SELECTABLE:YES;
#DISPLAYBPM:58.000000:116.000000;
#BPMS:0.000000=116.000000
,32.000000=58.000000
,36.000000=116.000000
,170.000000=58.000000
;
#STOPS:84.000000=1.565000,
85.000000=1.275000,
86.500000=2.330000
;
#BGCHANGES:0.000=text22.mp4=1.000=1=0=1===CrossFade==,
8.000=fire1.mp4=1.000=0=0=1=====,
16.000=text22.mp4=1.000=0=0=1=====,
24.000=fire1.mp4=1.000=0=0=1=====,
32.000=fire3.mp4=1.000=0=0=1=====,
36.000=demon3.mp4=1.000=0=0=1=====,
44.000=fire3.mp4=1.000=0=0=1=====,
52.000=spark1.mp4=1.400=0=0=1=====,
60.000=fire5.mp4=1.400=0=0=1=====,
68.000=spark1.mp4=1.400=0=0=1=====,
76.000=fire5.mp4=1.400=0=0=1=====,
84.000=spikes2.mp4=0.010=0=0=1=====,
84.500=spikes2.mp4=1.000=0=0=1=====,
85.000=spikes2.mp4=0.010=0=0=1=====,
85.500=spikes2.mp4=1.000=0=0=1=====,
86.500=spikes2.mp4=0.010=0=0=1=====,
87.000=spikes2.mp4=1.000=0=0=1=====,
90.000=spikes1.mp4=1.000=0=0=1=====,
98.000=spikes2.mp4=1.000=0=0=1=====,
106.000=spikes8.mp4=1.000=0=0=1=====,
114.000=spikes9.mp4=1.000=0=0=1=====,
122.000=spikes1.mp4=1.000=0=0=1=====,
128.500=spikes7.mp4=1.600=0=0=1=====,
130.000=spikes2.mp4=1.000=0=0=1=====,
136.500=spikes7.mp4=1.600=0=1=1=StretchRewind====,
138.000=spikes8.mp4=1.000=0=0=1=====,
144.500=spikes7.mp4=1.600=0=1=1=StretchRewind====,
146.000=spikes9.mp4=1.000=0=0=1=====,
152.000=spikes3.mp4=1.000=0=0=1=====,
154.000=fire3.mp4=1.000=0=0=1=====,
157.500=fire3.mp4=4.000=0=0=1=====,
158.000=spikes3.mp4=1.000=0=0=1=====,
161.500=fire3.mp4=4.000=0=0=1=====,
162.000=spikes8.mp4=1.000=0=0=1=====,
165.500=fire3.mp4=4.000=0=0=1=====,
166.000=text22.mp4=1.000=0=0=1=====,
169.500=fire3.mp4=4.000=0=0=1=====,
170.000=Jack-bg.png=1.000=0=0=1=====,
99999=-nosongbg-=1.000=0=0=0 // don't automatically add -songbackground-
;
#KEYSOUNDS:;
#ATTACKS:;

//---------------dance-single - ----------------
#NOTES:
     dance-single:
     :
     Beginner:
     3:
     0.149495,0.183012,0.047566,0.000000,0.000000,110.000000,105.000000,5.000000,0.000000,0.000000,0.000000,0.149495,0.183012,0.047566,0.000000,0.000000,110.000000,105.000000,5.000000,0.000000,0.000000,0.000000:
1000
0000
1000
0000
,
0001
0000
0001
0000
,
1000
0000
0010
0000
,
0001
0000
0010
1000
,
0010
0000
0010
0000
,
0100
0000
0100
0100
,
0100
0000
0001
0000
,
0001
0000
1000
1000
,
1000
0000
0010
0000
,
0100
0100
0100
0100
,
0100
0000
0100
0000
,
0001
0001
0001
0001
,
0001
0000
0001
0000
,
1000
0000
0010
0000
,
0100
0000
0001
0000
,
0010
0000
0001
0000
,
1000
0000
0100
0000
,
1000
0000
0100
0000
,
0010
0000
0001
0000
,
0010
0000
0100
0000
,
1000
0000
0100
0000
,
1001
0000
0110
0000
0000
1001
0000
0000
,
0000
0000
1000
1000
,
1000
0000
1000
1000
,
1000
0010
0100
0100
,
0100
0000
0100
0100
,
0100
0001
0010
0010
,
0010
0000
0010
0010
,
0010
0001
1000
1000
,
1000
0000
1000
1000
,
1000
0001
0100
0000
,
0100
0000
0100
0000
,
0100
0000
0010
0000
,
0010
0000
0010
0000
,
0010
0000
1000
0000
,
1000
0000
1000
0000
,
1000
0000
0001
0000
,
0001
0000
0001
0000
,
0001
0000
1001
0000
,
0000
0000
0010
0000
,
0010
0000
0100
0000
,
0100
0000
0010
0000
,
0010
0000
0100
1001
;

//---------------dance-single - ----------------
#NOTES:
     dance-single:
     :
     Easy:
     6:
     0.263654,0.305020,0.114160,0.114160,0.004757,194.000000,182.000000,12.000000,12.000000,0.000000,0.000000,0.263654,0.305020,0.114160,0.114160,0.004757,194.000000,182.000000,12.000000,12.000000,0.000000,0.000000:
1000
0010
1000
0001
,
0100
0000
0001
0000
0010
0000
0001
0100
,
0010
0100
0010
1000
,
0010
0000
0100
0000
0001
0000
1000
0001
,
0010
0001
0101
0001
,
0100
0000
0010
0000
1010
0000
1000
0010
,
1000
1001
0100
0001
,
0011
0000
0001
0000
1000
0000
0001
1000
,
0002
0100
0203
0010
0302
1000
2003
0010
,
3200
0000
0000
1000
1300
0000
1000
0000
,
0002
0000
0000
0010
0013
0000
0001
1000
,
0020
0000
0000
0100
0130
0000
0010
0000
,
2000
0000
0000
0001
3001
0000
1000
0100
,
0010
0001
0100
0000
,
0001
0001
1000
1000
,
0010
1000
0100
0000
,
1000
1000
0100
0100
,
0010
0001
1000
0000
,
0001
0001
0100
0100
,
0001
0010
0001
1000
,
0010
0010
1000
1000
,
1001
0000
0110
0000
0000
1001
0220
0000
,
0000
0330
0010
1000
,
0010
0000
0100
0001
0100
0000
0001
0000
,
0010
0000
0001
1000
0001
0000
1000
0000
,
0100
0000
0010
0001
0010
0000
0001
0000
,
0100
0000
0010
1000
0010
0000
0100
0000
,
0001
0010
0001
1000
,
0100
0000
1000
0100
0001
0000
0100
0000
,
1000
0010
0100
0001
,
0010
0000
1000
0010
0001
0000
0000
0001
,
0001
0000
0000
1000
1000
0000
0000
0010
,
0010
0000
0100
0000
0101
0000
0000
0100
,
0100
0000
0000
0010
0010
0000
0000
1000
,
1000
0000
0001
0000
1001
0000
0000
0010
,
0010
0000
0000
1000
1000
0000
0000
0100
,
0100
0000
1000
0000
1001
0000
0000
0001
,
0001
0000
0000
1000
1000
0000
0000
0010
,
0010
0100
2002
0000
,
0000
3003
0001
0001
,
1000
1000
0010
0010
,
0100
0100
0001
0001
,
0010
0000
0000
0000
0010
0000
0000
0000
0001
0000
1000
0001
0010
0000
0000
0000
;

//---------------dance-single - ----------------
#NOTES:
     dance-single:
     :
     Medium:
     11:
     0.455279,0.447363,0.209293,0.199779,0.228319,335.000000,313.000000,22.000000,21.000000,0.000000,0.000000,0.455279,0.447363,0.209293,0.199779,0.228319,335.000000,313.000000,22.000000,21.000000,0.000000,0.000000:
1000
0000
0000
1000
0010
0000
0100
0000
0001
0000
0000
0001
0100
0000
0010
0000
,
1000
0000
0000
1000
0001
0000
1000
0000
0010
0000
1000
0000
1000
0000
0001
0000
,
0100
0000
0000
0100
0001
0000
0010
0000
0001
0000
0000
0001
1000
0000
0010
0000
,
1000
0000
0000
1000
0100
0000
1000
0000
0010
1000
0000
0001
0100
0001
0100
0001
,
0100
0000
0000
0100
0010
0000
0100
0000
0001
0000
0000
0001
0100
0000
0010
0000
,
1000
0000
0000
1000
0100
0000
1000
0000
0010
0100
0000
0001
1000
0001
1000
0001
,
1000
0000
0000
1000
0100
0000
0001
0000
0100
0000
0000
0100
1000
0000
0100
0000
,
0010
0000
0000
0010
0001
0000
0100
0000
0001
0100
0000
0001
1000
0010
1000
0010
,
1000
0010
0110
0001
0100
0010
1010
0001
,
1000
0000
0001
0000
0010
0000
0100
0000
1000
0000
0100
0000
0001
0000
0000
0100
,
1000
0100
0010
0100
1000
0001
0010
0001
,
0100
0000
1000
0000
0100
0000
0010
0000
0100
0000
0001
0000
0100
0000
0000
0100
,
0010
0000
1000
0000
0001
0000
0100
0000
0010
1000
0000
0100
1000
0100
1000
0100
,
1000
0000
0010
0010
1000
0000
0100
0000
,
1000
0000
1000
0000
0010
0000
0100
0000
0001
0000
1001
0000
0000
0011
0000
0000
,
0001
1000
1000
0010
0100
0000
0010
1000
,
0100
0000
0000
0000
1000
0000
0100
0000
0010
0000
0011
0000
0000
1001
0000
0000
,
1010
0010
0100
0001
0001
1000
0010
0000
,
0100
0000
0100
0000
0001
0000
1000
0000
0010
0000
1010
0000
0000
1001
0000
0000
,
1000
0100
0001
0100
1000
0010
0100
0001
,
0010
0000
0010
0000
0001
0000
0100
0000
0010
0000
1030
0000
0001
1000
0001
0000
,
2002
3000
0000
0000
0000
0000
0000
0000
0000
0000
0000
0000
0000
0000
0000
0000
0000
0000
0000
0000
0000
0000
0000
0000
0103
0000
0000
0000
0000
0000
0000
0000
0000
0000
0000
0000
0000
0000
0000
0000
0000
0000
0000
0000
0000
0000
0000
0000
0202
0003
0000
0000
0000
0000
0000
0000
0000
0000
0000
0000
0000
0000
0000
0000
0000
0000
0000
0000
0000
0000
0000
0000
0310
0000
0000
0000
0000
0000
0000
0000
0000
0000
0000
0000
0000
0000
0000
0000
0000
0000
0000
0000
0000
0000
0000
0000
1000
0000
0000
0000
0000
0000
0000
0000
0000
0000
0000
0000
0000
0000
0000
0000
0000
0000
0000
0000
0000
0000
0000
0000
2002
3000
0000
0000
0000
0000
0000
0000
0000
0000
0000
0000
0000
0000
0000
0000
0000
0000
0000
0000
0000
0000
0000
0000
2000
0000
0000
0000
0000
0000
0000
0000
0000
0000
0000
0000
0000
0000
0000
0000
0000
0000
0000
0000
0000
0000
0000
0000
0000
0000
0000
0000
0000
0000
0000
0000
0000
0000
0000
0000
0000
0000
0000
0000
0000
0000
0000
0000
0000
0000
0000
0000
,
0000
0000
0000
3003
1000
0010
0001
0000
,
0001
0000
0010
0000
1000
0000
0000
0000
1000
0000
0010
0000
0100
0000
0000
0010
,
0000
1000
0010
0100
0001
0100
1000
0000
,
1000
0000
0100
0000
0001
0000
0000
0000
0001
0000
1000
0000
0010
0000
1000
0100
,
0000
0000
1000
0000
0001
1000
0000
0000
0100
0000
1000
0000
0010
0000
0000
0100
,
0000
0000
0001
0000
0010
0000
0100
0000
1000
0000
0100
0000
0001
0000
0000
1000
,
0000
0000
0010
0000
0100
0000
1000
0000
0010
0000
0100
0000
0001
0000
0000
1000
,
0000
0001
0010
1000
0001
0100
0010
0001
,
1000
1000
0001
0100
0002
0000
1000
2003
,
0000
0010
3020
0000
0100
0230
0000
0301
,
1000
0000
1001
0000
0000
0110
0000
0000
2001
0000
0000
0000
0100
0000
3200
0000
,
0000
1000
2300
0000
0010
3020
0000
0130
,
0001
0000
1001
0000
0000
1100
0000
0000
0101
0000
0000
0000
1000
0000
0100
0000
,
0001
0000
0001
0100
1000
0000
1000
0010
,
0100
0000
0110
0000
0000
0101
0000
0000
0011
0000
0000
0000
0001
0000
0010
0000
,
1000
0000
1000
0010
0001
0000
0001
0010
,
0001
0000
0001
0000
1000
0001
1000
0002
2000
0000
0000
0000
0000
0000
0000
0000
,
0000
3003
0000
2000
3010
1000
0100
1000
,
0010
0010
0010
0200
0301
0010
0001
1000
,
0100
0100
0100
2000
3010
0100
0001
0010
,
0100
0100
0100
2000
3001
1000
1001
0000
;

//---------------dance-single - ----------------
#NOTES:
     dance-single:
     :
     Hard:
     14:
     0.699907,0.671044,0.190266,0.142699,1.013166,515.000000,495.000000,20.000000,15.000000,0.000000,0.000000,0.699907,0.671044,0.190266,0.142699,1.013166,515.000000,495.000000,20.000000,15.000000,0.000000,0.000000:
// measure 0
1000
0010
0000
1000
0100
1000
0100
1000
0001
1000
0000
0001
0010
0001
0010
0001
,  // measure 1
1000
0001
0000
0100
0010
0100
0010
1000
0010
1000
0000
0001
1000
0000
0100
1000
,  // measure 2
0001
1000
0000
0001
0010
0001
0010
0001
0100
0010
0000
1000
0010
1000
0010
0100
,  // measure 3
0001
0100
0000
0001
1000
0100
1000
0100
0010
0001
0000
0001
1000
0000
0001
0100
,  // measure 4
0001
1000
0000
1000
0010
0000
0100
0000
0001
0010
0000
0010
0001
0100
0001
0100
,  // measure 5
0001
1000
0000
1000
0010
0000
0100
0000
0001
0100
0010
1000
0100
0010
0001
0000
,  // measure 6
1000
0100
0000
0100
1000
0000
0010
0000
0100
0001
0000
0001
1000
0010
1000
0100
,  // measure 7
1000
0100
0000
0100
1000
0000
0010
0000
0100
0001
0010
0100
1000
0100
0010
0001
,  // measure 8
1000
0000
0000
0000
0001
0000
0000
0000
0010
0010
0000
0000
1001
0000
0000
0000
0100
0000
0000
0000
0010
0000
0000
0000
0100
0100
0000
0000
1001
0000
0000
0000
,  // measure 9
0010
0100
0000
0010
1000
0010
0100
0001
0100
0010
0000
0010
1000
0100
0010
0001
,  // measure 10
0010
0100
0000
0100
1000
0000
1000
0001
1000
0001
0000
1000
0001
0000
0100
0001
,  // measure 11
0100
0001
0000
0001
1000
0010
0100
0001
0100
0010
0000
0010
1000
0000
1000
0100
,  // measure 12
0001
0100
0000
0100
1000
0000
1000
0010
0100
0001
0000
0001
1000
0010
1000
0010
,  // measure 13
0100
0000
0001
0100
0001
0000
1000
0000
0010
0000
1000
0100
1000
0000
0001
0000
,  // measure 14
0010
0000
0010
0000
0010
0000
0010
0000
0011
0000
1001
0000
0000
1100
0000
1000
,  // measure 15
0010
0000
0010
0100
0001
0000
1000
0000
0001
0000
0100
0010
1000
0000
0100
0010
,  // measure 16
0001
0000
0001
0000
0100
0000
0010
0000
1000
0000
1001
0000
0000
0110
0000
0010
,  // measure 17
1000
0000
1000
0100
0001
0000
0100
0000
1000
0000
0010
0100
0001
0000
0010
0001
,  // measure 18
1000
0000
1000
0000
1000
0000
1000
0000
1100
0000
1010
0000
0000
1001
0000
0001
,  // measure 19
0100
0000
0010
1000
0001
0000
0100
0000
0010
0000
1000
0100
0010
0000
0001
0000
,  // measure 20
0010
0000
1000
0000
0010
0000
0001
0000
0100
0001
0100
0001
1000
0010
1000
0010
,  // measure 21
0220
0030
0000
0000
0000
0000
0000
0000
0000
0000
0000
0000
0000
0000
0000
0000
0000
0000
0000
0000
0000
0000
0000
0000
0301
0000
0000
0000
0000
0000
0000
0000
0000
0000
0000
0000
0000
0000
0000
0000
0000
0000
0000
0000
0000
0000
0000
0000
2002
3000
0000
0000
0000
0000
0000
0000
0000
0000
0000
0000
0000
0000
0000
0000
0000
0000
0000
0000
0000
0000
0000
0000
1003
0000
0000
0000
0000
0000
0000
0000
0000
0000
0000
0000
0000
0000
0000
0000
0000
0000
0000
0000
0000
0000
0000
0000
0010
0000
0000
0000
0000
0000
0000
0000
0000
0000
0000
0000
0000
0000
0000
0000
0000
0000
0000
0000
0000
0000
0000
0000
0220
0030
0000
0000
0000
0000
0000
0000
0000
0000
0000
0000
0000
0000
0000
0000
0000
0000
0000
0000
0000
0000
0000
0000
0301
0000
0000
0000
0000
0000
0000
0000
0000
0000
0000
0000
0000
0000
0000
0000
0000
0000
0000
0000
0000
0000
0000
0000
0100
0000
0000
0000
0000
0000
0000
0000
0000
0000
0000
0000
0001
0000
0000
0000
0000
0000
0000
0000
0000
0000
0000
0000
,  // measure 22
1000
0010
0000
0100
0000
0001
0010
0100
1000
0000
0010
0000
0200
0000
0000
0001
,  // measure 23
0000
0301
0100
0000
0010
0000
1000
0000
0100
0000
0001
0000
0200
0000
0000
1000
,  // measure 24
0000
1300
0001
0000
0001
0100
0001
0000
0001
0000
1000
0000
0020
0000
0000
0100
,  // measure 25
0000
0130
0001
0000
1000
0000
0010
0000
0100
0000
0001
0000
0010
0000
0001
1000
,  // measure 26
0000
1000
0010
0000
0010
0100
0000
0100
0001
0000
0010
0000
0001
0000
0001
1000
,  // measure 27
0000
1000
0100
0000
0100
0000
1000
0010
0100
0000
0010
0000
0100
0000
0001
0010
,  // measure 28
0000
0010
0001
1000
0010
0000
0110
0000
0010
0000
1000
0000
0100
0000
1000
0100
,  // measure 29
0000
0100
0001
0000
0100
0000
1000
0100
0010
0000
0001
0000
0100
0000
0001
1000
,  // measure 30
0000
1000
0001
0000
0100
0010
0000
0010
1000
0100
1000
0100
1000
0100
0001
0100
,  // measure 31
0001
0100
0001
0100
1000
0100
0010
0001
0100
0010
1000
0100
0010
0001
0100
0010
,  // measure 32
1000
0000
1001
0000
0000
0101
0000
0001
0100
0010
0100
0010
0100
0010
0100
1000
,  // measure 33
0100
1000
0100
1000
0100
0001
0100
0001
0100
0001
0100
0010
1000
0001
0100
0010
,  // measure 34
1000
0000
1001
0000
0000
0110
0000
0010
1000
0100
0001
0100
1000
0100
0010
0100
,  // measure 35
1000
0010
0100
0010
1000
0001
1000
0100
0010
0100
1000
0010
1000
0001
0100
0001
,  // measure 36
0010
0000
0011
0000
0000
1001
0000
0001
0100
0001
0010
0001
0100
0010
1000
0100
,  // measure 37
0001
0100
1000
0010
0100
0010
1000
0100
0010
0001
0100
0010
1000
0001
0100
0001
,  // measure 38
1000
0010
0001
0010
1000
0100
0010
0002
2000
0000
0000
0000
0000
0000
0000
0000
,  // measure 39
0000
0000
3003
0000
0000
0000
0002
0000
0103
0000
0001
1000
0100
0010
0001
0010
,  // measure 40
0100
1000
0000
1000
0100
0000
2000
0000
3010
0000
1000
0001
0010
0001
1000
0001
,  // measure 41
0010
0001
0000
0001
0100
0000
0020
0000
1030
0000
0001
0100
1000
0100
0001
0100
,  // measure 42
1000
0000
0100
0000
0000
0000
0001
0000
0100
0000
0000
0000
0020
0000
0000
0000
1030
0010
0000
1000
0100
0010
0001
1000
0010
0000
0000
0000
0000
0000
0000
0000
;
