#VERSION:0.83;
#TITLE:Jack and Mark Get Busy!;
#SUBTITLE:;
#ARTIST:Distant Soundz Feat. MC Image;
#TITLETRANSLIT:;
#SUBTITLETRANSLIT:;
#ARTISTTRANSLIT:;
#GENRE:;
#ORIGIN:;
#TAGS:;
#CREDIT:;
#BANNER:Jack and Mark Get Busy!.png;
#BACKGROUND:Jack and Mark Get Busy!-bg.png;
#PREVIEWVID:;
#JACKET:Jack and Mark Get Busy!-jacket.png;
#CDIMAGE:;
#DISCIMAGE:;
#LYRICSPATH:;
#CDTITLE:Beatmania III.png;
#MUSIC:Jack and Mark Get Busy!.ogg;
#OFFSET:0.000000;
#SAMPLESTART:34.025002;
#SAMPLELENGTH:15.000000;
#SELECTABLE:YES;
#DISPLAYBPM:134.000000;
#BPMS:0.000000=134.000000
;
#STOPS:;
#DELAYS:;
#WARPS:;
#TIMESIGNATURES:0.000000=4=4
;
#TICKCOUNTS:0.000000=4
;
#COMBOS:0.000000=1
;
#SPEEDS:0.000000=1.000000=0.000000=0
;
#SCROLLS:0.000000=1.000000
;
#LABELS:0.000000=Song Start
;
#BGCHANGES:12.000=wall1.mp4=1.000=1=0=1===CrossFade==,
18.000=car4.mp4=1.000=0=0=1=====,
20.000=wall1r.mp4=1.000=0=0=1=====,
26.000=jewelry1.mp4=1.000=0=0=1=====,
28.000=bubble1.mp4=1.000=0=0=1=====,
36.000=bracelet1.mp4=1.000=0=0=1=====,
40.000=bracelet1.mp4=0.001=0=0=1=====,
40.500=bracelet1.mp4=1.000=0=0=1=====,
41.000=bracelet1.mp4=0.001=0=0=1=====,
41.500=bracelet1.mp4=1.000=0=0=1=====,
42.000=bracelet1.mp4=0.001=0=0=1=====,
44.000=cube3.mp4=1.000=0=0=1=====,
52.000=butterfly1.mp4=1.000=0=0=1=====,
60.000=highway1.mp4=1.000=0=0=1=====,
68.000=highway2.mp4=1.000=0=0=1=====,
76.000=cube3.mp4=1.000=0=1=1=StretchRewind====,
84.000=butterfly1.mp4=1.000=0=1=1=StretchRewind====,
92.000=highway1.mp4=1.000=0=1=1=StretchRewind====,
100.000=highway2.mp4=1.000=0=1=1=StretchRewind====,
108.000=night1.mp4=1.000=0=0=1=====,
116.000=bracelet1.mp4=1.000=0=1=1=StretchRewind====,
124.000=night1.mp4=1.000=0=0=1=====,
132.000=bracelet1.mp4=1.000=0=0=1=====,
140.000=blackhole1.mp4=1.000=0=0=1=====,
146.000=candy2.mp4=1.400=0=0=1=====,
148.000=aliens2.mp4=1.000=0=0=1=====,
152.000=aliens2.mp4=0.001=0=0=1=====,
152.500=aliens2.mp4=1.000=0=0=1=====,
153.000=aliens2.mp4=0.001=0=0=1=====,
153.500=aliens2.mp4=1.000=0=0=1=====,
154.000=aliens2.mp4=0.001=0=0=1=====,
156.000=blackhole1.mp4=1.000=0=0=1=====,
164.000=candy2.mp4=1.400=0=0=1=====,
172.000=highway1.mp4=1.000=0=1=1=StretchRewind====,
180.000=highway2.mp4=1.000=0=1=1=StretchRewind====,
188.000=blackhole1.mp4=1.000=0=0=1=====,
196.000=candy2.mp4=1.400=0=0=1=====,
204.000=highway1.mp4=1.000=0=1=1=StretchRewind====,
212.000=Jack and Mark Get Busy!-bg.png=1.000=0=0=1=====,
99999=-nosongbg-=1.000=0=0=0 // don't automatically add -songbackground-
;
#KEYSOUNDS:;
#ATTACKS:
;

//---------------dance-single - ----------------
#NOTEDATA:;
#CHARTNAME:BEGINNER;
#CHARTHASH:4044983687;
#STEPSTYPE:dance-single;
#BANNER:;
#DESCRIPTION:;
#CHARTSTYLE:;
#DIFFICULTY:Beginner;
#METER:2;
#METERF:2.000000;
#LASTSECONDHINT:94.029854;
#RADARVALUES:0.000000,0.000000,0.000000,0.000000,0.000000,0.000000,0.000000,0.000000,0.000000,0.000000,0.000000,0.000000,0.000000,0.000000,0.000000,0.000000,0.000000,0.000000,0.000000,0.000000,0.000000,0.000000,0.000000,0.000000,0.000000,0.000000,0.000000,0.000000;
#CREDIT:KONAMI;
#DISPLAYBPM:134.000000;
#NOTES:
0000
0000
0000
0000
,
0000
0000
0000
0000
,
0000
0000
0000
0000
,
0010
0000
1000
0000
,
0001
0000
0000
0000
,
0100
0000
0010
0000
,
1000
0000
0001
0000
,
0100
0000
0010
0000
,
1000
0000
0000
0000
,
0001
0000
1000
0000
,
0010
0000
0100
0000
,
0001
0000
0001
0000
,
1000
0000
1000
0000
,
0100
0000
0100
0000
,
0001
0000
0001
0000
,
0100
0000
0100
0000
,
1000
0000
1000
0000
,
0010
0000
0010
0000
,
0001
0000
0001
0000
,
0010
0000
0010
0000
,
0100
0000
0010
0000
,
1000
0000
0001
0000
,
0100
0000
0001
0000
,
0100
0000
0010
0000
,
1000
0000
0001
0000
,
1000
0000
0100
0000
,
1001
0000
0000
0000
,
0001
0000
1000
0000
,
0001
0000
1000
0000
,
0010
0000
0100
0000
,
0010
0000
0100
0000
,
0001
0000
0001
0000
,
1000
0000
1000
0000
,
0010
0000
0010
0000
,
0100
0000
0100
0000
,
0001
0000
0001
0000
,
0100
0000
0000
0000
,
0010
0000
0010
0000
,
1000
0000
0000
0000
,
0010
0000
0010
0000
,
0001
0000
0001
0000
,
0100
0000
0100
0000
,
1000
0000
1000
0000
,
0001
0000
0001
0000
,
0001
0000
0001
0000
,
1000
0000
1000
0000
,
0010
0000
0010
0000
,
0001
0000
0001
0000
,
0010
0000
0010
0000
,
0010
0000
0010
0000
,
0001
0000
0001
0000
,
0100
0000
0100
0000
,
1000
0000
1001
0000
;

//---------------dance-single - ----------------
#NOTEDATA:;
#CHARTNAME:EXPERT;
#CHARTHASH:2530013386;
#STEPSTYPE:dance-single;
#BANNER:;
#DESCRIPTION:;
#CHARTSTYLE:;
#DIFFICULTY:Hard;
#METER:8;
#METERF:8.000000;
#LASTSECONDHINT:96.268654;
#RADARVALUES:0.000000,0.000000,0.000000,0.000000,0.000000,0.000000,0.000000,0.000000,0.000000,0.000000,0.000000,0.000000,0.000000,0.000000,0.000000,0.000000,0.000000,0.000000,0.000000,0.000000,0.000000,0.000000,0.000000,0.000000,0.000000,0.000000,0.000000,0.000000;
#CREDIT:KONAMI;
#DISPLAYBPM:134.000000;
#NOTES:
0000
0000
0000
0000
,
0000
0000
0000
0000
,
0000
0000
0000
0000
,
1001
0000
0110
0000
,
2002
0000
0000
3003
,
1010
0000
0011
0000
,
1001
0000
1000
0100
0000
0100
0000
0000
,
0101
0000
1100
0000
,
0220
0000
0000
0330
,
1001
0000
0110
0000
,
0001
1001
1000
1001
,
0002
0000
0000
0000
1003
0000
0000
0100
0000
0000
0000
0000
0000
0000
0100
0000
,
1000
0000
0000
0000
1000
0000
0000
0100
0000
0000
0000
0000
0010
0000
0000
0000
,
0200
0000
0000
0000
0310
0000
0000
0001
0000
0000
0000
0000
0000
0000
0001
0000
,
0010
0000
0000
0000
0010
0000
0000
0001
0000
0000
0000
0000
0100
0000
0000
0000
,
2000
0000
0000
0000
3100
0000
0000
0010
0000
0000
0000
0000
0000
0000
0010
0000
,
0100
0000
0000
0000
0100
0000
0000
0010
0000
0000
0000
0000
1000
0000
0000
0000
,
0200
0000
0000
0000
1300
0000
0000
0001
0000
0000
0000
0000
0000
0000
0001
0000
,
1000
0000
0000
0000
1000
0000
0000
0001
0000
0000
0000
0000
0100
0000
0000
0000
,
0010
0001
0100
0000
0010
1000
0100
0000
,
1000
0001
0100
0000
0000
0000
0000
0000
,
0001
0001
0100
0000
1000
1000
0100
0000
,
0010
0010
0100
0000
0000
0000
0000
0000
,
0010
1000
0100
0000
0010
0001
0100
0000
,
0001
1000
0100
0000
0000
0000
0000
0000
,
1000
1000
0100
0000
0001
0001
0100
0000
,
2002
0000
0000
3003
,
1000
1000
0100
0010
0001
0001
0000
0010
,
0010
0001
1000
0100
0100
0100
0000
1000
,
1000
0010
0100
0001
0001
0001
0000
0100
,
0100
0010
1000
0100
0100
0100
0000
0010
,
0010
0001
0100
0010
0010
0010
0000
1000
,
1000
0100
1000
0001
0001
0001
0000
0010
,
0010
0001
0100
1000
1000
1000
0000
0100
,
0001
1000
0001
1000
,
0001
0001
0100
0000
1000
1000
0100
0000
,
0010
0010
0100
0000
0000
0000
0000
0000
,
1000
1000
0010
0000
0001
0001
0010
0000
,
0001
1000
1001
0000
,
0010
1000
0100
0000
0010
0001
0100
0000
,
0001
1000
0100
0000
0200
0000
0300
0000
,
1000
0001
0010
0000
0001
1000
0010
0000
,
0100
0001
0010
0000
0020
0000
0030
0000
,
0001
0010
0100
0000
1000
0100
0010
0000
,
0100
0010
0001
0000
0002
0000
0003
0000
,
1000
0001
1000
0000
1000
0100
0001
0000
,
0001
0100
1000
0000
2000
0000
3000
0000
,
0000
0010
0001
0010
0000
0100
1000
0100
,
0000
1000
0001
1000
0000
0000
0000
0000
,
0000
0100
1000
0100
0000
0010
0001
0010
,
0000
0001
1000
0001
0000
0000
0000
0000
,
0000
0100
0010
0100
0000
0010
0100
0010
,
0000
1000
0001
2000
0000
0000
0000
0000
,
0000
0000
0000
3000
;

//---------------dance-single - ----------------
#NOTEDATA:;
#CHARTNAME:DIFFICULT;
#CHARTHASH:1749171584;
#STEPSTYPE:dance-single;
#BANNER:;
#DESCRIPTION:;
#CHARTSTYLE:;
#DIFFICULTY:Medium;
#METER:6;
#METERF:6.000000;
#LASTSECONDHINT:96.268654;
#RADARVALUES:0.000000,0.000000,0.000000,0.000000,0.000000,0.000000,0.000000,0.000000,0.000000,0.000000,0.000000,0.000000,0.000000,0.000000,0.000000,0.000000,0.000000,0.000000,0.000000,0.000000,0.000000,0.000000,0.000000,0.000000,0.000000,0.000000,0.000000,0.000000;
#CREDIT:KONAMI;
#DISPLAYBPM:134.000000;
#NOTES:
0000
0000
0000
0000
,
0000
0000
0000
0000
,
0000
0000
0000
0000
,
0010
0000
1000
0000
,
0002
0000
0000
0003
,
0100
0000
0010
0000
,
1000
1000
0001
0001
,
0100
0000
0010
0000
,
2000
0000
0000
3000
,
0001
0000
1000
0000
,
0010
0110
0100
0110
,
0010
1000
0001
1000
,
0100
0000
1000
0000
0001
0000
1000
0001
,
1000
0010
1000
0100
,
1000
0000
0001
0000
0010
0000
0001
0010
,
0001
0100
0001
1000
,
0001
0000
0100
0000
0010
0000
0100
0010
,
0100
0001
1000
0010
,
1000
0000
0100
0000
0010
0000
0001
0010
,
0001
0100
0010
0100
,
0010
1000
0200
0000
0000
0000
0300
0000
,
0001
1000
0100
0000
0010
0000
0001
0000
,
0010
0100
2000
0000
0000
0000
3000
0000
,
0010
0100
0001
0000
1000
0000
0100
0000
,
1000
0001
0200
0000
0000
0000
0300
0000
,
0010
1000
0100
0000
0001
0000
0100
0000
,
2002
0000
0000
3003
,
0000
0010
0000
0001
0000
1000
0000
0001
,
0000
0100
0000
0010
0000
0100
0000
0001
,
0000
1000
0000
0010
0000
0100
0000
0001
,
0000
1000
0000
0100
0000
1000
0000
0010
,
0000
0100
0000
0001
0000
0010
0000
0001
,
0000
1000
0000
0100
0000
1000
0000
0100
,
0000
0010
0000
0001
0000
1000
0000
0001
,
1000
0010
0100
0001
,
1000
0001
0100
0000
0010
0000
0100
0000
,
0010
1000
0200
0000
0000
0000
0300
0000
,
1000
0001
0010
0000
0010
0001
1000
0000
,
0001
0001
1001
0000
,
0100
0001
1000
0001
,
0010
0000
0001
0000
0100
0000
0001
0100
,
0001
1000
0100
1000
,
0010
0000
1000
0000
0001
0000
0010
0001
,
0010
0100
1000
0010
,
0100
0000
1000
0000
0100
0000
0001
0100
,
0001
0100
0010
1000
,
0001
0000
0010
0000
0100
0000
1000
0001
,
1000
0010
1000
0001
,
0100
0000
0001
0000
0010
0000
0100
0010
,
0100
1000
0001
1000
,
0100
0000
0010
0000
0001
0000
0100
1000
,
0100
0001
0010
0100
,
1000
0001
0220
0000
,
0000
0000
0000
0330
;

//---------------dance-single - ----------------
#NOTEDATA:;
#CHARTNAME:BASIC;
#CHARTHASH:1919904879;
#STEPSTYPE:dance-single;
#BANNER:;
#DESCRIPTION:;
#CHARTSTYLE:;
#DIFFICULTY:Easy;
#METER:5;
#METERF:5.000000;
#LASTSECONDHINT:96.268654;
#RADARVALUES:0.000000,0.000000,0.000000,0.000000,0.000000,0.000000,0.000000,0.000000,0.000000,0.000000,0.000000,0.000000,0.000000,0.000000,0.000000,0.000000,0.000000,0.000000,0.000000,0.000000,0.000000,0.000000,0.000000,0.000000,0.000000,0.000000,0.000000,0.000000;
#CREDIT:KONAMI;
#DISPLAYBPM:134.000000;
#NOTES:
0000
0000
0000
0000
,
0000
0000
0000
0000
,
0000
0000
0000
0000
,
0010
0000
1000
0000
,
0002
0000
0000
0003
,
0100
0000
0010
0000
,
1000
1000
0001
0001
,
0100
0000
0010
0000
,
2000
0000
0000
3000
,
0001
0000
1000
0000
,
0010
0010
0100
0100
,
0001
1000
0001
0000
,
1000
0010
1000
0010
,
0100
0001
0100
0000
,
0001
1000
0001
1000
,
0100
0010
0100
0000
,
1000
0100
1000
0100
,
0010
0001
0010
0000
,
0001
0100
0001
0100
,
0010
1000
0010
0000
,
0100
0000
0010
0000
,
1000
1000
0001
0000
,
0100
0000
0001
0000
,
0100
0100
0010
0000
,
1000
0000
0001
0000
,
1000
1000
0100
0000
,
2002
0000
0000
3003
,
0001
0001
1000
1000
,
0001
0001
1000
1000
,
0010
0010
0100
0100
,
0010
0010
0100
0100
,
0001
0001
0001
0001
,
1000
1000
1000
1000
,
0010
0010
0010
0010
,
0100
0100
0100
0100
,
0001
1000
0001
1000
,
0200
0000
0000
0300
,
0010
0100
0010
0100
,
2000
0000
0000
3000
,
0010
1000
0010
1000
,
0001
0100
0001
0000
,
0100
0010
0100
0010
,
1000
0010
1000
0000
,
0001
1000
0001
1000
,
0001
0100
0001
0000
,
1000
0100
1000
0100
,
0010
0001
0010
0000
,
0001
1000
0001
1000
,
0010
0100
0010
0000
,
0010
1000
0010
1000
,
0001
0100
0001
0000
,
0100
0010
0100
0010
,
1000
0001
2002
0000
,
0000
0000
0000
3003
;

//---------------dance-single - ----------------
#NOTEDATA:;
#CHARTNAME:CHALLENGE;
#CHARTHASH:1919904879;
#STEPSTYPE:dance-single;
#BANNER:;
#DESCRIPTION:;
#CHARTSTYLE:;
#DIFFICULTY:Challenge;
#METER:14;
#METERF:14.000000;
#LASTSECONDHINT:96.268654;
#RADARVALUES:0.640538,0.621418,0.261385,0.201066,0.683623,446.000000,420.000000,26.000000,20.000000,0.000000,0.000000,0.000000,0.000000,0.000000,0.640538,0.621418,0.261385,0.201066,0.683623,446.000000,420.000000,26.000000,20.000000,0.000000,0.000000,0.000000,0.000000,0.000000;
#CREDIT:YonabearCWY;
#DISPLAYBPM:134.000000;
#NOTES:
// measure 0
0000
0000
0000
0000
,  // measure 1
0000
0000
0000
0000
,  // measure 2
0000
0000
0000
0000
,  // measure 3
1000
0000
1000
0010
0000
0000
0100
0000
0000
0100
0000
0000
0001
0000
0001
1000
0000
0000
0100
0000
0000
0000
0000
0000
,  // measure 4
1000
0000
1000
0001
0000
0000
0010
0000
0000
0000
0000
0000
0001
0000
0000
0100
0000
0000
0010
0000
0000
0000
0000
0000
,  // measure 5
0100
0000
0100
0010
0000
0000
0100
0000
0000
0100
0000
0000
0001
0000
0001
1000
0000
0000
0010
0000
0000
0000
0000
0000
,  // measure 6
1000
0000
1000
0001
0000
0000
0010
0000
0000
0000
0000
0000
0001
0000
0000
1000
0000
0000
0100
0000
0000
0000
0000
0000
,  // measure 7
2100
0000
0000
0100
0000
0000
3100
0000
0000
0000
0000
0010
0000
0000
0001
1000
0000
0000
0100
0000
0000
0000
0000
0000
,  // measure 8
1000
0000
0010
1000
0000
0000
0001
0000
0000
0100
0000
0000
0010
0000
0000
0000
0000
0000
1000
0000
0000
0100
0000
0000
,  // measure 9
0012
0000
0000
0010
0000
0000
0013
0000
0000
0000
0000
0100
0000
0000
1000
0001
0000
0000
0100
0000
0000
0000
0000
0000
,  // measure 10
0110
1001
0220
0330
,  // measure 11
1000
0010
1000
0010
1000
0000
0001
0100
0000
0000
0001
0000
1000
0000
0000
0000
,  // measure 12
0100
0000
0010
0001
0000
0100
0001
0000
1000
0001
0000
1000
0010
0000
0100
0000
,  // measure 13
0001
0000
1000
0100
1000
0100
1000
0100
0000
1000
0000
0001
1000
0000
0000
0000
,  // measure 14
0010
0000
0000
2020
0000
0000
3030
0000
0100
0001
0000
0202
0000
0000
0303
0000
,  // measure 15
0001
1000
0000
0010
1000
0000
1000
0000
1000
0000
0000
0000
0100
0010
0000
0010
,  // measure 16
0001
0000
0001
0000
0001
0000
0000
0000
1000
0001
0000
1000
0010
0000
0100
0000
,  // measure 17
0101
0000
0001
0100
1000
0100
0010
1000
,  // measure 18
0100
0001
0100
0010
0100
1000
1001
0000
,  // measure 19
0001
0100
0001
0100
0001
0000
1000
0010
0000
0000
0100
0000
0001
0000
0000
0000
,  // measure 20
0010
0000
0001
1000
0000
0100
1000
0000
0001
0010
0000
0001
1000
0000
0100
0000
,  // measure 21
0010
0000
0001
0100
0001
0100
0001
0100
0000
0010
0000
1000
0010
0000
1000
0000
,  // measure 22
0001
0000
0000
2002
0000
0000
3003
0000
1000
0010
0000
2020
0000
0000
3030
0000
,  // measure 23
1000
0100
0000
1000
0001
0000
0001
0000
0001
0000
0000
0000
0010
0100
0000
0100
,  // measure 24
1000
0000
1000
0000
1000
0000
0000
0000
0001
0010
0000
0001
1000
0000
0100
0000
,  // measure 25
1100
0000
1000
0010
0100
0001
0010
1000
,  // measure 26
0011
0000
0000
0000
0000
0000
1001
0000
0000
0000
0000
1000
0000
0000
1000
0010
0000
0000
0110
0000
0000
0000
0000
0000
,  // measure 27
1001
0000
0000
1000
0000
0010
1000
0000
0000
0200
0000
1000
0000
0000
1300
0000
0000
1000
0100
0000
0000
0000
0000
0000
,  // measure 28
1000
0000
1000
0001
0000
0000
0010
0000
0000
1000
0000
0000
0010
0000
0001
0010
0000
0000
0001
0000
0000
0100
0000
0000
,  // measure 29
0101
0000
0000
0001
0000
1000
0001
0000
0000
0002
0000
0100
0000
0000
0103
0000
0000
0100
0010
0000
0000
0000
0000
0000
,  // measure 30
0010
0000
0000
0000
0010
0000
1000
0000
0000
0000
0000
0000
0100
0000
0000
0000
0000
0000
0010
0000
0000
0000
0000
0000
0100
0000
0000
0000
1000
0000
0100
0000
0000
0000
0000
0000
0010
0000
0000
0000
0000
0000
0001
0000
0000
1000
0000
0000
,  // measure 31
0001
0000
0000
1000
0000
0000
0200
0000
0000
0000
0000
0010
0000
0000
0310
0000
0000
0010
0100
0000
0000
0010
0000
0000
,  // measure 32
0001
0000
0000
0000
1000
0000
0100
0000
0000
0000
0000
0000
1000
0000
0000
0000
0000
0000
0001
0000
0000
0000
0000
0000
0100
0000
0000
0000
0001
0000
1000
0000
0000
0000
0000
0000
0100
0000
0000
0000
0000
0000
0010
0000
0000
0100
0000
0000
,  // measure 33
0010
0000
0000
0001
0000
0000
0020
0000
0000
0000
0000
0001
0000
0000
0031
0000
0000
0001
1000
0000
0000
0100
0000
0000
,  // measure 34
1000
0000
1000
0001
0000
0000
0010
0000
0000
0001
0000
0000
0000
0000
0001
0100
0000
0000
0010
0000
0000
1000
0000
0010
,  // measure 35
1000
0000
0010
1000
0000
0000
0001
0000
0000
0000
0000
1000
0100
0000
1000
0100
0000
0000
0010
0000
0000
0000
0000
0000
,  // measure 36
0001
0000
0001
0100
0000
0000
0010
0000
0000
0000
0000
0000
1000
0000
0000
0100
0000
0000
0001
0000
0000
0000
0000
0100
,  // measure 37
1000
0000
0100
1000
0000
0000
0001
0000
0000
0000
0000
1000
0001
0000
1000
0001
0000
0000
0010
0000
0000
0000
0000
0000
,  // measure 38
0101
1010
0202
0303
,  // measure 39
0001
1000
0010
1000
0010
0000
0010
1000
0000
1000
0000
1000
0001
0000
0000
0000
,  // measure 40
0001
0000
0100
0010
0000
1000
0010
0000
0100
0001
0000
1000
0010
0000
0100
0000
,  // measure 41
0001
0000
1000
0100
1000
0100
1000
0001
0000
0100
0000
0001
1000
0000
0010
0000
,  // measure 42
0100
0000
0000
0101
0000
0001
1000
0000
1000
0100
0000
1100
0000
0000
1000
0000
,  // measure 43
0001
1000
0000
0100
1000
0000
1000
0000
1000
0000
0000
0000
1000
0001
0000
0010
,  // measure 44
0100
0000
0100
0000
0100
0000
0000
0000
0010
0001
0000
1000
0100
0000
0100
0000
,  // measure 45
1001
0000
0001
1000
0100
0010
0100
1000
,  // measure 46
0001
0010
0100
0010
0001
1000
1001
0000
,  // measure 47
1000
0100
1000
0100
0010
0000
0010
0001
0000
0001
0000
0001
1000
0000
0100
0000
,  // measure 48
1000
0000
0001
1000
0000
0100
0010
0000
0010
0001
0000
1000
0100
0000
0001
0000
,  // measure 49
0100
0000
1000
0100
1000
0100
0010
0001
0000
0010
0000
0001
1000
0000
0100
0000
,  // measure 50
1000
0000
0000
1001
0000
0001
0010
0000
0010
0001
0000
0101
0000
0000
0100
0000
,  // measure 51
0010
1000
0000
0010
0100
0000
0100
0000
0100
0000
0000
0000
0001
1000
0000
0100
,  // measure 52
0010
0000
0010
0000
0010
0000
0000
0000
0001
0100
0000
0001
1000
0000
0020
0000
,  // measure 53
2000
0000
0000
3030
;

//---------------dance-double - ----------------
#NOTEDATA:;
#CHARTNAME:BASIC;
#CHARTHASH:1564108731;
#STEPSTYPE:dance-double;
#BANNER:;
#DESCRIPTION:;
#CHARTSTYLE:;
#DIFFICULTY:Easy;
#METER:5;
#METERF:5.000000;
#LASTSECONDHINT:96.268654;
#RADARVALUES:0.000000,0.000000,0.000000,0.000000,0.000000,0.000000,0.000000,0.000000,0.000000,0.000000,0.000000,0.000000,0.000000,0.000000,0.000000,0.000000,0.000000,0.000000,0.000000,0.000000,0.000000,0.000000,0.000000,0.000000,0.000000,0.000000,0.000000,0.000000;
#CREDIT:KONAMI;
#DISPLAYBPM:134.000000;
#NOTES:
00000000
00000000
00000000
00000000
,
00000000
00000000
00000000
00000000
,
00000000
00000000
00000000
00000000
,
00001000
00000000
00010000
00000000
,
00022000
00000000
00000000
00033000
,
00001000
00000000
00000100
00000000
,
00000001
00000001
00000010
00000010
,
00000001
00000000
00000100
00000000
,
00002000
00000000
00000000
00003000
,
00010000
00000000
01000000
00000000
,
10000000
10000000
00100000
00100000
,
10000000
01000000
00100000
00000000
,
01000000
00010000
01000000
00010000
,
00001000
00010000
00001000
00000000
,
00000010
00000001
00000010
00000001
,
00000100
00001000
00000100
00000000
,
00001000
00010000
00001000
00010000
,
01000000
00010000
01000000
00000000
,
10000000
01000000
10000000
01000000
,
00100000
01000000
00100000
00000000
,
01000000
00000000
00010000
00000000
,
00001000
00001000
00010000
00000000
,
00001000
00000000
00000100
00000000
,
00000001
00000001
00000010
00000000
,
00000001
00000000
00000100
00000000
,
00001000
00001000
00000100
00000000
,
00022000
00000000
00000000
00033000
,
00010000
00010000
01000000
01000000
,
10000000
10000000
00100000
00100000
,
10000000
10000000
01000000
01000000
,
00010000
00010000
00001000
00001000
,
00010000
00010000
00010000
00010000
,
00001000
00001000
00001000
00001000
,
00000100
00000100
00000100
00000100
,
00000010
00000010
00000010
00000010
,
00001000
00000100
00001000
00000100
,
00020000
00000000
00000000
00030000
,
00010000
00001000
00010000
00001000
,
00020000
00000000
00000000
00030000
,
01000000
00100000
01000000
00100000
,
00010000
10000000
00010000
00000000
,
01000000
10000000
01000000
10000000
,
01000000
00010000
01000000
00000000
,
00001000
00010000
00001000
00010000
,
00001000
00000100
00001000
00000000
,
00000100
00000010
00000100
00000010
,
00001000
00000001
00001000
00000000
,
00000001
00000010
00000001
00000010
,
00000001
00000100
00000001
00000000
,
00000100
00001000
00000100
00001000
,
00010000
00001000
00010000
00000000
,
01000000
00010000
01000000
00010000
,
00001000
00010000
00022000
00000000
,
00000000
00000000
00000000
00033000
;

//---------------dance-double - ----------------
#NOTEDATA:;
#CHARTNAME:DIFFICULT;
#CHARTHASH:1919904879;
#STEPSTYPE:dance-double;
#BANNER:;
#DESCRIPTION:;
#CHARTSTYLE:;
#DIFFICULTY:Medium;
#METER:6;
#METERF:6.000000;
#LASTSECONDHINT:96.268654;
#RADARVALUES:0.000000,0.000000,0.000000,0.000000,0.000000,0.000000,0.000000,0.000000,0.000000,0.000000,0.000000,0.000000,0.000000,0.000000,0.000000,0.000000,0.000000,0.000000,0.000000,0.000000,0.000000,0.000000,0.000000,0.000000,0.000000,0.000000,0.000000,0.000000;
#CREDIT:KONAMI;
#DISPLAYBPM:134.000000;
#NOTES:
00000000
00000000
00000000
00000000
,
00000000
00000000
00000000
00000000
,
00000000
00000000
00000000
00000000
,
00000100
00000000
00000001
00000000
,
00000020
00000000
00000000
00000030
,
00000010
00000000
00001000
00000000
,
00010000
00010000
00001000
00001000
,
00010000
00000000
01000000
00000000
,
20000000
00000000
00000000
30000000
,
00100000
00000000
00010000
00000000
,
00010000
00011000
00001000
00011000
,
00001000
00000100
00000001
00000100
,
00001000
00000000
00000100
00000000
00000001
00000010
00000001
00000000
,
00000100
00001000
00010000
00001000
,
00010000
00000000
01000000
00000000
10000000
01000000
10000000
00000000
,
00100000
10000000
00010000
01000000
,
10000000
00000000
01000000
00000000
00100000
10000000
00100000
00000000
,
10000000
01000000
00010000
00001000
,
00000100
00000000
00000001
00000000
00000010
00000100
00000010
00000000
,
00000001
00001000
00000100
00000010
,
00000001
00000100
00002000
00000000
00000000
00000000
00003000
00000000
,
00010000
01000000
00010000
01000000
,
10000000
00100000
20000000
00000000
00000000
00000000
30000000
00000000
,
00010000
01000000
00100000
10000000
,
10000000
01000000
00020000
00000000
00000000
00000000
00030000
00000000
,
00001000
00010000
00001000
00010000
,
00022000
00000000
00000000
00033000
,
00000000
00001000
00000000
00010000
00000000
00001000
00000000
00000100
,
00000000
00000010
00000000
00000001
00000000
00000010
00000000
00001000
,
00000000
00000100
00000000
00000010
00000000
00000001
00000000
00000100
,
00000000
00001000
00000000
00010000
00000000
01000000
00000000
10000000
,
00000000
00100000
00000000
10000000
00000000
01000000
00000000
00100000
,
00000000
00010000
00000000
00100000
00000000
00010000
00000000
10000000
,
00000000
01000000
00000000
00010000
00000000
00001000
00000000
00010000
,
00001000
00010000
00001000
00010000
,
00001000
00000100
00000001
00000000
00000010
00000000
00001000
00000000
,
00010000
00001000
00020000
00000000
00000000
00000000
00030000
00000000
,
00001000
00010000
01000000
00000000
01000000
00010000
00001000
00000000
,
00010000
00001000
00011000
00000000
,
00010000
01000000
00010000
01000000
,
10000000
00000000
00100000
00000000
10000000
01000000
10000000
00000000
,
01000000
00010000
01000000
00010000
,
00001000
00000000
00010000
00000000
00010000
00001000
00010000
00000000
,
01000000
00010000
00001000
00010000
,
00001000
00000000
00000100
00000000
00001000
00000100
00001000
00000000
,
00000100
00000010
00001000
00000001
,
00000100
00000000
00000001
00000000
00000100
00000010
00000100
00000000
,
00000001
00000100
00001000
00010000
,
00001000
00000000
00010000
00000000
01000000
10000000
01000000
00000000
,
00100000
00010000
10000000
01000000
,
00100000
00000000
01000000
00000000
00010000
01000000
00010000
00000000
,
01000000
00010000
00001000
00000100
,
00001000
00010000
00022000
00000000
,
00000000
00000000
00000000
00033000
;

//---------------dance-double - ----------------
#NOTEDATA:;
#CHARTNAME:EXPERT;
#CHARTHASH:1141566422;
#STEPSTYPE:dance-double;
#BANNER:;
#DESCRIPTION:;
#CHARTSTYLE:;
#DIFFICULTY:Hard;
#METER:10;
#METERF:10.000000;
#LASTSECONDHINT:96.268654;
#RADARVALUES:0.000000,0.000000,0.000000,0.000000,0.000000,0.000000,0.000000,0.000000,0.000000,0.000000,0.000000,0.000000,0.000000,0.000000,0.000000,0.000000,0.000000,0.000000,0.000000,0.000000,0.000000,0.000000,0.000000,0.000000,0.000000,0.000000,0.000000,0.000000;
#CREDIT:KONAMI;
#DISPLAYBPM:134.000000;
#NOTES:
00000000
00000000
00000000
00000000
,
00000000
00000000
00000000
00000000
,
00000000
00000000
00000000
00000000
,
01001000
00000000
00010100
00000000
,
00011000
00000000
00000000
00000000
00101000
00010000
00010010
00000000
,
00001010
00000000
00000101
00000000
,
00000110
00000000
00000010
00000001
00000000
00000001
00000000
00000000
,
00000110
00000000
00011000
00000000
,
02002000
00000000
00000000
03003000
,
10010000
00000000
10100000
00000000
,
00100000
00010000
00011000
00000000
,
00020000
00000000
00000000
00000000
01030000
00000000
00000000
00200000
00000000
00000000
00000000
00000000
00000000
00000000
00310000
00000000
,
00020000
00000000
00000000
00000000
10030000
00000000
00000000
02000000
00000000
00000000
00000000
00000000
03100000
00000000
00100000
00000000
,
02000000
00000000
00000000
00000000
03100000
00000000
00000000
00020000
00000000
00000000
00000000
00000000
00000000
00000000
00031000
00000000
,
00000200
00000000
00000000
00000000
00000310
00000000
00000000
00000002
00000000
00000000
00000000
00000000
00000013
00000000
00000010
00000000
,
00002000
00000000
00000000
00000000
00003010
00000000
00000000
00000002
00000000
00000000
00000000
00000000
00000000
00000000
00000103
00000000
,
00000100
00000000
00000000
00000000
00000010
00000000
00000000
00000200
00000000
00000000
00000000
00000000
00001300
00000000
00001000
00000000
,
00020000
00000000
00000000
00000000
01030000
00000000
00000000
20000000
00000000
00000000
00000000
00000000
00000000
00000000
30100000
00000000
,
00200000
00000000
00000000
00000000
10300000
00000000
00000000
00020000
00000000
00000000
00000000
00000000
00130000
00000000
00000000
00000000
,
00100000
00100000
00010000
00010000
10000000
10000000
00100000
00100000
,
02000000
00000000
00000000
03000000
,
00001000
00001000
00010000
00010000
00000100
00000100
00001000
00001000
,
00000020
00000000
00000000
00000030
,
00001000
00001000
00000001
00000001
00000100
00000100
00001000
00001000
,
00020000
00000000
00000000
00030000
,
00001000
00001000
00010000
00010000
00001000
00001000
00010000
00010000
,
00022000
00000000
00000000
00033000
,
00001000
00010000
00001000
00000000
00001000
00010000
00000000
01000000
,
10000000
00100000
00100000
00000000
00100000
00010000
00000000
00010000
,
00100000
10000000
10000000
00000000
10000000
01000000
00000000
01000000
,
01000000
00010000
00001000
00000000
00001000
00000100
00000000
00000100
,
00000001
00000010
00001000
00000000
00001000
00010000
00000000
00010000
,
00100000
10000000
01000000
00000000
01000000
10000000
00000000
10000000
,
00100000
00010000
00001000
00000000
00001000
00000100
00000000
00000100
,
00001000
00010000
00001000
00010000
,
00100000
00010000
00001000
00000000
00010000
00001000
00000100
00000000
,
00001000
00000100
00000010
00000000
00000000
00000000
00000000
00000000
,
00000010
00000001
00000100
00000000
00000100
00001000
00010000
00000000
,
00010000
00001000
00011000
00000000
,
00000000
00001000
01000000
00100000
10000000
01000000
01000000
01000000
,
00000000
10010000
00000000
11000000
00000000
01000000
00010000
00001000
,
00000000
00010000
00000100
00000010
00000001
00000100
00000100
00000100
,
00000000
00001001
00000000
00000101
00000000
00000100
00001000
00010000
,
00000000
01000000
10000000
00100000
00010000
00001000
00000010
00000001
,
00000000
00000110
00000000
00001001
00000000
00000010
00000100
00000010
,
00000000
00000100
00001000
00010000
01000000
10000000
00100000
00010000
,
00000000
01100000
00000000
10010000
00000000
01000000
10010000
00000000
,
00000000
00100000
01000000
00001000
00000000
00010000
00000100
00000010
,
00000000
00000010
00000001
00000100
00000000
00000000
00000000
00000000
,
00000000
00000001
00000100
00001000
00000000
00010000
01000000
10000000
,
00000000
00010000
10000000
00010000
00000000
00000000
00000000
00000000
,
00000000
00100000
00010000
00001000
00000000
00010000
00001000
00000100
,
00000000
00001000
00000100
00000020
00000000
00000000
00000000
00000000
,
00000000
00000000
00000000
00000030
;

//---------------dance-double - ----------------
#NOTEDATA:;
#CHARTNAME:CHALLENGE;
#CHARTHASH:1357577547;
#STEPSTYPE:dance-double;
#BANNER:;
#DESCRIPTION:;
#CHARTSTYLE:;
#DIFFICULTY:Challenge;
#METER:13;
#METERF:13.000000;
#LASTSECONDHINT:96.268654;
#RADARVALUES:0.000000,0.000000,0.000000,0.000000,0.000000,0.000000,0.000000,0.000000,0.000000,0.000000,0.000000,0.000000,0.000000,0.000000,0.000000,0.000000,0.000000,0.000000,0.000000,0.000000,0.000000,0.000000,0.000000,0.000000,0.000000,0.000000,0.000000,0.000000;
#CREDIT:YonabearCWY;
#DISPLAYBPM:134.000000;
#NOTES:
00000000
00000000
00000000
00000000
,
00000000
00000000
00000000
00000000
,
00000000
00000000
00000000
00000000
,
10000000
00000000
00000000
00010000
00000000
00000000
00100000
00000000
00000000
00001000
00000000
00100000
00000000
00000000
00000000
00100000
00000000
00000000
00100000
00000000
00000000
00000000
00000000
00000000
,
00001000
00010000
00000010
00000000
00000100
00000100
00000100
00000000
,
00000001
00000000
00000000
00001000
00000000
00000000
00000100
00000000
00000000
00010000
00000000
00001000
00000000
00000000
00000000
00010000
00000000
00000000
00010000
00000000
00000000
00000000
00000000
00000000
,
00001000
01000000
00100000
00000000
10000000
10000000
10000000
00000000
,
00100000
00000000
00000000
10000000
00000000
00000000
00010000
00000000
00000000
10000000
00000000
01000000
00000000
00000000
10000000
00100000
00000000
00000000
10000000
00000000
00000000
00000000
00000000
00010000
,
01000000
00000000
00010000
01000000
00000000
00000000
00001000
00000000
00000000
00000000
00000000
00000000
00010100
00000000
00000000
00000000
00000000
00000000
00010000
00000000
00000000
00000010
00000000
00000000
,
00000100
00000000
00000000
00000001
00000000
00000000
00000010
00000000
00000000
00000001
00000000
00001000
00000000
00000000
00000100
00001000
00000000
00000000
00000100
00000000
00000000
00000000
00000000
00000000
,
00011000
01001000
02200000
03300000
,
00100000
00000000
10000000
00000000
00100000
00000000
00000000
10000000
00000000
00010000
00000000
01000000
00010000
00000000
00000000
00000000
,
10000000
00000000
00010000
01000000
00000000
00100000
00000000
01000000
00001000
00010000
00001000
00000000
00010000
00000000
00000010
00000000
,
00000100
00000000
00000001
00000000
00000010
00000000
00000000
00000001
00000000
00001000
00000000
00001000
00000100
00000000
00010000
00000000
,
00011000
00000000
00000000
01001000
00000000
00000000
00000000
00000000
01100000
00000000
00000000
10010000
00000000
00000000
00000000
00000000
,
10000000
00100000
00000000
10000000
00100000
00000000
00100000
00000000
00100000
00000000
00000000
00000000
01000000
00010000
00000000
01000000
,
00001000
00000000
00001000
00000000
00001000
00000000
00000000
00000000
00010000
00000010
00000000
00010000
00000100
00000000
00000100
00000000
,
00000100
00000000
00001000
00000001
00000010
00000100
00001000
00000000
,
00001100
00000000
00000100
00010000
00001000
00000000
00011000
00000000
,
00001000
00000000
01000000
00000000
00100000
00000000
00000000
01000000
00000000
00010000
00000000
10000000
00100000
00000000
01000000
00000000
,
00010000
00000000
10000000
01000000
00000000
10000000
00000000
00010000
01000000
00100000
01000000
00000000
00001000
00000000
00010000
00000000
,
00000100
00000000
00001000
00000000
00000001
00000000
00000000
00000010
00000000
00000001
00000000
00001000
00000100
00000000
00001000
00000000
,
00001010
00000000
00000000
00010010
00000000
00000000
00000000
00000000
00011000
00000000
00000000
00101000
00000000
00000000
00000000
00000000
,
00100000
00010000
00000000
10000000
01000000
00000000
01000000
00000000
01000000
00000000
00000000
00000000
00100000
00001000
00000000
00010000
,
00001000
00000000
00001000
00000000
00001000
00000000
00000000
00000000
00010000
00000010
00000000
00001000
00000010
00000000
00000010
00000000
,
00000010
00000000
00000100
00000001
00001000
00000100
00001000
00000000
,
00010100
00000000
00000000
00000000
00000000
00000000
00011000
00000000
00000000
00000000
00000000
00100000
00000000
00000000
00100000
00001000
00000000
00000000
01000000
00000000
00000000
00000000
00000000
00000000
,
00100000
00000000
00000000
10000000
00000000
00000000
00010000
00000000
00000000
00000000
00000000
10000000
00000000
00000000
00010000
10000000
00000000
00000000
01000000
00000000
00000000
00000000
00000000
00000000
,
10000000
00000000
00100000
10000000
00000000
00000000
00010000
00000000
00000000
00000000
00000000
00000000
01000000
00000000
00000000
00001000
00000000
00000000
00000100
00000000
00000000
00000010
00000000
00000000
,
00000100
00000000
00000000
00000001
00000000
00000000
00001000
00000000
00000000
00000000
00000000
00000100
00000000
00000000
00001000
00000100
00000000
00000000
00010000
00000000
00000000
00000000
00000000
00000000
,
00001000
00000000
00010000
00001000
00000000
00000000
01000000
00000000
00000000
00100000
00000000
00000000
00000000
00000000
00000000
00100000
00000000
00000000
10000000
00000000
00000000
00010000
00000000
00000000
,
00110000
00000000
00000000
00001000
00000000
00000000
00100000
00000000
00000000
00000000
00000000
00001000
00010000
00000000
00000000
00001000
00000000
00000000
00000100
00000000
00000000
00000000
00000000
00000000
,
00000001
00000100
00000010
00000000
00000100
00000010
00001000
00000100
,
00010100
00000000
00000000
00001000
00000000
00000000
00000100
00000000
00000000
00000000
00000000
00001000
00000100
00000000
00000000
00010000
00000000
00000000
00001000
00000000
00000000
00000000
00000000
00000000
,
00001000
00000000
00000000
01000000
00000000
00000000
00100000
00000000
00000000
01000000
00000000
00000000
00000000
00000000
00010000
01000000
00000000
00000000
00010000
00000000
00000000
10000000
00000000
00000000
,
01000000
00000000
10000000
00100000
00000000
00000000
10000000
00000000
00000000
00000000
00000000
00000000
00010000
00000000
01000000
00010000
00000000
00000000
00100000
00000000
00000000
00000000
00000000
00001000
,
00010000
00000000
00001000
00010000
00000000
00000000
00000010
00000000
00000000
00000000
00000000
00000000
00000100
00000000
00000000
00000100
00000000
00000000
00000100
00000000
00000000
00000000
00000000
00000000
,
00000001
00000000
00001000
00000100
00000000
00000000
00001000
00000000
00000000
00000000
00000000
00000000
00000010
00000000
00010000
00000010
00000000
00000000
00010000
00000000
00000000
00000000
00000000
00000000
,
00011000
01001000
00202000
00303000
,
00100000
00000000
00010000
00000000
10000000
00000000
00010000
01000000
00000000
00010000
00000000
01000000
00010000
00000000
00000000
00000000
,
00100000
00000000
00001000
00010000
00000000
00010000
00000100
00000000
00010000
00000010
00000000
00010000
00001000
00000000
00010000
00000000
,
00000010
00000000
00001000
00000000
00000001
00000000
00000001
00000100
00000000
00000100
00000000
00000100
00000010
00000000
00001000
00000000
,
00001100
00000000
00000000
00010100
00000000
00000000
00000000
00000000
00010000
00001000
00000000
01001000
00000000
00000000
00000000
00000000
,
01000000
00100000
00000000
10000000
00010000
00000000
00010000
00000000
00010000
00000000
00000000
00000000
00100000
00001000
00000000
00010000
,
00000010
00000000
00000010
00000000
00000010
00000000
00000000
00000000
00000100
00000001
00000000
00001000
00000100
00000000
00000100
00000000
,
00000100
00000000
00001000
00000100
00010000
00001000
00100000
00000000
,
00010000
10000000
01000000
00100000
00010000
00000000
00110000
00000000
,
00100000
00000000
00001000
00000000
00010000
00000000
00000100
00010000
00000000
00001000
00000000
00010000
00000100
00000000
00000000
00000000
,
00001000
00000000
00000001
00000100
00000000
00000001
00001000
00000000
00001000
00000100
00000000
00000100
00010000
00000000
00001000
00000000
,
01000000
00000000
00100000
00000000
10000000
00000000
01000000
10000000
00000000
10000000
00000000
10000000
00010000
00000000
00100000
00000000
,
00110000
00000000
00000000
00101000
00000000
00000000
00000000
00000000
00010000
00000010
00000000
00000110
00000000
00000000
00000000
00000000
,
00000010
00000100
00000000
00000001
00001000
00000000
00001000
00000000
00001000
00000000
00000000
00000000
00001000
00000100
00000000
00010000
,
00001000
00000000
00001000
00000000
00001000
00000000
00000000
00000000
00100000
00010000
00000000
10000000
01000000
00000000
20000000
00000000
,
00020000
00000000
00000000
30030000
;
