#VERSION:0.83;
#TITLE:JADED;
#SUBTITLE:;
#ARTIST:TOMMY B.;
#TITLETRANSLIT:;
#SUBTITLETRANSLIT:;
#ARTISTTRANSLIT:;
#GENRE:;
#ORIGIN:;
#TAGS:;
#CREDIT:;
#BANNER:JADED.png;
#BACKGROUND:JADED-bg.png;
#PREVIEWVID:;
#JACKET:JADED-jacket.png;
#CDIMAGE:;
#DISCIMAGE:;
#LYRICSPATH:;
#CDTITLE:Dance Mania Speed 7.png;
#MUSIC:JADED.ogg;
#OFFSET:-0.010000;
#SAMPLESTART:64.018005;
#SAMPLELENGTH:15.000000;
#SELECTABLE:YES;
#BPMS:0.000000=165.000000
;
#STOPS:;
#DELAYS:;
#WARPS:;
#TIMESIGNATURES:0.000000=4=4
;
#TICKCOUNTS:0.000000=4
;
#COMBOS:0.000000=1
;
#SPEEDS:0.000000=1.000000=0.000000=0
;
#SCROLLS:0.000000=1.000000
;
#LABELS:0.000000=Song Start
;
#BGCHANGES:16.000=text13.mp4=1.000=1=0=1===CrossFade==,
24.000=tunnel3.mp4=1.000=0=0=1=====,
32.000=heart2.mp4=1.000=0=0=1=====,
48.000=circle2.mp4=1.000=0=0=1=====,
64.000=ring3.mp4=1.000=0=0=1=====,
80.000=circle1.mp4=1.000=0=0=1=====,
96.000=heart2.mp4=1.000=0=1=1=StretchRewind====,
112.000=circle2.mp4=1.000=0=1=1=StretchRewind====,
128.000=teapot1.mp4=1.000=0=0=1=====,
136.000=rotation4.mp4=1.000=0=0=1=====,
144.000=web1.mp4=1.000=0=0=1=====,
152.000=text17.mp4=1.000=0=0=1=====,
160.000=text12.mp4=1.000=0=0=1=====,
168.000=text13.mp4=1.000=0=1=1=StretchRewind====,
176.000=ribbon2.mp4=1.000=0=0=1=====,
184.000=ring3.mp4=1.000=0=1=1=StretchRewind====,
192.000=ribbon2.mp4=1.000=0=0=1=====,
200.000=teapot1.mp4=1.000=0=1=1=StretchRewind====,
208.000=web1.mp4=1.000=0=1=1=StretchRewind====,
216.000=heart2.mp4=1.000=0=1=1=StretchRewind====,
232.000=circle2.mp4=1.000=0=1=1=StretchRewind====,
248.000=ring3.mp4=1.000=0=1=1=StretchRewind====,
256.000=circle1.mp4=1.000=0=1=1=StretchRewind====,
263.500=JADED-bg.png=1.000=0=0=1=====,
99999=-nosongbg-=1.000=0=0=0 // don't automatically add -songbackground-
;
#KEYSOUNDS:;
#ATTACKS:
;

//---------------dance-single - ----------------
#NOTEDATA:;
#CHARTNAME:;
#CHARTHASH:4034363729;
#STEPSTYPE:dance-single;
#BANNER:;
#DESCRIPTION:;
#CHARTSTYLE:;
#DIFFICULTY:Beginner;
#METER:3;
#METERF:3.000000;
#LASTSECONDHINT:95.646362;
#RADARVALUES:0.139768,0.203141,0.061792,0.000000,0.000000,95.000000,89.000000,6.000000,0.000000,0.000000,0.000000,0.000000,0.000000,0.000000,0.139768,0.203141,0.061792,0.000000,0.000000,95.000000,89.000000,6.000000,0.000000,0.000000,0.000000,0.000000,0.000000,0.000000;
#CREDIT:;
#NOTES:
0000
0000
0000
0000
,
0000
0000
0000
0000
,
0000
0000
0000
0000
,
0000
0000
0000
0000
,
0000
0000
0000
0000
,
0000
0000
0000
0000
,
0000
0000
0000
0000
,
0000
0000
0000
0000
,
1000
0000
1000
0000
,
1000
0000
0000
0000
,
0001
0000
0001
0000
,
0001
0000
0000
0000
,
1000
0000
1000
0000
,
1000
0000
0000
0000
,
0001
0000
0001
0000
,
0001
0000
0000
0000
,
1000
0000
0000
0000
,
0100
0000
0000
0000
,
0010
0000
0000
0000
,
0001
0000
0000
0000
,
0010
0000
0000
0000
,
1000
0000
0000
0000
,
0010
0000
0000
0000
,
0001
0000
0000
0000
,
1000
0000
1000
0000
,
1000
0000
0000
0000
,
0010
0000
0010
0000
,
0010
0000
0000
0000
,
0100
0000
0100
0000
,
0100
0000
0000
0000
,
0001
0000
0001
0000
,
0001
0000
0000
0000
,
1001
0000
0000
0000
,
0100
0100
0100
0000
,
0010
0000
0010
0000
,
0100
0000
0100
0000
,
1001
0000
0000
0000
,
0010
0010
0010
0000
,
1000
0000
1000
0000
,
0001
0000
0001
0000
,
1000
0000
0000
0000
,
0001
0001
0001
0000
,
0001
0000
0000
0000
,
1001
0000
0000
0000
,
1000
0000
0100
0000
,
1000
0000
0100
0000
,
1000
0000
0000
0000
,
0001
0000
0000
0000
,
0010
0000
0001
0000
,
0010
0000
0001
0000
,
0010
0000
0000
0000
,
0001
0000
1000
0000
,
0100
0000
0000
0000
,
1001
0000
0000
0000
,
0010
0000
0010
0000
,
0010
0000
0000
0000
,
0100
0000
0100
0000
,
0100
0000
0000
0000
,
0001
0000
0001
0000
,
0001
0000
0000
0000
,
1000
0000
1000
0000
,
1000
0000
0000
0000
,
1001
0000
0000
0000
,
0010
0000
0010
0000
,
0010
0000
0000
0000
,
0100
0100
0100
1001
;

//---------------dance-single - ----------------
#NOTEDATA:;
#CHARTNAME:;
#CHARTHASH:1710910832;
#STEPSTYPE:dance-single;
#BANNER:;
#DESCRIPTION:;
#CHARTSTYLE:;
#DIFFICULTY:Easy;
#METER:5;
#METERF:5.000000;
#LASTSECONDHINT:95.646362;
#RADARVALUES:0.239812,0.338568,0.113285,0.257467,0.000000,163.000000,152.000000,11.000000,25.000000,0.000000,0.000000,0.000000,0.000000,0.000000,0.239812,0.338568,0.113285,0.257467,0.000000,163.000000,152.000000,11.000000,25.000000,0.000000,0.000000,0.000000,0.000000,0.000000;
#CREDIT:;
#NOTES:
0000
0000
0000
0000
,
0000
0000
0000
0000
,
0000
0000
0000
0000
,
0000
0000
0000
0000
,
0000
0000
0000
0000
,
0000
0000
0000
0000
,
0000
0000
0000
0000
,
0000
0000
0000
0000
,
0000
1000
0000
0000
0000
1000
0000
0000
,
0000
0001
0000
0001
,
0000
1000
0000
0000
0000
1000
0000
0000
,
0000
0001
0000
0001
,
0000
0100
0000
0000
0000
0100
0000
0000
,
0000
0010
0000
0010
,
0000
0100
0000
0000
0000
0100
0000
0000
,
0001
0001
0001
0001
,
2002
0000
0000
3003
,
0100
0100
0100
0100
,
0220
0000
0000
0330
,
1000
1000
1000
1000
,
2002
0000
0000
3003
,
0010
0010
0010
0010
,
0220
0000
0000
0330
,
1000
0001
1000
0001
,
1000
0000
0001
0010
,
0100
0000
1000
0001
,
0100
0000
0001
1000
,
0001
0001
0001
0000
,
0100
0001
0010
0000
,
0001
1000
0100
0000
,
1000
0100
0001
0000
,
0100
0100
0100
1000
,
2002
0000
3003
0000
,
0001
0100
0010
1000
,
0200
0300
0200
0300
,
1000
0001
0100
0001
,
0022
0000
0033
0000
,
0001
1000
0010
0100
,
0020
0030
0020
0030
,
0100
0100
0010
0010
,
2000
0000
0001
0000
,
3001
1000
0100
0010
,
0002
0000
1000
0000
,
2000
0000
0000
3003
,
1200
0000
0010
0000
,
1000
0000
0010
0000
,
1300
0000
0100
0000
,
1000
0000
0001
0000
,
0021
0000
1000
0000
,
0001
0000
1000
0000
,
0031
0000
0100
0000
,
0001
0001
1000
1000
,
0010
1000
0100
0010
,
2002
0000
0000
3003
,
1000
1000
0010
0000
,
0100
0100
0001
0000
,
0010
0010
0100
0000
,
1000
0001
1000
0010
,
0100
0100
0001
0000
,
0010
0010
0001
0000
,
0010
0010
0100
0000
,
1000
0100
0010
0001
,
2002
0000
0000
3003
,
0000
1000
0000
1000
,
0000
0001
0000
0001
,
0100
0100
0100
1001
;

//---------------dance-single - ----------------
#NOTEDATA:;
#CHARTNAME:;
#CHARTHASH:1561629477;
#STEPSTYPE:dance-single;
#BANNER:;
#DESCRIPTION:;
#CHARTSTYLE:;
#DIFFICULTY:Medium;
#METER:8;
#METERF:8.000000;
#LASTSECONDHINT:95.828186;
#RADARVALUES:0.389878,0.542739,0.257467,0.195675,0.000000,265.000000,240.000000,25.000000,19.000000,0.000000,0.000000,0.000000,0.000000,0.000000,0.389878,0.542739,0.257467,0.195675,0.000000,265.000000,240.000000,25.000000,19.000000,0.000000,0.000000,0.000000,0.000000,0.000000;
#CREDIT:;
#NOTES:
0000
0000
0000
0000
,
0000
0000
0000
0000
,
0000
0000
0000
0000
,
0000
0000
0000
0000
,
0000
0000
0000
0000
,
0000
0000
0000
0000
,
0000
0000
0000
0000
,
0000
0000
0000
0000
,
0000
1000
0000
0100
0000
1000
0000
0010
,
0000
1000
0000
1000
,
0000
0001
0000
0010
0000
0001
0000
1000
,
0000
0001
0010
0000
0001
0000
1000
0001
,
0000
0100
0000
0010
0000
0100
0000
0001
,
0000
1000
0000
1000
,
0000
0010
0000
0100
0000
0010
0000
1000
,
0001
0110
1000
0110
,
0002
0000
0000
0000
,
1003
0100
1000
0000
0100
1000
0100
0000
,
2000
0000
0000
0000
,
3010
0100
0010
0100
0000
0010
0100
0000
,
0002
1000
0000
1003
,
0100
1000
0100
0000
1000
0100
1000
0000
,
0020
0100
0000
0130
,
1001
1100
0011
0110
,
1000
0001
1000
0000
0001
0000
0010
0000
,
0100
0010
0100
0000
1000
0000
0100
0000
,
1000
0001
1000
0000
0001
0000
0010
0000
,
0001
0001
0001
0000
0100
0000
0110
0000
,
0001
1000
0001
0000
0100
0000
0010
0000
,
1000
0100
1000
0000
0010
0000
0100
0000
,
0001
0010
0001
0000
1000
0000
0100
0000
,
0010
0010
0010
0000
0101
0000
1001
0000
,
0002
1000
0100
1000
,
0103
0000
0000
0000
0100
0000
0000
0010
,
1000
0100
0001
0100
,
1000
0001
1000
0000
0001
0010
0001
0000
,
0200
0001
1000
0001
,
0310
0000
0000
0000
0010
0000
0000
0010
,
2000
3001
0200
0310
,
1000
1100
0001
0101
,
0002
1000
0000
1000
0000
1003
0001
0000
,
2000
0001
0010
3001
,
0200
0010
0000
0010
0000
0310
0100
0000
,
2002
0000
0000
3003
,
1200
0000
1000
0000
,
0001
0000
0000
1000
1000
0000
1000
1300
,
0000
0100
0000
1000
0000
0010
0000
0100
,
0000
0001
0000
0010
0100
1000
0001
0000
,
0020
0000
1000
0000
,
0001
0000
0000
0001
0001
0000
0001
0031
,
0010
0101
0001
1001
,
1100
0110
0011
1001
,
1000
0100
1000
0000
0010
1000
0010
0000
,
2002
0000
0000
3003
,
1000
0010
1000
0000
0010
0000
0100
0000
,
0001
0010
0001
0000
0100
0000
0010
0000
,
1000
0001
1000
0000
0001
0000
0010
0000
,
0100
0100
0100
0000
1000
0000
0101
0000
,
0001
0010
0100
0000
1000
0000
0100
0000
,
0010
0001
1000
0000
0010
0000
0100
0000
,
0001
1000
0100
0000
1000
0000
0010
0000
,
0100
0100
0100
0000
0011
0000
1001
0000
,
0220
0000
0000
0000
0000
0000
0000
0330
,
0000
0010
0000
1000
0000
0010
0000
1000
,
0000
0001
0100
0001
0000
0100
0001
0100
,
0010
0000
0010
0000
0100
0000
0001
1001
;

//---------------dance-single - ----------------
#NOTEDATA:;
#CHARTNAME:;
#CHARTHASH:3910592546;
#STEPSTYPE:dance-single;
#BANNER:;
#DESCRIPTION:;
#CHARTSTYLE:;
#DIFFICULTY:Hard;
#METER:10;
#METERF:10.000000;
#LASTSECONDHINT:95.828186;
#RADARVALUES:0.550243,0.542739,0.453141,0.216272,0.000000,374.000000,330.000000,44.000000,21.000000,0.000000,0.000000,0.000000,0.000000,0.000000,0.550243,0.542739,0.453141,0.216272,0.000000,374.000000,330.000000,44.000000,21.000000,0.000000,0.000000,0.000000,0.000000,0.000000;
#CREDIT:;
#NOTES:
0000
0000
0000
0000
,
0000
0000
0000
0000
,
0000
0000
0000
0000
,
0000
0000
0000
0000
,
0000
0000
0000
0000
,
0000
0000
0000
0000
,
0000
0000
0000
0000
,
0000
0000
0000
0000
,
0000
0101
0000
1000
0000
1010
0000
0100
,
0000
0110
0000
0010
0000
0001
1000
0100
,
0000
1100
0000
0001
0000
0101
0000
1000
,
0000
0110
0000
0001
0000
0010
0100
1000
,
0001
0010
0000
0101
0000
0010
0000
1100
,
0000
0001
0000
1001
0000
1000
0100
0010
,
0001
1000
0000
0101
0000
0010
0000
1000
,
1010
0000
0101
0000
0001
1000
0100
0010
,
0001
0100
0001
0000
0100
0001
0100
0000
,
0010
0010
1000
1000
0100
1000
0100
0000
,
1000
0001
1000
0000
0001
0010
0001
0000
,
0100
0100
0001
0001
0010
0010
0100
0100
,
1000
0100
0010
0000
0001
0010
0100
0000
,
1000
0100
0001
0100
1000
0001
1000
0000
,
0001
1000
0100
0000
1000
0001
0100
0000
,
0011
1001
0110
1001
,
1000
0100
1000
0000
0010
0000
0100
0100
,
0001
0010
0001
0000
1000
0000
0001
0001
,
0010
0100
0010
0000
0001
0000
0100
0100
,
0001
1000
0010
0001
0010
1000
0100
0001
,
0100
1000
0100
0000
1000
0000
0001
0001
,
1000
0100
1000
0000
0010
0000
0100
0100
,
0001
1000
0001
0000
0100
0000
0010
0010
,
0101
0000
1001
0000
1000
0100
0010
0102
,
0000
1000
0000
0100
0000
1003
0001
0200
,
0000
0010
0000
0010
0310
0000
1001
0000
,
2000
0100
3001
0000
0002
0100
1003
0000
,
1000
0100
0001
0100
1000
0010
0100
0001
,
0000
0011
0000
1000
0000
1100
0000
1001
,
0000
0210
0000
0301
0100
0010
1000
0000
,
0002
0010
1003
0000
2000
0010
3001
0000
,
0001
0010
0100
1000
0001
0100
0010
1000
,
0200
1000
0000
1000
0000
1000
1300
0000
,
1000
0100
0010
0001
0010
0100
0010
0001
,
2000
0001
0000
0001
0000
0001
3001
1000
,
0000
0110
0000
0001
0000
1000
1001
0000
,
1200
0301
1020
0031
,
2100
0000
0000
3001
0200
0000
0000
0310
,
0100
0000
0010
1000
0010
0000
0100
0001
,
0100
0001
0000
0010
0100
1000
0100
0010
,
2001
3010
1002
0103
,
0120
0000
0000
1030
0020
0000
0000
0130
,
0001
0000
1000
0001
1000
0000
0001
0010
,
0011
1001
1100
0110
,
0011
0000
0002
0100
1003
0000
2000
0100
,
3001
0000
1000
0100
0010
0010
0010
0000
,
0001
0100
0001
0000
1000
0010
0010
1000
,
0010
0100
0010
0000
0100
0001
0001
1000
,
0001
0010
0001
0000
1000
0100
0100
0010
,
0001
0001
0001
0000
1000
0000
0101
0000
,
0001
0010
0001
0000
1000
0100
0100
0010
,
0100
1000
0100
0000
1000
0001
0001
0010
,
0001
0100
0001
0000
0010
0100
0100
1000
,
0010
0010
0010
0000
0101
0000
1001
0000
,
0210
0000
0000
0001
0000
1000
0000
0001
,
0000
1000
0000
0001
0000
1000
0000
0301
,
0100
0002
0000
1000
0000
0010
0000
0103
,
0101
0000
1001
0000
1000
0010
0100
1001
;

//---------------dance-single - ----------------
#NOTEDATA:;
#CHARTNAME:;
#CHARTHASH:230280611;
#STEPSTYPE:dance-single;
#BANNER:;
#DESCRIPTION:;
#CHARTSTYLE:;
#DIFFICULTY:Challenge;
#METER:14;
#METERF:14.000000;
#LASTSECONDHINT:95.919090;
#RADARVALUES:0.637046,0.713021,0.164779,0.247168,0.391349,433.000000,417.000000,16.000000,24.000000,0.000000,0.000000,0.000000,0.000000,0.000000,0.637046,0.713021,0.164779,0.247168,0.391349,433.000000,417.000000,16.000000,24.000000,0.000000,0.000000,0.000000,0.000000,0.000000;
#CREDIT:;
#NOTES:
// measure 0
0000
0000
0000
0000
,  // measure 1
0000
0000
0000
0000
,  // measure 2
0000
0000
0000
0000
,  // measure 3
0000
0000
0000
0000
,  // measure 4
0000
0000
0000
0000
,  // measure 5
0000
0000
0000
0000
,  // measure 6
0000
0000
0000
0000
,  // measure 7
0000
0000
0000
0000
,  // measure 8
2000
0001
0000
0010
0000
0001
0000
0100
,  // measure 9
0000
0000
3001
0000
0000
0000
1001
0000
0000
0000
0001
0010
0000
0000
0100
0000
,  // measure 10
2000
0100
0000
0010
0000
0001
0000
0010
,  // measure 11
0000
0000
0100
0000
0000
0000
3001
0000
0000
0000
0110
0000
0000
0000
0001
1000
,  // measure 12
0001
1000
0100
0000
1000
0001
0010
0000
,  // measure 13
0001
0000
0010
0000
0100
0000
1000
0000
0001
0000
0010
0000
0100
0000
0000
0010
,  // measure 14
0001
1000
0100
0000
1000
0001
0010
0000
,  // measure 15
0100
1000
0000
0001
1000
0000
0000
0100
0010
0000
0000
0001
1000
0000
0000
0010
,  // measure 16
0100
0001
0100
1000
0100
0010
0200
0000
,  // measure 17
0301
0001
0010
0010
0100
0100
1000
1000
,  // measure 18
0100
0010
0001
0010
1000
0010
0002
0000
,  // measure 19
0013
0010
0001
0001
0100
0100
0010
0010
,  // measure 20
2001
0000
0000
0000
3001
0000
0000
0001
1000
0000
0010
0000
0020
0000
0000
0000
,  // measure 21
0130
0001
0100
0010
1000
0100
0010
0001
,  // measure 22
1002
0000
0000
0000
1003
0000
1000
0100
0000
0000
1000
0000
0002
0000
0000
0000
,  // measure 23
0013
0000
0000
0001
1000
0000
0000
0100
0010
0000
0000
0001
1000
0000
0000
0010
,  // measure 24
0100
0000
0010
0000
1000
0000
0010
1000
0000
0010
1000
0000
0001
0000
0001
0000
,  // measure 25
1000
0000
0100
0000
1000
0000
0010
0100
0000
0010
0100
0000
0001
0000
0001
0000
,  // measure 26
0010
0000
0100
0000
1000
0000
0001
0100
0000
0001
0100
0000
0010
0000
0010
0000
,  // measure 27
1000
0000
1000
0000
1000
0000
1000
0100
0000
1000
0001
1000
0100
0000
0100
0000
,  // measure 28
1000
0000
0001
0000
0010
0000
0001
1000
0000
0001
1000
0000
0010
0000
0010
0000
,  // measure 29
0100
0000
0001
0000
0010
0000
0100
1000
0000
0100
1000
0000
0001
0000
0001
0000
,  // measure 30
0010
0000
0001
0000
0100
0000
0010
1000
0000
0010
1000
0000
0100
0000
0100
0000
,  // measure 31
0010
0000
0010
0000
0010
0000
0000
0001
1000
0000
0000
0100
0010
0000
0000
0001
,  // measure 32
2000
0001
0000
0001
0000
3001
0010
0100
,  // measure 33
0000
1000
0100
0010
0100
1000
0001
0100
,  // measure 34
0120
1030
0210
0301
,  // measure 35
1000
0000
0001
0000
1000
0000
0010
0000
1000
0100
0000
1000
0001
0000
0010
0000
,  // measure 36
0002
1000
0000
1000
0000
0103
0000
0101
,  // measure 37
0000
2001
0000
3010
0100
0100
0100
0000
,  // measure 38
2010
3100
0102
0013
,  // measure 39
1000
0000
0000
0001
1000
0000
0000
0100
0010
0000
0000
0000
0001
0000
0010
0000
,  // measure 40
0100
0000
0100
0000
0100
0000
0000
1000
0001
0000
0010
0000
0100
0000
0000
0000
,  // measure 41
0010
0000
0010
0000
0010
0000
0000
0100
0010
0000
0001
0000
1000
0000
0000
0000
,  // measure 42
0001
0000
0001
0000
0001
0000
0000
1000
0100
0000
1000
0000
0001
0000
0010
0000
,  // measure 43
0001
1000
0001
1000
0001
1000
0001
1000
0001
0000
0000
0100
0010
0000
0000
1000
,  // measure 44
0002
0010
2003
0100
,  // measure 45
3002
0000
0000
0010
0010
0000
1000
1003
,  // measure 46
0000
1100
0000
0001
0000
0101
0000
0001
,  // measure 47
1000
0000
0100
0000
1000
0000
0010
0100
0000
0010
0100
0000
0001
0000
0010
0000
,  // measure 48
1200
0001
2300
0010
,  // measure 49
3002
0000
0000
0100
0100
0000
0010
0013
,  // measure 50
0001
1000
0000
1000
0100
0010
0000
0001
,  // measure 51
0010
0100
1000
0001
0100
0010
1000
0001
,  // measure 52
2000
0100
3020
0001
,  // measure 53
0130
0010
0100
0010
0100
0010
0100
0010
0100
0000
0000
0000
1001
0000
0000
0000
,  // measure 54
0001
0000
0010
0000
0001
0000
0100
0010
0000
0100
0010
0000
1000
0000
1000
0000
,  // measure 55
0001
0000
0100
0000
0010
0000
1000
0100
0000
1000
0100
0000
1000
0000
1000
0000
,  // measure 56
0001
0000
0010
0000
0100
0000
0010
0001
0000
0010
0001
0000
1000
0000
1000
0000
,  // measure 57
0001
0000
0001
0000
0001
0000
0001
0100
0000
0001
1000
0010
0100
0000
0100
0000
,  // measure 58
0010
0000
1000
0000
0010
0000
0100
0001
0000
1000
0001
0000
0100
0000
0100
0000
,  // measure 59
0010
0000
0001
0000
0010
0000
1000
0001
0000
0100
0010
0000
1000
0000
1000
0000
,  // measure 60
0001
0000
1000
0000
0001
0000
0010
1000
0000
0010
0100
0000
1000
0000
1000
0000
,  // measure 61
0001
0000
0000
0001
1000
0000
0000
0100
0010
0000
0000
0001
1000
0000
0010
0000
,  // measure 62
0210
0000
0000
0001
0000
1000
0000
0001
,  // measure 63
0000
0010
0000
1000
0000
0001
0000
0310
,  // measure 64
0100
0010
0000
1100
0000
1000
0000
0001
,  // measure 65
1000
0001
0000
0010
0001
0000
0000
0100
0010
0100
0010
0100
0010
0100
0010
0100
;
