#VERSION:0.83;
#TITLE:It's My Life;
#SUBTITLE:;
#ARTIST:Dr. Alban;
#TITLETRANSLIT:;
#SUBTITLETRANSLIT:;
#ARTISTTRANSLIT:;
#GENRE:EURODANCE;
#ORIGIN:;
#TAGS:;
#CREDIT:YonabearCWY;
#BANNER:It's My Life.png;
#BACKGROUND:It's My Life-bg.png;
#PREVIEWVID:;
#JACKET:It's My Life-jacket.png;
#CDIMAGE:;
#DISCIMAGE:;
#LYRICSPATH:;
#CDTITLE:cdtitle.png;
#MUSIC:It's My Life.ogg;
#OFFSET:-0.360000;
#SAMPLESTART:29.274675;
#SAMPLELENGTH:15.000000;
#SELECTABLE:YES;
#BPMS:0.000000=128.690002
;
#STOPS:;
#DELAYS:;
#WARPS:;
#TIMESIGNATURES:0.000000=4=4
;
#TICKCOUNTS:0.000000=4
;
#COMBOS:0.000000=1
;
#SPEEDS:0.000000=1.000000=0.000000=0
;
#SCROLLS:0.000000=1.000000
;
#LABELS:0.000000=Song Start
;
#BGCHANGES:8.000=night1.mp4=1.000=1=0=1===CrossFade==,
16.000=girl2.mp4=0.900=0=0=1=====,
24.000=moon1.mp4=1.000=0=0=1=====,
32.000=girl2.mp4=0.900=0=1=1=StretchRewind====,
40.000=city3.mp4=1.000=0=0=1=====,
48.000=kaliedoscope1.mp4=0.800=0=0=1=====,
50.000=kaliedoscope3.mp4=0.900=0=0=1=====,
52.000=kaliedoscope1.mp4=0.800=0=0=1=====,
54.000=kaliedoscope3.mp4=0.900=0=0=1=====,
56.000=kaliedoscope1.mp4=0.800=0=0=1=====,
58.000=kaliedoscope3.mp4=0.900=0=0=1=====,
59.000=kaliedoscope1.mp4=0.800=0=0=1=====,
60.000=kaliedoscope3.mp4=0.900=0=0=1=====,
64.000=clap1a.mp4=1.000=0=0=1=====,
72.000=night1.mp4=1.000=0=1=1=StretchRewind====,
80.000=clap1.mp4=1.000=0=0=1=====,
88.000=discoball1.mp4=1.000=0=0=1=====,
96.000=girl2.mp4=0.900=0=1=1=StretchRewind====,
104.000=amoeba3.mp4=0.900=0=0=1=====,
112.000=girl2.mp4=0.900=0=1=1=StretchRewind====,
120.000=tunnel11.mp4=0.900=0=0=1=====,
128.000=heart14.mp4=0.900=0=0=1=====,
136.000=heart7.mp4=0.900=0=0=1=====,
144.000=clap1a.mp4=1.000=0=1=1=StretchRewind====,
152.000=night1.mp4=1.000=0=1=1=StretchRewind====,
160.000=clap1.mp4=1.000=0=1=1=StretchRewind====,
168.000=discoball1.mp4=1.000=0=1=1=StretchRewind====,
176.000=amoeba3.mp4=1.000=0=1=1=StretchRewind====,
184.000=kaliedoscope1.mp4=0.800=0=1=1=StretchRewind====,
192.000=kaliedoscope3.mp4=0.900=0=1=1=StretchRewind====,
204.000=moon1.mp4=0.900=0=1=1=StretchRewind====,
212.000=It's My Life-bg.png=1.000=0=0=1=====,
99999.000=-nosongbg-=1.000=0=0=0=StretchNoLoop====,
99999=-nosongbg-=1.000=0=0=0 // don't automatically add -songbackground-
;
#KEYSOUNDS:;
#ATTACKS:
;

//---------------dance-single - ----------------
#NOTEDATA:;
#CHARTNAME:BASIC;
#CHARTHASH:1258719690;
#STEPSTYPE:dance-single;
#BANNER:;
#DESCRIPTION:;
#CHARTSTYLE:;
#DIFFICULTY:Easy;
#METER:4;
#METERF:4.000000;
#LASTSECONDHINT:102.932076;
#RADARVALUES:0.184475,0.261114,0.094951,0.037980,0.000000,136.000000,126.000000,10.000000,4.000000,0.000000,0.000000,0.000000,0.000000,0.000000,0.184475,0.261114,0.094951,0.037980,0.000000,136.000000,126.000000,10.000000,4.000000,0.000000,0.000000,0.000000,0.000000,0.000000;
#CREDIT:YonabearCWY;
#NOTES:
0000
0000
0000
0000
,
0000
0000
0000
0000
,
0000
0000
0000
0000
,
0000
0000
0000
0000
,
0100
0100
0000
0000
,
0010
0010
0000
0000
,
0001
0001
0000
0000
,
0100
0100
0000
0000
,
0010
0010
0000
0000
,
1000
1000
0000
0000
,
0001
0001
0000
0000
,
0110
0000
0000
0000
,
1000
0000
0001
0000
,
1000
0000
0010
0000
,
0100
0000
0010
0010
,
1001
0000
0000
0000
,
0100
0100
0100
0000
,
0001
0000
0010
0000
,
1000
1000
1000
0000
,
0010
0000
0100
0000
,
0001
0001
0001
0000
,
0100
0000
0010
0000
,
1000
1000
1000
0000
,
0001
0000
0100
0000
,
1001
1001
0000
0000
,
0010
1000
0000
0000
,
0001
0100
0000
0000
,
1000
0100
0000
0000
,
0010
0001
0000
1001
,
0100
0010
0000
1001
,
0010
0100
0000
0110
,
1000
0001
1000
0001
,
0100
0100
0100
0000
,
0010
0010
0010
0000
,
1000
1000
1000
0000
,
0001
0001
1001
0000
,
0100
0100
0100
0000
,
0100
0100
0100
0000
,
0010
0010
0010
0000
,
0010
0010
0010
0000
,
1000
0000
1000
0000
,
0001
0000
0001
0000
,
0010
0100
1000
0100
,
0010
0001
1000
0001
,
0100
0100
0100
0000
,
0010
0010
0010
0000
,
1000
1000
1000
0000
,
0001
0001
0001
0000
,
1000
0001
0010
0001
,
1000
0100
1000
0010
,
0100
0010
1000
0001
,
0220
0000
0000
0000
,
0000
0000
0000
0330
,
2002
0000
0000
0000
,
0000
0000
0000
0000
,
3003
0000
0000
0000
;

//---------------dance-single - ----------------
#NOTEDATA:;
#CHARTNAME:DIFFICULT;
#CHARTHASH:3233710655;
#STEPSTYPE:dance-single;
#BANNER:;
#DESCRIPTION:;
#CHARTSTYLE:;
#DIFFICULTY:Medium;
#METER:8;
#METERF:8.000000;
#LASTSECONDHINT:102.932076;
#RADARVALUES:0.301129,0.365560,0.170911,0.180406,0.000000,222.000000,204.000000,18.000000,19.000000,0.000000,0.000000,0.000000,0.000000,0.000000,0.301129,0.365560,0.170911,0.180406,0.000000,222.000000,204.000000,18.000000,19.000000,0.000000,0.000000,0.000000,0.000000,0.000000;
#CREDIT:YonabearCWY;
#NOTES:
0000
0000
0000
0000
,
0000
0000
0000
0000
,
0000
0000
0000
0000
,
0000
0000
0000
0000
,
0010
0000
0101
0000
0010
1000
0010
0000
,
0100
0000
1010
0000
0100
0001
0100
0000
,
0001
0010
1000
0000
,
0001
0100
1000
0000
,
0010
0000
1001
0000
0100
0010
0100
0000
,
1000
0000
0110
0000
0001
1000
0001
0000
,
0100
0000
1001
0000
0010
0100
0010
0000
,
0001
0000
0110
0000
1000
0001
1000
0000
,
0002
0003
2000
3000
,
0002
0003
2000
3001
,
0020
0030
0100
1000
,
2002
0000
3003
0000
,
0010
0000
0010
0000
0010
0000
1000
0001
,
1000
0000
0100
0000
0100
0000
0001
0100
,
1000
0000
1000
0000
1000
0000
0001
0100
,
0001
0000
0010
0000
0010
0000
0001
0010
,
1000
0000
0010
0000
0010
0000
0001
1000
,
0001
0000
0100
0000
0100
0000
0001
1000
,
0100
0000
0010
0000
0001
0000
1000
0001
,
1000
0010
0100
0010
,
1001
0000
1001
0000
0010
0010
0010
0000
,
0100
0001
0010
0100
,
1000
0000
0001
0000
0100
0001
0100
0000
,
0001
0001
1000
1000
,
0020
0000
0030
0000
1000
1000
1000
0000
,
0200
0000
0300
0000
0001
0001
0001
0000
,
0200
0000
0300
0000
0010
0010
0010
0000
,
0001
0000
0100
0000
0010
1000
0001
0000
,
1020
1000
1030
0000
,
0201
0001
0301
0000
,
0120
1000
0001
1030
,
0100
0010
1001
0000
,
1000
0000
1000
0000
0001
0100
0001
0000
,
1000
0000
1000
0000
0010
0001
0010
0000
,
1000
0000
1000
0000
0010
0100
0010
0000
,
1000
0000
1000
0000
0100
0001
0100
0000
,
1000
0000
0001
0010
0000
0001
0000
1000
,
0001
0010
0100
1000
,
1001
0000
0100
0010
0000
0100
0000
1000
,
0001
0000
0100
0010
,
1001
0000
0001
0000
0010
0001
0100
0000
,
0010
0000
1000
0000
0100
1000
0001
0000
,
0100
0000
0010
0000
1000
0100
0010
0000
,
0001
0000
0010
0000
0100
0000
1000
0001
,
0100
0000
0001
1000
0000
0010
0000
2001
,
0000
0100
0000
0010
0000
0100
0000
3001
,
0200
0000
0000
0001
0000
1000
0000
0310
,
0220
0000
0000
0000
,
0000
0000
0000
0330
,
2002
0000
0000
0000
,
0000
0000
0000
0000
,
3003
0000
0000
0000
;

//---------------dance-single - ----------------
#NOTEDATA:;
#CHARTNAME:EXPERT;
#CHARTHASH:3251524337;
#STEPSTYPE:dance-single;
#BANNER:;
#DESCRIPTION:;
#CHARTSTYLE:;
#DIFFICULTY:Hard;
#METER:10;
#METERF:10.000000;
#LASTSECONDHINT:102.932076;
#RADARVALUES:0.442198,0.496117,0.132931,0.151921,0.284852,326.000000,312.000000,14.000000,16.000000,0.000000,0.000000,0.000000,0.000000,0.000000,0.442198,0.496117,0.132931,0.151921,0.284852,326.000000,312.000000,14.000000,16.000000,0.000000,0.000000,0.000000,0.000000,0.000000;
#CREDIT:YonabearCWY;
#NOTES:
0000
0000
0000
0000
,
0000
0000
0000
0000
,
0000
0000
0000
0000
,
0000
0000
0000
0000
,
1000
0000
1000
0000
0001
0000
0000
0000
1000
0010
0000
1000
0001
0000
0000
0000
,
0010
0010
0100
0000
1000
0100
0010
0001
,
1000
0000
0010
0000
0001
0000
0000
0000
0010
0000
0000
0000
0100
0001
0000
1000
,
0100
1000
1000
0000
0001
1000
0100
0010
,
0100
0000
0000
0000
1001
0000
0000
0000
0010
0000
0000
0000
1000
0001
0000
0100
,
0001
0000
1000
0100
0010
0010
0001
0000
,
0100
0000
0001
0000
1000
0000
0000
0000
0010
0100
0000
0001
0100
0000
0000
0000
,
0001
0000
1000
0000
0100
0000
0100
0000
0000
0010
0000
0001
1000
0000
0000
0000
,
0002
0000
0000
1003
0010
0000
0000
0000
0200
0000
0000
0301
1000
0000
0000
0000
,
0020
0000
0000
1030
0001
0000
0000
0000
2000
0000
0001
0000
3001
0000
0010
0000
,
0200
0000
0000
1300
0001
0000
0010
0000
0110
0000
0000
0000
1001
0000
0000
0000
,
0220
0000
0330
0000
,
1000
0000
0000
0001
0000
0000
0010
0000
0000
0000
0100
0000
1000
0000
0100
0000
,
0010
0000
0000
0001
0000
0000
1000
0000
0001
0100
0000
0000
0100
0010
0000
0000
,
0010
0000
0000
1000
0000
0000
0001
0000
0000
0000
0100
0000
0010
0000
0100
0000
,
0001
0000
0000
0000
0010
0000
0100
0000
1000
0100
0000
0000
0100
0010
0000
0000
,
0010
0000
0000
0001
0000
0000
1000
0000
0000
0000
0100
0000
0010
0000
0001
0000
,
1000
0000
0000
0001
0000
0000
0010
0000
0100
1000
0000
0000
1000
0001
0000
0000
,
0010
0000
0000
0001
0000
0000
0100
0000
0000
0000
0010
0000
1000
0000
0100
0000
,
0010
0000
0000
0000
0001
0000
1000
0000
0001
0010
0000
0000
0010
0100
0000
0000
,
1100
0000
0101
0000
1000
0010
0001
0000
,
0100
0100
0100
0000
0010
1000
0100
0000
,
1000
0001
0010
0000
0100
0100
0100
0000
,
1000
0001
0010
0100
1000
0001
0001
1000
,
0100
0000
1000
0000
0010
1000
0000
0010
1000
0000
0100
0000
0100
0000
0000
0000
,
0010
0000
0001
0000
1000
0000
0001
0000
0100
0001
0000
1000
0001
0000
0010
0000
,
0010
0000
0001
0010
1000
0010
0100
0000
,
1000
1000
0001
0001
0010
0100
1001
0000
,
0010
1000
0000
0100
2000
0000
0000
0000
0001
0000
0001
0000
3001
0000
0000
0000
,
0100
0010
0200
0000
1000
1000
1300
0000
,
0001
0100
0000
0001
0020
0000
0000
0000
0001
0000
0001
0000
0031
0000
0000
0000
,
1001
0110
2002
3003
,
1000
0000
0000
0010
0000
0000
0100
0000
0001
0000
0000
0010
0000
0000
0001
0000
,
1000
0000
0100
0000
0010
0000
0001
0000
1000
0001
0000
0000
0001
0010
0000
0000
,
0010
0000
0000
0100
0000
0000
1000
0000
0100
0000
0000
0010
0000
0000
0001
0000
,
0100
0000
0000
0010
0000
0000
1000
0000
0001
0100
0000
0000
0100
0010
0000
0000
,
1001
0000
0010
0100
1000
0100
0001
0100
,
0010
0000
0000
0000
1000
0000
0100
0000
0010
0001
0000
0000
0001
1000
0000
0000
,
1100
0000
0001
0100
1000
0100
0010
1000
,
0001
0000
0000
0000
0100
0000
0001
0000
0010
0001
0000
0000
0001
1000
0000
0000
,
1000
0000
0000
0001
0000
0000
0010
0000
0100
0000
0000
0010
0000
0000
0001
0000
,
1000
0000
0000
0001
0000
0000
0010
0000
0100
1000
0000
0000
1000
0001
0000
0000
,
0010
0000
0000
0001
0000
0000
1000
0000
0001
0000
0000
0010
0000
0000
0001
0000
,
0100
0000
0000
0010
0000
0000
1000
0000
0100
0010
0000
0000
0010
0001
0000
0000
,
0001
1000
0100
1000
0100
0010
0001
0010
,
0001
1000
0010
1000
0010
0001
0010
0001
,
0010
0000
1000
0000
0100
0000
0010
0000
0001
0000
1000
0000
0001
1000
0001
0000
,
0220
0000
0000
0000
,
0000
0000
0000
0330
,
2002
0000
0000
0000
,
0000
0000
0000
0000
,
3003
0000
0000
0000
;

//---------------dance-single - ----------------
#NOTEDATA:;
#CHARTNAME:BEGINNER;
#CHARTHASH:1065114002;
#STEPSTYPE:dance-single;
#BANNER:;
#DESCRIPTION:;
#CHARTSTYLE:;
#DIFFICULTY:Beginner;
#METER:1;
#METERF:0.000000;
#LASTSECONDHINT:0.360000;
#RADARVALUES:0.100376,0.156668,0.037980,0.037980,0.000000,74.000000,70.000000,4.000000,4.000000,0.000000,0.000000,0.000000,0.000000,0.000000,0.100376,0.156668,0.037980,0.037980,0.000000,74.000000,70.000000,4.000000,4.000000,0.000000,0.000000,0.000000,0.000000,0.000000;
#CREDIT:YonabearCWY;
#NOTES:
// measure 0
0000
0000
0000
0000
,  // measure 1
0000
0000
0000
0000
,  // measure 2
0000
0000
0000
0000
,  // measure 3
0000
0000
0000
0000
,  // measure 4
1000
0000
0000
0000
,  // measure 5
1000
0000
0000
0000
,  // measure 6
0001
0000
0000
0000
,  // measure 7
0001
0000
0000
0000
,  // measure 8
1000
0000
0000
0000
,  // measure 9
1000
0000
0000
0000
,  // measure 10
0001
0000
0000
0000
,  // measure 11
0001
0000
0000
0000
,  // measure 12
1000
0000
1000
0000
,  // measure 13
0010
0000
0010
0000
,  // measure 14
0001
0000
0001
0000
,  // measure 15
1001
0000
0000
0000
,  // measure 16
0100
0000
0000
0000
,  // measure 17
0000
0000
0000
0000
,  // measure 18
0001
0000
0000
0000
,  // measure 19
0000
0000
0000
0000
,  // measure 20
0010
0000
0000
0000
,  // measure 21
0000
0000
0000
0000
,  // measure 22
1000
0000
0000
0000
,  // measure 23
0000
0000
0000
0000
,  // measure 24
1001
0000
0000
0000
,  // measure 25
0001
0001
0001
0000
,  // measure 26
0100
0000
0000
0000
,  // measure 27
1000
1000
1000
0000
,  // measure 28
0100
0000
0000
0000
,  // measure 29
0001
0001
0001
0000
,  // measure 30
0010
0000
0000
0000
,  // measure 31
1000
1000
1000
0000
,  // measure 32
0010
0000
0000
0000
,  // measure 33
0010
0000
0000
0000
,  // measure 34
0100
0000
0000
0000
,  // measure 35
0100
0100
0100
0000
,  // measure 36
1000
0000
1000
0000
,  // measure 37
1000
0000
0000
0000
,  // measure 38
0001
0000
0001
0000
,  // measure 39
0001
0000
0000
0000
,  // measure 40
0100
0000
0100
0000
,  // measure 41
0100
0000
0000
0000
,  // measure 42
0010
0000
0010
0000
,  // measure 43
0010
0000
0000
0000
,  // measure 44
1000
1000
1000
0000
,  // measure 45
1000
0000
0000
0000
,  // measure 46
0001
0001
0001
0000
,  // measure 47
0001
0000
0000
0000
,  // measure 48
0100
0100
0100
0000
,  // measure 49
0100
0000
0000
0000
,  // measure 50
0010
0010
0010
0000
,  // measure 51
0220
0000
0000
0000
,  // measure 52
0000
0000
0000
0330
,  // measure 53
2002
0000
0000
0000
,  // measure 54
0000
0000
0000
0000
,  // measure 55
3003
0000
0000
0000
;
