#TITLE:Indigo Vision;
#SUBTITLE:(full flavour hide around mix);
#ARTIST:TaQ;
#TITLETRANSLIT:;
#SUBTITLETRANSLIT:;
#ARTISTTRANSLIT:;
#GENRE:;
#CREDIT:;
#BANNER:Indigo Vision(full flavour hide around mix).png;
#BACKGROUND:Indigo Vision(full flavour hide around mix)-bg.png;
#LYRICSPATH:;
#CDTITLE:Beatmania IIDX.png;
#MUSIC:Indigo Vision(full flavour hide around mix).ogg;
#OFFSET:-1.450000;
#SAMPLESTART:19.978645;
#SAMPLELENGTH:15.000000;
#SELECTABLE:YES;
#BPMS:0.000000=155.000000
;
#STOPS:
;
#BGCHANGES:0.000=Indigo Vision(full flavour hide around mix).mp4=1.000=1=0=0=StretchNoLoop==CrossFade==,
99999=-nosongbg-=1.000=0=0=0 // don't automatically add -songbackground-
;
#KEYSOUNDS:;
#ATTACKS:;

//---------------dance-single - ----------------
#NOTES:
     dance-single:
     :
     Beginner:
     1:
     0.087144,0.157025,0.072374,0.020678,0.000000,59.000000,52.000000,7.000000,2.000000,0.000000,0.000000,0.087144,0.157025,0.072374,0.020678,0.000000,59.000000,52.000000,7.000000,2.000000,0.000000,0.000000:
0000
0000
0000
0000
,
0000
0000
0000
0000
,
0000
0000
0000
0000
,
0000
0000
0000
0000
,
1000
0000
0000
0000
,
0000
0000
0000
0000
,
1000
0000
0000
0000
,
0000
0000
0000
0000
,
0001
0000
0000
0000
,
0001
0000
0000
0000
,
1000
0000
0000
0000
,
1000
0000
0000
0000
,
0001
0000
0000
0000
,
0001
0000
0000
0000
,
1000
0000
0000
0000
,
1000
0000
0000
0000
,
0010
0000
0000
0000
,
0010
0000
0000
0000
,
0100
0000
0000
0000
,
0100
0000
0000
0000
,
1001
0000
0000
0000
,
0000
0000
0000
0000
,
0000
0000
0000
0000
,
0000
0000
0000
0000
,
0110
0000
0000
0000
,
0000
0000
0000
0000
,
0000
0000
0000
0000
,
0000
0000
0000
0000
,
1001
0000
0000
0000
,
0000
0000
0000
0000
,
0110
0000
0000
0000
,
1001
0000
0000
0000
,
0010
0000
0010
0000
,
0010
0000
0000
0000
,
0100
0000
0100
0000
,
0100
0000
0000
0000
,
0001
0000
0001
0000
,
0001
0000
0000
0000
,
1000
0000
1000
0000
,
1000
0000
0000
0000
,
1001
0000
0000
0000
,
0000
0000
0000
0000
,
0000
0000
0000
0000
,
0000
0000
0000
0000
,
0010
0000
0010
0000
,
0010
0000
0000
0000
,
0100
0000
0100
0000
,
0100
0000
0000
0000
,
0001
0000
0001
0000
,
0001
0000
0000
0000
,
1000
0000
1000
0000
,
1000
0000
0000
0000
,
0000
0000
0000
0000
,
0001
0000
0000
0000
,
0001
0000
0000
0000
,
1000
0000
0000
0000
,
1000
0000
0000
0000
,
0001
0000
0000
0000
,
0001
0000
0000
0000
,
1000
0000
0000
0000
,
2002
0000
0000
3003
;

//---------------dance-single - ----------------
#NOTES:
     dance-single:
     :
     Easy:
     4:
     0.168380,0.251241,0.082713,0.186104,0.000000,114.000000,106.000000,8.000000,18.000000,0.000000,0.000000,0.168380,0.251241,0.082713,0.186104,0.000000,114.000000,106.000000,8.000000,18.000000,0.000000,0.000000:
0000
0000
0000
0000
,
0000
0000
0000
0000
,
0000
0000
0000
0000
,
0000
0000
0000
0000
,
2000
0000
0000
0000
,
0000
0000
0000
3000
,
0002
0000
0000
0000
,
0000
0000
0000
0003
,
1000
0000
1000
0000
,
0001
0001
0100
0100
,
0010
0000
0010
0000
,
1000
1000
0001
0001
,
1000
0000
1000
0000
,
1000
0000
1000
0000
,
0001
0000
0001
0000
,
0001
0000
0001
0000
,
0100
0000
0100
0000
,
0100
0000
0100
0000
,
0010
0000
0010
0000
,
0010
0010
0010
0010
,
2002
0000
0000
0000
,
0000
0000
0000
3003
,
0200
0000
0000
0000
,
0000
0000
0000
0300
,
2002
0000
0000
0000
,
0000
0000
0000
3003
,
0020
0000
0000
0000
,
0000
0000
0000
0030
,
1002
0000
0000
0000
,
1003
0000
1000
0000
,
2001
0000
0001
0000
,
3001
1000
0001
1000
,
0001
0000
0100
0010
,
0100
0000
0001
1000
,
0001
0000
1000
0010
,
1000
0000
0010
0000
,
0100
0000
0001
0010
,
0001
0000
1000
0010
,
1000
0000
0010
0000
,
0100
0100
0100
0100
,
2002
0000
0000
0000
,
0000
0000
0000
3003
,
0220
0000
0000
0000
,
0000
0000
0000
0330
,
0001
0000
0001
0000
,
0001
0000
0001
0000
,
1000
0000
1000
0000
,
1000
0000
1000
0000
,
0010
0000
0010
0000
,
0010
0000
0010
0000
,
0100
0000
0100
0000
,
0100
0000
0100
0000
,
2002
0000
0000
3003
,
1000
1000
1000
0000
,
1000
0000
1000
0000
,
0001
0001
0001
0000
,
0001
0000
0001
0000
,
0100
0100
0100
0000
,
0100
0000
0100
0000
,
0010
0010
0010
0000
,
2002
0000
0000
3003
;

//---------------dance-single - ----------------
#NOTES:
     dance-single:
     :
     Medium:
     8:
     0.335283,0.439671,0.124069,0.310174,0.000000,227.000000,215.000000,12.000000,30.000000,0.000000,0.000000,0.335283,0.439671,0.124069,0.310174,0.000000,227.000000,215.000000,12.000000,30.000000,0.000000,0.000000:
0000
0000
0000
0000
,
0000
0000
0000
0000
,
0000
0000
0000
0000
,
0000
0000
0000
0000
,
2100
0000
0000
3001
0100
0000
0010
0000
,
1000
0010
0000
0100
0001
0000
0010
0000
,
1002
0000
0000
0103
0010
0000
0100
0000
,
0010
1000
0000
0001
0100
0000
0010
0100
,
0000
0010
0000
1000
0000
0010
0000
0100
,
0000
1001
0000
0100
0000
1001
0000
0010
,
0000
1000
0000
0100
0000
0010
0000
0002
,
0200
0000
0000
0303
,
0001
0010
0001
0000
0100
0001
0100
0000
,
0001
1000
0100
0000
1000
0001
0100
0000
,
0010
0100
0010
0000
0100
0010
0100
0000
,
0001
0010
0100
0000
1000
0100
0010
0000
,
0001
1000
0001
0000
1000
0001
1000
0000
,
0010
0100
0001
0000
1000
0010
0100
0000
,
0010
0100
0010
0000
1000
0001
1000
0000
,
0001
0100
1000
0000
1000
0100
0001
0000
,
2002
0000
0000
0000
,
0000
0000
0000
3003
,
0200
0000
0000
0000
,
0000
0000
0000
0300
,
2002
0000
0000
0000
,
0000
0000
0000
3003
,
0020
0000
0000
0000
,
0000
0000
0000
0030
,
2200
0000
0000
3300
,
0002
0000
0000
0003
,
0220
0000
0000
0330
,
2002
0000
0000
3003
,
1000
0000
0010
0100
0001
0000
1000
0010
,
0200
0000
0000
0301
2000
0000
0000
3001
,
0100
0000
0010
0000
1000
0000
0100
0010
,
0002
0000
0000
1003
0020
0000
0000
0130
,
0001
0000
1000
0001
0010
0000
0001
0010
,
0200
0000
0000
1300
0200
0000
0000
1300
,
0010
0000
0100
0000
0001
0000
0100
0010
,
0100
0000
0010
1000
0010
1000
0001
0000
,
2001
0010
0000
0010
,
3002
1000
0000
1000
,
2000
0000
0000
0000
,
0000
0000
0000
3003
,
1000
0010
1000
0000
0010
1000
0010
0000
,
1000
0001
0010
0000
0001
0100
0010
0000
,
0100
0010
0100
0000
0001
1000
0001
0000
,
1000
0100
0010
0000
0001
0010
0100
0000
,
1000
0010
1000
0000
0001
0100
0001
0000
,
1000
0010
0001
0000
0001
0010
1000
0000
,
0100
0010
0100
0000
1000
0001
1000
0000
,
0001
0100
1000
0000
1000
0100
0001
0000
,
0220
0000
0000
0330
,
1000
0000
0001
0100
0000
0000
0010
0000
,
1000
0000
0010
0100
0000
0000
0010
0000
,
1000
0000
0100
0010
0000
0000
0001
0000
,
1000
0001
1000
0000
0001
1000
0001
0000
,
1000
0000
0001
0010
0000
0000
0001
0000
,
0100
0000
0010
1000
0000
0000
0100
0000
,
0010
0000
0001
1000
0000
0000
0100
0000
,
0022
0000
0000
0033
;

//---------------dance-single - ----------------
#NOTES:
     dance-single:
     :
     Hard:
     12:
     0.522864,0.628102,0.031017,0.299835,0.273987,354.000000,351.000000,3.000000,29.000000,0.000000,0.000000,0.522864,0.628102,0.031017,0.299835,0.273987,354.000000,351.000000,3.000000,29.000000,0.000000,0.000000:
// measure 0
0000
0000
0000
0000
,  // measure 1
0000
0000
0000
0000
,  // measure 2
0000
0000
0000
0000
,  // measure 3
0000
0000
0000
0000
,  // measure 4
1000
0100
0010
0000
0100
1000
0001
0000
,  // measure 5
0100
0010
1000
0010
0000
0100
0001
0000
,  // measure 6
0010
0001
1000
0000
0001
0010
0100
0000
,  // measure 7
1000
0000
0100
0000
0010
0000
0000
0001
1000
0000
0010
0000
0100
0000
0002
0000
,  // measure 8
0000
1003
0100
0001
0100
1000
0010
0100
,  // measure 9
0010
1000
0001
0010
1000
0010
0001
1000
,  // measure 10
0010
0100
0010
1000
0001
0010
0100
0010
,  // measure 11
0002
1000
0000
1003
0100
0010
0010
0010
,  // measure 12
0001
0100
0000
0000
0001
0100
0000
0000
0001
1000
0000
0000
0001
1000
0000
0000
,  // measure 13
1000
0100
0001
0000
0001
0100
1000
0000
,  // measure 14
1000
0010
0000
0000
1000
0010
0000
0000
0100
0010
0000
0000
0100
0010
0000
0000
,  // measure 15
0001
0000
0010
0000
1000
0000
0000
0000
1000
0000
0010
0000
0001
1000
0000
0000
,  // measure 16
0100
0010
0000
0000
0010
0001
0000
0000
0001
1000
0000
0000
1000
0100
0000
0000
,  // measure 17
0010
0000
0001
0000
1000
0000
0000
0000
1000
0000
0001
0000
0010
0100
0000
0000
,  // measure 18
1000
0001
0000
0000
0001
0100
0000
0000
0100
0010
0000
0000
0010
1000
0000
0000
,  // measure 19
0100
0000
0010
0000
0001
1000
0000
0001
1000
0000
0010
0100
0000
0010
0100
0000
,  // measure 20
2002
0000
0000
0000
,  // measure 21
0000
0000
0000
0003
,  // measure 22
0020
0000
0000
3000
,  // measure 23
0200
0030
0002
0300
,  // measure 24
2003
0000
0010
0010
0000
0010
0010
0000
,  // measure 25
3002
0000
0100
0000
0000
0100
0100
0000
,  // measure 26
1003
0001
0010
0200
0000
1300
0200
0000
,  // measure 27
0310
0001
1000
0020
0000
0100
0000
1030
,  // measure 28
0020
0000
0000
2030
0001
0000
0010
0000
,  // measure 29
3200
0000
0000
2300
0001
0000
0000
3100
,  // measure 30
0020
0000
0000
0032
1000
0000
0000
0103
,  // measure 31
0010
0000
0100
0000
0010
0000
0100
0000
0010
0100
0010
0100
0010
0000
0000
0000
,  // measure 32
1000
0001
0010
0200
0000
1300
0100
0001
,  // measure 33
0100
1000
0010
0100
0001
1000
0100
0010
,  // measure 34
0001
0100
0010
2000
0000
3001
0010
1000
,  // measure 35
0010
0001
0100
0010
0100
0001
1000
0100
,  // measure 36
0010
0001
1000
0002
0000
0013
0001
1000
,  // measure 37
0100
0010
0100
1000
0001
0100
0010
1000
,  // measure 38
0100
0010
0100
2000
0000
3001
0100
0010
,  // measure 39
0100
0001
1000
0010
0001
0010
1000
0010
,  // measure 40
0220
0000
0000
0000
,  // measure 41
0000
0000
0000
0030
,  // measure 42
0002
0000
0000
0300
,  // measure 43
2000
0000
0000
3003
,  // measure 44
1000
0100
0000
0000
1000
0100
0000
0000
0001
0100
0000
0000
0001
0100
0000
0000
,  // measure 45
1000
0100
0001
0000
0001
0100
1000
0000
,  // measure 46
0001
0010
0000
0000
0001
0010
0000
0000
1000
0010
0000
0000
1000
0010
0000
0000
,  // measure 47
0001
0000
0010
0000
1000
0000
0010
0000
0001
0000
0100
0000
0010
0100
0000
0000
,  // measure 48
0001
1000
0000
0000
1000
0001
0000
0000
0010
0100
0000
0000
0100
0010
0000
0000
,  // measure 49
0001
0000
1000
0000
0100
0000
0001
0000
0100
0000
1000
0000
0010
0100
0000
0000
,  // measure 50
0001
0100
0000
0000
0100
0001
0000
0000
1000
0010
0000
0000
0010
1000
0000
0000
,  // measure 51
0001
0000
0100
0000
0010
1000
0000
0010
1000
0000
0001
0100
0000
0001
0100
0000
,  // measure 52
2002
0000
0000
3003
,  // measure 53
1000
0001
0010
0100
1000
0010
0100
0001
,  // measure 54
1000
0100
0000
0000
0010
0000
0001
0000
1000
0000
0010
0000
0100
0000
0001
0000
,  // measure 55
0000
1000
0010
0001
0010
1000
0010
0100
,  // measure 56
0001
1000
0000
0000
0100
0000
0010
0000
0001
0000
1000
0000
0001
0000
0000
0001
,  // measure 57
0100
0010
1000
0100
0010
0100
1000
0001
,  // measure 58
0100
0010
0000
0000
1000
0000
0001
0000
0010
0000
0100
0000
0010
0000
0001
0000
,  // measure 59
1000
0001
0010
0000
0001
0010
0100
1000
,  // measure 60
0002
0000
0000
1000
0000
0000
1000
0000
0000
1000
0000
0000
1003
0000
0000
0000
;
