#VERSION:0.83;
#TITLE:一網打尽;
#SUBTITLE:;
#ARTIST:96;
#TITLETRANSLIT:Ichimoudajin;
#SUBTITLETRANSLIT:;
#ARTISTTRANSLIT:;
#GENRE:;
#ORIGIN:;
#TAGS:;
#CREDIT:;
#BANNER:Ichimoudajin.png;
#BACKGROUND:Ichimoudajin-bg.png;
#PREVIEWVID:;
#JACKET:Ichimoudajin-jacket.png;
#CDIMAGE:;
#DISCIMAGE:;
#LYRICSPATH:;
#CDTITLE:GUITAR FREAKS & drummania.png;
#MUSIC:Ichimoudajin.ogg;
#OFFSET:-0.120000;
#SAMPLESTART:59.674202;
#SAMPLELENGTH:15.000000;
#SELECTABLE:YES;
#BPMS:0.000000=290.000000
;
#STOPS:;
#DELAYS:;
#WARPS:;
#TIMESIGNATURES:0.000000=4=4
;
#TICKCOUNTS:0.000000=4
;
#COMBOS:0.000000=1
;
#SPEEDS:0.000000=1.000000=0.000000=0
;
#SCROLLS:0.000000=1.000000
;
#LABELS:0.000000=Song Start
;
#BGCHANGES:-10.700=Ichimoudajin.mp4=1.000=1=0=0=StretchNoLoop==CrossFade==,
458.500=Ichimoudajin-bg.png=1.000=0=0=1=====,
99999.000=-nosongbg-=1.000=0=0=0=StretchNoLoop====,
99999=-nosongbg-=1.000=0=0=0 // don't automatically add -songbackground-
;
#KEYSOUNDS:;
#ATTACKS:
;

//---------------dance-single - ----------------
#NOTEDATA:;
#CHARTNAME:;
#CHARTHASH:3313230869;
#STEPSTYPE:dance-single;
#BANNER:;
#DESCRIPTION:;
#CHARTSTYLE:;
#DIFFICULTY:Easy;
#METER:11;
#METERF:11.000000;
#LASTSECONDHINT:94.982071;
#RADARVALUES:0.000000,0.000000,0.000000,0.000000,0.000000,0.000000,0.000000,0.000000,0.000000,0.000000,0.000000,0.000000,0.000000,0.000000,0.000000,0.000000,0.000000,0.000000,0.000000,0.000000,0.000000,0.000000,0.000000,0.000000,0.000000,0.000000,0.000000,0.000000;
#CREDIT:;
#NOTES:
0000
0000
0000
0000
,
0000
0000
0000
0000
,
0000
0000
0000
0000
,
0000
0000
0000
0000
,
0000
0000
0000
0000
,
0000
0000
0000
0000
,
0000
0000
0000
0000
,
0000
0000
0000
0000
,
1000
0010
1000
0001
,
1000
0000
0001
0010
,
0001
1000
0001
0000
,
0100
0010
0100
1000
,
0100
0000
0001
1000
,
0100
0010
1001
0001
,
0000
0010
0000
0000
0001
0000
1000
0000
,
0100
0000
0000
1000
0000
0000
0010
0000
,
0100
0000
0001
0000
0000
1000
0000
0000
,
0010
0000
0100
0000
1000
0000
0000
0100
,
0000
0010
1000
0001
,
0100
0000
0110
0000
,
0010
0000
1010
0000
,
1000
0000
1001
0000
,
0001
0000
0101
0000
,
1000
0000
1001
0000
,
0010
0100
0010
1000
,
0010
0000
1000
0001
,
1000
0000
0001
0100
,
0001
0000
0100
0010
,
0100
0000
0001
1000
,
0001
0010
0000
0100
,
0000
1000
0000
0001
,
2002
0000
0000
0000
,
0000
0000
0000
3003
,
0110
0000
1000
0000
,
0010
0000
0000
0000
0000
0100
0000
0001
,
0000
0000
0010
0000
,
0000
0000
0010
0001
,
1000
0000
0000
1001
0000
0000
0000
0000
,
0010
0000
1000
0000
0000
0001
0000
0202
,
0000
0000
0000
0303
,
1000
0001
1000
0000
,
0110
0000
1000
0000
,
0010
0000
0100
0001
,
0100
0000
0001
0000
,
1000
0000
0010
1000
,
0010
0000
0100
0000
,
0001
0000
1000
0001
,
2002
0000
0000
3003
,
0220
0000
0000
0330
,
1000
0001
0000
0010
,
0000
0001
0000
0100
,
0001
0100
0000
0001
,
0000
1000
0100
0000
,
1000
0001
0000
0010
,
0000
0001
0000
1000
,
0001
0100
0001
0000
,
1000
0001
1000
0000
,
0110
0000
1000
0010
,
0001
0010
1000
0000
,
0110
0000
0001
0100
,
1000
0100
0001
0000
,
1001
0000
0011
0000
,
1001
0000
1100
0000
,
0220
0000
0000
0330
,
1000
0001
1001
0000
,
1000
0000
0000
1000
0000
0000
1000
0000
,
0001
0000
0010
0001
,
0000
0001
0000
0000
0001
0000
1000
0000
,
0100
0000
1000
0000
0010
0000
0000
0010
,
0000
0010
0100
0000
,
0001
2002
0000
0000
,
0000
0000
0000
3003
,
1000
0000
0000
0010
0000
0000
1000
0000
,
0010
0000
0100
0000
,
0001
0000
0010
0000
,
0001
0100
1000
0100
,
0001
0000
0010
0000
,
0100
0000
1000
0000
,
0001
1000
0001
0000
,
1000
0001
1000
0000
,
0110
0000
0000
1000
0000
0000
0001
0000
,
0100
0000
0001
0000
,
1000
0000
0100
0000
,
0010
0001
0010
1000
,
0010
0000
0000
0010
0000
0000
0010
0000
,
0001
0000
1000
0000
,
0001
0000
0000
0001
0000
0000
0001
0000
,
1000
0000
0010
0000
,
2002
0000
0000
0000
,
0000
0000
0000
0000
,
0000
0000
0000
0000
,
0000
0000
0000
3003
,
1000
0000
0000
1000
0000
0000
0001
0000
,
0100
0001
0000
0100
,
0000
0100
0000
0000
0010
0000
1000
0000
,
0001
0000
0000
0000
1000
0000
0000
1000
,
0000
1000
0010
1000
,
0000
0000
0001
0000
0000
0001
0000
0000
,
0001
0000
1001
0000
,
0220
0000
0330
0010
,
1000
0001
0100
0202
,
0000
0303
0001
0010
,
0100
1000
2002
0000
,
3003
1000
0010
0100
,
0001
0202
0000
0000
,
0000
0000
0000
0000
,
0000
0303
2200
0000
,
0000
0000
0000
0000
,
0000
0000
0000
0000
,
0000
3300
2002
0000
,
0000
3003
0000
0000
,
0220
0000
0000
0000
,
0000
0000
0000
0000
,
0000
0000
0000
0000
,
0000
0000
0000
0000
0000
0330
0000
0000
;

//---------------dance-single - ----------------
#NOTEDATA:;
#CHARTNAME:;
#CHARTHASH:1074986672;
#STEPSTYPE:dance-single;
#BANNER:;
#DESCRIPTION:;
#CHARTSTYLE:;
#DIFFICULTY:Medium;
#METER:13;
#METERF:13.000000;
#LASTSECONDHINT:94.982071;
#RADARVALUES:0.000000,0.000000,0.000000,0.000000,0.000000,0.000000,0.000000,0.000000,0.000000,0.000000,0.000000,0.000000,0.000000,0.000000,0.000000,0.000000,0.000000,0.000000,0.000000,0.000000,0.000000,0.000000,0.000000,0.000000,0.000000,0.000000,0.000000,0.000000;
#CREDIT:;
#NOTES:
0000
0000
0000
0000
,
0000
0000
0000
0000
,
0000
0000
0000
0000
,
0000
0000
0000
0000
,
0000
0000
0000
0000
,
0000
0000
0000
0000
,
0000
0000
0000
0000
,
0000
0000
0000
0000
,
1000
0001
0100
1000
,
0100
0001
1000
0010
,
0001
0010
1000
0100
,
0010
0001
0100
0010
,
1000
0100
0010
0001
,
0010
1000
0011
0001
,
1000
0000
0000
0001
0000
0001
0010
0000
,
0001
0000
0000
1000
0000
1000
0001
0000
,
0100
0000
0010
0000
0000
0100
0000
0100
,
0001
0000
0010
0000
0100
0000
0000
1000
,
0000
1000
0001
0000
0010
0000
1000
0000
,
0110
0001
0010
1000
,
0010
0001
1000
0100
,
0001
0100
1000
0001
,
1000
0010
0100
0010
,
1000
0000
0001
0000
1000
0001
1000
0000
,
0001
0010
0001
0000
0100
0000
0100
0000
,
0010
0010
1000
1000
,
0100
0100
0010
0010
,
0001
0001
0010
0010
,
1000
1000
0010
0010
,
0001
0000
0001
0000
1000
0001
1000
0000
,
0001
0010
0001
0000
0100
0010
0100
0000
,
2002
0000
0000
0000
,
0000
0000
0000
3003
,
0110
0000
1000
0000
0010
0000
0000
0100
,
0001
0000
0010
0000
0001
1000
0000
0010
,
0100
0001
0100
0000
,
0001
0010
0100
1000
0100
0000
1000
0000
,
1001
0000
0000
1001
0000
0100
0010
0000
,
0100
0000
0001
0000
0010
0001
0000
2001
,
0000
0000
0010
3000
,
1002
0000
0100
0003
,
1001
0000
0001
0010
0100
0010
0001
0000
,
1000
0001
0100
0010
,
0110
0000
1000
0001
0100
0001
1000
0000
,
0010
0000
1000
0000
0010
0000
0100
0000
0001
0000
0100
0000
,
0000
0000
0000
1001
0000
0000
0000
1000
,
0100
0000
0010
0000
0001
0010
0000
0001
,
2000
0000
0010
3000
,
0102
0000
1000
0003
,
0100
0100
0001
0001
,
0010
0000
0010
0000
0001
1000
0000
0001
,
1000
1000
0100
0100
,
0010
0000
0010
0000
0001
1000
0001
0000
,
0100
0100
0010
0010
,
1000
0000
1000
0000
0010
0100
0000
0010
,
0100
0001
1000
0100
,
0001
0100
2001
0000
,
3001
0001
0010
0010
,
0100
0000
0100
0000
1000
0100
1000
0001
,
1000
1000
0010
0010
,
0100
0000
0100
0000
0001
0010
0001
0000
,
1000
1000
0001
0001
,
0010
0000
0010
0100
0010
0001
0010
0000
,
1001
0000
0110
0000
,
1100
0000
0101
0000
,
1000
0001
0000
1000
0001
0000
0100
0000
,
0001
1000
0000
0001
1000
0000
0010
0100
,
0000
0010
0100
0000
0010
0000
1000
0001
,
1000
0001
0000
1000
0001
0000
0010
0001
,
0000
0100
0001
0000
1000
0000
0010
0100
,
0000
0001
0100
0000
0000
0110
0000
0000
,
1010
0000
0000
1001
0000
0000
0000
0001
,
0200
0000
0301
0100
,
0010
1000
0100
0010
,
0002
1000
0000
0100
,
0000
1000
0000
0013
,
0001
1000
0100
0010
,
0100
1000
0001
0100
,
0010
0000
0000
1010
0000
0000
1000
0000
,
0001
0100
0010
1000
,
0200
1000
0000
0001
,
0000
1000
0000
0010
,
1300
0001
0100
0001
,
1000
0010
0100
0001
,
0101
0000
0001
1000
0000
0001
1000
0000
,
0010
1000
0100
0001
,
1100
0000
1000
0010
0000
1000
0010
0000
,
0100
0001
0100
0001
1000
0010
1000
0002
,
2000
0000
0000
0000
,
0000
0000
0000
3003
,
0220
0000
0000
0000
,
0000
0000
0000
0330
,
1000
0000
0000
0001
0000
0010
0001
0000
,
0100
0010
1000
0001
,
0000
1000
0000
0001
0100
0000
0010
0000
,
1000
0000
0100
0000
0010
0000
0000
0100
,
0000
1000
0100
0000
1000
0000
0001
0000
,
0010
0000
1001
0000
0000
0101
0000
0000
,
0110
0000
1010
0000
,
1001
1000
0100
1000
,
0001
0100
0001
0000
0010
0000
0011
0000
,
0001
0000
1000
0000
0100
0000
1000
0010
,
1000
0000
0010
0100
0010
0000
1000
0000
,
0001
0000
0010
0000
0001
0100
0001
1000
,
0010
1000
0000
0000
0000
1100
0000
0000
,
1001
0000
0000
0011
0000
0000
0110
0000
,
0000
1001
0000
0000
0220
0000
0000
0000
,
0000
0000
0000
0000
,
0000
0000
0000
0000
,
0330
0000
2002
0000
,
0000
0000
3003
0000
,
0220
0000
0000
0000
,
0000
0000
0000
0000
,
0000
0000
0000
0000
,
0000
0000
0000
0000
0000
0330
0000
0000
;

//---------------dance-single - ----------------
#NOTEDATA:;
#CHARTNAME:;
#CHARTHASH:278378859;
#STEPSTYPE:dance-single;
#BANNER:;
#DESCRIPTION:;
#CHARTSTYLE:;
#DIFFICULTY:Hard;
#METER:16;
#METERF:16.000000;
#LASTSECONDHINT:94.982071;
#RADARVALUES:0.000000,0.000000,0.000000,0.000000,0.000000,0.000000,0.000000,0.000000,0.000000,0.000000,0.000000,0.000000,0.000000,0.000000,0.000000,0.000000,0.000000,0.000000,0.000000,0.000000,0.000000,0.000000,0.000000,0.000000,0.000000,0.000000,0.000000,0.000000;
#CREDIT:;
#NOTES:
0000
0000
0000
0000
,
0000
0000
0000
0000
,
0000
0000
0000
0000
,
0000
0000
0000
0000
,
0000
0000
0000
0000
,
0000
0000
0000
0000
,
0000
0000
0000
0000
,
0000
0000
0000
0000
,
1001
0000
0010
0000
0001
0010
0000
0010
,
0100
0000
0100
1000
0100
0000
0100
0010
,
0000
0010
0001
0000
0001
1000
0001
0000
,
0001
1000
0000
1000
0010
0000
0010
0100
,
0010
0000
0010
1000
0000
1000
0100
1000
,
0001
1000
0001
0000
0010
0000
0001
0010
,
0100
0010
0001
0000
1100
0000
1000
0100
,
0001
0100
1000
0100
0010
0100
1000
0000
,
0001
0000
0100
0010
1000
0010
0100
0000
,
1001
0000
0001
0010
1000
0010
0001
0010
,
0100
0010
0001
0000
1000
0001
0010
0100
,
1000
1100
1000
1001
,
1000
0000
1010
0000
1000
0100
0010
0001
,
0100
0110
0100
0101
,
0100
0000
1100
0000
0100
0001
0010
0100
,
0010
0011
0010
1010
,
0010
0000
0110
0000
0010
0001
0010
0100
,
1000
0100
0010
0100
1000
0001
1000
0001
,
0010
0001
0010
0100
0010
0100
1000
0100
,
1000
0001
1000
0001
0100
0001
0100
1000
,
0100
1000
0100
0001
0100
0001
1000
0100
,
0010
0001
0010
0100
0000
1000
0100
0001
,
0000
0001
0100
1000
0000
1000
0100
0010
,
2002
0000
0000
0000
,
0000
0000
0000
3003
,
0120
0000
1030
0010
1000
0010
0001
0010
,
0001
0010
1000
0010
1000
0001
0000
0001
,
1000
0100
1000
0100
0001
0100
0001
0100
,
1000
0100
1000
0001
0100
0010
0100
0001
,
1000
0000
0000
0120
0000
1030
0100
0010
,
0001
0100
0010
0100
0001
0010
0000
2100
,
0000
0000
0000
0000
3001
0100
0000
0001
,
0010
0001
0000
1000
0010
1000
0001
0010
,
0100
1000
0100
0010
0001
0010
0100
1000
,
0001
1000
0100
0010
0100
1000
0000
1000
,
0001
0010
0100
0010
0001
1000
0100
0001
,
0100
0000
1000
0000
0100
0000
0010
0000
0001
0000
1000
0000
,
0001
0000
0000
2001
0000
3001
0100
0010
,
1000
0100
0010
0001
0100
0010
0000
0010
,
0100
0000
0110
0000
0010
1000
0000
1000
,
0100
0010
0000
0001
0010
0100
0000
1000
,
0100
0000
1100
0000
0100
0000
0100
1000
,
0000
1001
0000
1000
0010
0100
0000
0001
,
0100
0000
0110
0000
0100
0000
0100
0001
,
1000
0010
1000
0010
0100
0001
0100
0000
,
1001
0000
0001
0000
0011
0000
0001
0100
,
0000
0110
0000
0010
1000
0100
0000
0010
,
0001
1000
0100
1000
0100
0001
0100
0001
,
0100
1000
0010
1000
0010
0001
0010
0001
,
0010
0000
1010
0000
0010
0000
0100
0001
,
0000
0001
0010
0100
1000
0001
0000
1000
,
0100
0000
1100
0000
1000
0000
0001
1000
,
0100
0001
0100
1000
0001
0100
0010
0000
,
0100
0010
0100
0001
1000
0001
1000
0100
,
0010
0100
0010
0001
0010
0001
1000
0001
,
0101
0100
0110
0010
,
1010
1000
1001
0001
,
0100
0001
0000
0001
0100
0000
0100
0010
,
0000
0010
1000
0100
0010
0001
1000
0001
,
0000
0001
0100
0000
0100
0010
0100
0010
,
1000
0100
0010
0100
1000
0100
0000
0100
,
0010
0000
0010
0001
0000
0001
1000
0010
,
0001
0010
1000
0001
0000
0001
0100
0000
,
0100
0010
0000
0010
2000
0000
0000
0000
,
3002
0000
0000
1003
0000
1000
0100
0000
,
1100
1000
1001
0001
,
0011
0000
0001
1000
0000
0001
0100
0000
,
0110
0000
1000
0010
0000
1000
0001
0000
,
0001
0010
0001
0000
0101
0000
0001
0000
,
1000
0001
1000
0000
1010
0000
0010
0000
,
0101
0000
0000
1001
0000
1000
0100
0000
,
0010
0001
0010
1000
0010
0001
0100
0010
,
0100
0000
0001
0010
0100
1000
0100
0000
,
1001
0000
1000
0100
0000
0010
0001
0000
,
0110
0000
0001
1000
0010
0100
0010
0000
,
1100
1000
1001
0001
,
0011
0000
1000
0100
0000
0100
0001
0000
,
0001
0100
0000
0100
1000
0000
1001
0000
,
0010
0100
0000
0100
1000
0000
1000
0100
,
0000
0100
0001
0100
0010
1000
0001
1000
,
2002
0000
0000
0000
,
0000
0000
0000
3003
,
0001
1000
0001
1000
0001
1000
0001
1000
,
0001
1000
0001
1000
0001
1000
0001
1000
,
0001
0100
0000
0100
0010
0000
0010
1000
,
0100
0010
0001
1000
0100
1000
0010
1000
,
0000
1000
0100
0000
0100
0010
0100
0010
,
0001
0010
0001
0010
0100
0010
0000
0010
,
0001
0000
0001
1000
0100
0010
0100
1000
,
0001
0100
0010
1000
0000
1000
0001
0000
,
0001
0100
0000
0100
0010
0100
0000
0001
,
1000
0100
0000
0100
0001
0000
0001
0100
,
1000
0100
0001
0100
1000
0010
1000
0001
,
0000
0001
0100
0000
0100
0010
0100
0010
,
1000
0010
1000
0100
1000
0010
0000
0010
,
0001
0000
0001
0010
1000
0010
0001
0010
,
0100
0010
1000
0010
0100
0010
1000
0010
,
1000
0100
1000
0001
1000
0010
1000
0001
,
1000
0100
0010
0001
1000
0100
0000
1000
,
0001
0010
0000
0001
1000
0100
0000
1000
,
0010
0001
0000
0001
0010
1000
0000
1000
,
0100
0010
0000
0001
2002
0000
0000
0000
,
0000
3003
0000
0000
,
0220
0000
0000
0000
,
0000
0000
0000
0000
,
0000
0000
0000
0000
,
0000
0000
0330
0000
0100
0100
0000
0000
;

//---------------dance-single - ----------------
#NOTEDATA:;
#CHARTNAME:;
#CHARTHASH:2546833820;
#STEPSTYPE:dance-single;
#BANNER:;
#DESCRIPTION:;
#CHARTSTYLE:;
#DIFFICULTY:Challenge;
#METER:18;
#METERF:18.000000;
#LASTSECONDHINT:94.982071;
#RADARVALUES:0.000000,0.000000,0.000000,0.000000,0.000000,0.000000,0.000000,0.000000,0.000000,0.000000,0.000000,0.000000,0.000000,0.000000,0.000000,0.000000,0.000000,0.000000,0.000000,0.000000,0.000000,0.000000,0.000000,0.000000,0.000000,0.000000,0.000000,0.000000;
#CREDIT:;
#NOTES:
0000
0000
0000
0000
,
0000
0000
0000
0000
,
0000
0000
0000
0000
,
0000
0000
0000
0000
,
0000
0000
0000
0000
,
0000
0000
0000
0000
,
0000
0000
0000
0000
,
0000
0000
0000
0000
,
1000
0100
0001
0100
1000
0001
0010
1000
,
0010
0001
1000
0100
0001
0100
1000
0001
,
0010
0100
1000
0010
0100
0001
1000
0100
,
0001
1000
0010
0001
1000
0100
0001
0100
,
1000
0001
0010
1000
0001
0100
1000
0100
,
0001
1000
0010
0001
0010
0002
1000
0000
,
0103
0010
0000
1000
0010
0001
0010
2000
,
0100
0000
3001
0100
0000
0010
1000
0010
,
0001
0020
0100
0000
1030
0001
0000
0010
,
0100
1000
0001
2000
0100
0000
3001
0010
,
0000
0010
0001
1000
0100
0010
0001
1000
,
1001
0000
0001
0010
0001
0000
0001
0000
,
1001
0001
0011
0101
,
0100
0010
0100
0000
1100
0000
0100
0000
,
0101
0100
0110
1001
,
1000
0100
0010
0001
0100
0010
1000
0001
,
0010
0100
1000
0000
1000
0100
1000
0000
,
1010
0000
0110
0000
0100
0001
0100
0001
,
0000
0001
1000
0000
1000
0100
0010
0001
,
1000
0001
1000
0000
0011
0000
1001
0000
,
0100
0010
0100
0010
0000
1000
0100
0010
,
0001
0010
0100
0010
0001
1000
0100
0001
,
0100
1000
0001
0010
1000
0010
0001
1000
,
2001
0000
0000
0000
0000
0000
3001
0010
0001
0010
0001
0010
,
0001
1000
0100
0010
0001
1000
0100
0001
,
1200
0000
1300
0100
0010
0100
1000
0001
,
0010
0100
1000
0100
0020
0100
0000
0031
,
1000
0001
0010
0001
1000
0001
0010
0100
,
1000
0000
0001
0100
0001
0000
0100
0000
0010
0000
1000
0000
0100
0000
0010
0000
,
1001
0000
0000
0120
0000
1030
0100
0001
,
0100
0010
0100
1000
0001
0011
0000
2100
,
0000
0000
0000
0000
3001
1000
0100
0010
,
0100
1000
0000
0100
0010
0001
0000
1000
,
1001
0000
0000
0000
0000
0000
1000
0000
0100
0000
1000
0000
0100
0000
0000
1000
0000
0000
0010
0000
0000
0001
0000
0000
,
0010
1000
0100
0010
0100
1010
0000
0001
,
0100
0000
0010
0000
0100
0000
0010
0000
0000
1000
0000
0000
0100
0000
0000
0001
0000
0000
0100
0000
0000
1000
0000
0000
,
0001
0000
0001
0000
1000
0000
0010
0000
0010
0000
0100
0000
,
0001
0100
0000
0110
0000
0010
1000
0100
,
0010
0001
0100
0010
1000
0101
0000
0010
,
0100
0000
1000
0000
0100
0000
1000
0000
0000
0100
0000
0000
0010
0000
0000
0001
0000
0000
0010
0000
0000
0100
0000
0000
,
0010
0001
0000
1000
0001
0100
0000
0001
,
2100
0000
0000
0000
0000
0000
3001
0000
0010
0000
0100
0000
1000
0000
0000
0100
0000
0000
0010
0000
0000
0100
0000
0000
,
1000
0001
0010
0100
0010
0001
1000
0100
,
0021
0000
0000
0000
0000
0000
0031
0000
1000
0000
0010
0000
0100
0000
0000
0001
0000
0000
0100
0000
0000
1000
0000
0000
,
0100
0010
0100
0001
1000
0100
0010
0100
,
1002
0000
0000
0000
0000
0000
1003
0000
0001
0000
0010
0000
0100
0000
0000
1000
0000
0000
0010
0000
0000
0100
0000
0000
,
0001
1000
0100
0010
0001
0100
0010
1000
,
0001
0000
1000
0000
0100
0000
1000
0000
0100
0000
0010
0000
0001
0000
0000
0010
0000
0000
0100
0000
0000
1000
0000
0000
,
0001
1000
0100
0010
0001
1000
0001
0010
,
2100
0000
0000
0000
0000
0000
3001
0000
1000
0000
0001
0000
0100
0000
0000
0010
0000
0000
1000
0000
0000
0100
0000
0000
,
0010
0001
0100
0010
0100
0001
1000
0001
,
0012
0000
0000
0000
0000
0000
1003
0000
0100
0000
0010
0000
0100
0000
0000
1000
0000
0000
0001
0000
0000
0010
0000
0000
,
0100
0010
0100
1000
0100
1000
0001
0100
,
0001
0000
0010
0000
0001
0000
0010
0000
0000
0001
0000
0000
1000
0000
0100
0000
1000
0000
0100
0000
0010
0000
0001
0000
,
1000
0000
0000
0001
0000
0000
0010
0000
0000
1000
0000
0000
0010
0000
0001
0000
0010
0000
0001
0000
0000
1000
0000
0000
,
0010
0100
0010
0100
0001
1000
0001
1000
0100
0010
0100
0010
,
0001
0000
0010
0000
0001
0000
0010
0000
0100
0000
1000
0000
0001
0000
0000
1000
0000
0000
0100
0000
0000
0010
0000
0000
,
0001
0000
0100
0000
0000
0000
0100
0000
0010
0100
0000
0000
0100
0001
0000
0000
,
0001
1000
0001
0000
1000
0000
0100
0000
0010
0000
0001
0000
0100
0000
0010
0000
,
0000
0000
0010
0000
1000
0100
0010
0000
0001
0000
0010
0000
0100
0000
1000
0000
,
0001
0100
0001
1000
0100
1000
0000
1000
,
0001
0010
0000
0000
0010
0100
0000
0000
0100
1000
0100
0000
1000
0000
0100
0000
,
0010
0001
1000
0010
0100
0001
0100
0010
,
1000
0000
0000
0100
0000
0000
0001
0000
0000
0100
0000
0000
1000
0000
0001
0000
1000
0000
0001
0000
1000
0000
0001
0000
,
0200
0000
0010
0010
0000
0301
1000
0000
,
1100
0000
1000
0010
0100
0001
0100
0000
,
0011
0000
0001
1000
0100
0010
0001
0000
,
1000
0100
0001
1000
0010
0001
1000
0100
,
0001
0000
0100
1000
0100
0001
0100
0000
,
1001
0000
0001
0010
0100
0010
0001
0000
,
0210
0000
1000
1000
0000
0301
0100
0000
,
0001
0000
1000
0000
0010
0000
0100
0000
0000
0010
0000
0000
1000
0000
0000
0100
0000
0000
0010
0000
0000
0001
0000
0000
,
0200
0000
0001
0001
0000
0310
0100
1000
,
0100
0001
0100
0010
0000
0100
0001
0000
,
0001
0010
0100
1000
0100
0010
0100
0000
,
1000
0001
0010
0001
1000
0010
0100
0000
,
0001
0010
0001
0000
1000
0000
0001
0000
0000
0000
0001
0000
1000
0100
1000
0000
,
0010
0100
0001
0100
0010
1000
0100
0000
,
0010
0001
0010
0000
0001
0000
0100
0000
0000
0000
0010
0000
1000
0000
0100
0000
,
0010
0000
0100
1000
0100
0000
1000
0000
0001
0000
1000
0000
0010
0000
1000
0000
,
2002
0000
0000
0000
,
0000
0000
0000
0000
3003
0000
1000
0001
,
1000
0001
1000
0001
1000
0001
1000
0001
,
1000
0001
1000
0001
1000
0001
1000
0001
1000
0001
1000
0001
,
1000
0000
0100
0000
0000
0000
0100
0000
1000
0001
1000
0000
0001
1000
0001
0000
,
0010
0100
1000
0001
0100
0010
0100
0001
,
0000
0000
0001
0000
0100
0010
0100
0000
0010
0100
0010
0000
1000
0000
0100
0000
,
0010
0001
1000
0001
0010
0100
0000
0100
,
1000
0001
1000
0000
0001
0010
0001
0000
0100
0000
0010
1000
0010
0000
1000
0000
,
0100
0000
0000
0010
0000
0000
0001
0000
0000
1000
0000
0000
0000
0000
0000
1000
0000
0000
0001
0000
0010
0000
0100
0000
,
1000
0100
1000
0100
0010
0100
0010
0001
0010
0001
1000
0001
,
1000
0000
0010
0000
0001
0000
0010
0000
1000
0100
1000
0000
0001
0000
0010
0000
,
0001
0000
0100
0000
0010
1000
0010
0000
1000
0000
0001
0000
1000
0000
0100
0000
,
0001
0000
0100
0000
1000
0010
1000
0000
0100
0000
0010
0000
0000
0000
0001
0000
,
0010
0100
0000
1000
0100
0010
0001
0010
,
0100
1000
0100
0000
1000
0000
0001
0000
0010
0000
0001
1000
0001
0000
0100
0000
,
0010
1000
0010
0001
0010
0100
0010
1000
,
0100
0001
0100
1000
0010
0100
0010
1000
,
0001
0000
0000
1000
0000
0000
0100
0000
0000
0010
0000
0000
0100
0000
1000
0000
0100
0000
1000
0000
0100
0000
1000
0000
,
0001
1000
0001
1000
0001
1000
0001
0010
0001
0010
0001
0010
,
0100
1000
0100
0010
0100
1000
0001
1000
0100
0010
0001
1000
,
0001
1000
0100
0010
0001
1000
2002
0000
0000
0000
0000
0000
,
0000
3003
0000
0000
,
0220
0000
0000
0000
,
0000
0000
0000
0000
,
0000
0000
0000
0000
,
0000
0000
0330
0000
0110
0110
0000
0000
;

//---------------dance-single - ----------------
#NOTEDATA:;
#CHARTNAME:;
#CHARTHASH:3959154154;
#STEPSTYPE:dance-single;
#BANNER:;
#DESCRIPTION:;
#CHARTSTYLE:;
#DIFFICULTY:Beginner;
#METER:7;
#METERF:7.000000;
#LASTSECONDHINT:0.120000;
#RADARVALUES:0.180084,0.355316,0.196322,0.082662,0.000000,122.000000,103.000000,19.000000,8.000000,0.000000,0.000000,0.000000,0.000000,0.000000,0.180084,0.355316,0.196322,0.082662,0.000000,122.000000,103.000000,19.000000,8.000000,0.000000,0.000000,0.000000,0.000000,0.000000;
#CREDIT:;
#NOTES:
// measure 0
0000
0000
0000
0000
,  // measure 1
0000
0000
0000
0000
,  // measure 2
0000
0000
0000
0000
,  // measure 3
0000
0000
0000
0000
,  // measure 4
0000
0000
0000
0000
,  // measure 5
0000
0000
0000
0000
,  // measure 6
0000
0000
0000
0000
,  // measure 7
0000
0000
0000
0000
,  // measure 8
1000
0000
0000
0000
,  // measure 9
0000
0001
0000
0000
,  // measure 10
0000
0000
1000
0000
,  // measure 11
0000
0000
0000
0010
,  // measure 12
0000
0000
0000
0000
,  // measure 13
0000
0000
0100
0000
,  // measure 14
0000
0000
0000
0100
,  // measure 15
0000
0000
0000
0000
,  // measure 16
0010
0000
0000
0000
,  // measure 17
0000
0010
0000
0000
,  // measure 18
0000
0000
0000
0000
,  // measure 19
1001
0000
0000
0000
,  // measure 20
0000
1001
0000
0000
,  // measure 21
0000
0000
1001
0000
,  // measure 22
0000
0000
0000
0110
,  // measure 23
0000
0000
0000
0000
,  // measure 24
0000
0000
1000
0000
,  // measure 25
0001
0000
0100
0000
,  // measure 26
0010
0000
1000
0000
,  // measure 27
0100
0000
0010
0000
,  // measure 28
0001
0000
1000
0000
,  // measure 29
0001
0000
0000
1000
,  // measure 30
0000
0001
0000
0000
,  // measure 31
2002
0000
0000
0000
,  // measure 32
0000
0000
3003
0000
,  // measure 33
0110
0000
0000
0000
,  // measure 34
0000
0000
0000
0000
,  // measure 35
0100
0000
0000
0000
,  // measure 36
0100
0000
0000
0000
,  // measure 37
1001
0000
0000
0000
,  // measure 38
0000
0000
0000
0000
,  // measure 39
0010
0000
0000
0000
,  // measure 40
0010
0000
0000
0000
,  // measure 41
1001
0000
0000
0000
,  // measure 42
0100
0000
0100
0000
,  // measure 43
0100
0000
0000
0000
,  // measure 44
0010
0000
0000
0000
,  // measure 45
0110
0000
0000
0000
,  // measure 46
1000
0000
1000
0000
,  // measure 47
1000
0000
0000
0000
,  // measure 48
0001
0000
0000
0000
,  // measure 49
1001
0000
0000
0000
,  // measure 50
0000
0000
0100
0000
,  // measure 51
0100
0000
0000
0000
,  // measure 52
0010
0000
0000
0000
,  // measure 53
1001
0000
0000
0000
,  // measure 54
0000
0000
0010
0000
,  // measure 55
0010
0000
0000
0000
,  // measure 56
1000
0000
0100
0000
,  // measure 57
1001
0000
0000
0000
,  // measure 58
0010
0000
0010
0000
,  // measure 59
0010
0000
0000
0000
,  // measure 60
0001
0000
0000
0000
,  // measure 61
0100
0000
0000
0000
,  // measure 62
0010
0000
0010
0000
,  // measure 63
0010
0000
0000
0000
,  // measure 64
1000
0000
0001
0000
,  // measure 65
0100
0000
0000
0000
,  // measure 66
0100
0000
0010
0000
,  // measure 67
0000
0000
1000
0000
,  // measure 68
0001
0000
0000
0000
,  // measure 69
0001
0000
0100
0000
,  // measure 70
0000
0000
0000
0000
,  // measure 71
0000
0000
0000
0000
,  // measure 72
1001
0000
0000
0000
,  // measure 73
0010
0000
0010
0000
,  // measure 74
0010
0000
0000
0000
,  // measure 75
0100
0000
0000
0000
,  // measure 76
0001
0000
0001
0000
,  // measure 77
1000
0000
1000
0000
,  // measure 78
0001
0000
0010
0000
,  // measure 79
0100
0000
1000
0000
,  // measure 80
1001
0000
0000
0000
,  // measure 81
0100
0000
0100
0000
,  // measure 82
0100
0000
0000
0000
,  // measure 83
0001
0000
0000
0000
,  // measure 84
1000
0000
0100
0000
,  // measure 85
0010
0000
0001
0000
,  // measure 86
1001
0000
0000
0000
,  // measure 87
0010
0000
0000
0000
,  // measure 88
2002
0000
0000
0000
,  // measure 89
0000
0000
0000
0000
,  // measure 90
0000
0000
0000
0000
,  // measure 91
0000
0000
3003
0000
,  // measure 92
0100
0000
0000
0000
,  // measure 93
0000
0000
0000
0100
,  // measure 94
0000
0000
0000
0000
,  // measure 95
0000
0000
0100
0000
,  // measure 96
0000
0000
0000
0000
,  // measure 97
0000
0010
0000
0000
,  // measure 98
0000
0000
0000
0000
,  // measure 99
0010
0000
0000
0000
,  // measure 100
0000
0000
0000
0010
,  // measure 101
0000
0000
0000
0000
,  // measure 102
0000
0000
0010
0000
,  // measure 103
0000
0000
0000
0000
,  // measure 104
0000
1001
0000
0000
,  // measure 105
0000
0000
0000
0000
,  // measure 106
0000
0000
0000
0000
,  // measure 107
0000
0000
0000
0000
,  // measure 108
0000
0000
0000
0000
,  // measure 109
0000
0000
2002
0000
,  // measure 110
0000
3003
0000
0000
,  // measure 111
0220
0000
0000
0000
,  // measure 112
0000
0000
0000
0000
,  // measure 113
0000
0000
0000
0000
,  // measure 114
0000
0000
0000
0000
0000
0330
0000
0000
;
