#TITLE:ITSY BITSY TEENIE WEENIE YELLOW POLKA DOT BIKINI;
#SUBTITLE:(Fast Mix);
#ARTIST:F 50's;
#TITLETRANSLIT:;
#SUBTITLETRANSLIT:;
#ARTISTTRANSLIT:;
#GENRE:;
#CREDIT:;
#BANNER:ITSY BITSY TEENIE WEENIE YELLOW POLKA DOT BIKINI (Fast Mix).png;
#BACKGROUND:ITSY BITSY TEENIE WEENIE YELLOW POLKA DOT BIKINI (Fast Mix)-bg.png;
#LYRICSPATH:;
#CDTITLE:Dance Mania EX9.png;
#MUSIC:ITSY BITSY TEENIE WEENIE YELLOW POLKA DOT BIKINI (Fast Mix).ogg;
#OFFSET:-0.025000;
#SAMPLESTART:46.089340;
#SAMPLELENGTH:15.000000;
#SELECTABLE:YES;
#BPMS:0.000000=142.000000
;
#STOPS:174.000000=0.400000
;
#BGCHANGES:24.000=amoeba3.mp4=1.000=1=0=1===CrossFade==,
32.000=balloon1.mp4=1.000=0=0=1=====,
38.000=heart3.mp4=1.000=0=0=1=====,
40.000=blackhole1.mp4=1.000=0=0=1=====,
48.000=car3.mp4=1.000=0=0=1=====,
56.000=car5.mp4=1.000=0=0=1=====,
64.000=sun3.mp4=1.000=0=0=1=====,
70.000=sun3.mp4=0.001=0=0=1=====,
72.000=amoeba1.mp4=1.000=0=0=1=====,
80.000=teapot1.mp4=1.000=0=0=1=====,
88.000=amoeba1.mp4=1.000=0=1=1=StretchRewind====,
96.000=surf1.mp4=0.900=0=0=1=====,
100.000=sphere3.mp4=1.000=0=0=1=====,
108.000=surf1.mp4=0.900=0=0=1=====,
112.000=sun1.mp4=1.000=0=0=1=====,
120.000=amoeba3.mp4=1.000=0=1=1=StretchRewind====,
128.000=sun1.mp4=1.000=0=1=1=StretchRewind====,
136.000=teapot1.mp4=1.000=0=1=1=StretchRewind====,
142.000=heart3.mp4=1.000=0=1=1=StretchRewind====,
144.000=heart2.mp4=1.000=0=0=1=====,
152.000=orange1.mp4=1.000=0=0=1=====,
160.000=heart2.mp4=1.000=0=0=1=====,
168.000=orange1.mp4=1.000=0=0=1=====,
174.000=orange1.mp4=0.001=0=0=1=====,
175.000=teapot1.mp4=1.000=0=1=1=StretchRewind====,
183.000=sphere3.mp4=1.000=0=1=1=StretchRewind====,
191.000=sun3.mp4=1.000=0=1=1=StretchRewind====,
199.000=balloon1.mp4=1.000=0=1=1=StretchRewind====,
206.500=ITSY BITSY TEENIE WEENIE YELLOW POLKA DOT BIKINI (Fast Mix)-bg.png=1.000=0=0=1=====,
99999.000=-nosongbg-=1.000=0=0=0=StretchNoLoop====,
99999=-nosongbg-=1.000=0=0=0 // don't automatically add -songbackground-
;
#KEYSOUNDS:;
#ATTACKS:;

//---------------dance-single - ----------------
#NOTES:
     dance-single:
     :
     Beginner:
     3:
     0.131725,0.232205,0.033734,0.000000,0.000000,82.000000,79.000000,3.000000,0.000000,0.000000,0.000000,0.131725,0.232205,0.033734,0.000000,0.000000,82.000000,79.000000,3.000000,0.000000,0.000000,0.000000:
0000
0000
0000
0000
,
0000
0000
0000
0000
,
0000
0000
0000
0000
,
0000
0000
0000
0000
,
0000
0000
0000
0000
,
0000
0000
0000
0000
,
1000
0000
1000
0000
,
1000
0000
0000
0000
,
0001
0000
0001
0000
,
0001
0000
0000
0000
,
0100
0000
0100
0000
,
0100
0000
0000
0000
,
0010
0000
0010
0000
,
0010
0000
0000
0000
,
1000
0000
1000
0000
,
1000
0000
0000
0000
,
0001
0000
0001
0000
,
0001
0000
0000
0000
,
1000
1000
1000
0000
,
1000
0000
0000
0000
,
0100
0100
0100
0000
,
0100
0000
0000
0000
,
0010
0010
0010
0000
,
0010
0000
0000
0000
,
0001
0001
0001
0000
,
0001
1000
0001
1000
,
0001
0000
0001
0000
,
0000
0000
0000
0000
,
1000
0000
1000
0000
,
0010
0000
0010
0000
,
0100
0100
0100
0000
,
0010
0000
0100
0000
,
0001
0000
0001
0000
,
1000
0000
1000
0000
,
0001
0001
0001
0000
,
1000
0000
1001
0000
,
0010
0000
0010
0000
,
0010
0000
0000
0000
,
0100
0000
0100
0000
,
0100
0000
0000
0000
,
0001
0000
0001
0000
,
0001
0000
0000
0000
,
1000
0000
1000
0000
,
1000
0000
1001
0100
,
0000
0000
0000
0100
,
0000
0000
0000
0010
,
0000
0000
0000
0010
,
0000
0000
0000
1000
,
0000
0000
0000
1000
,
0000
0000
0000
0001
,
0000
0000
0000
1001
,
0000
0000
0000
0000
0000
0100
0000
0000
;

//---------------dance-single - ----------------
#NOTES:
     dance-single:
     :
     Easy:
     5:
     0.223290,0.290256,0.112448,0.000000,0.000000,139.000000,129.000000,10.000000,0.000000,0.000000,0.000000,0.223290,0.290256,0.112448,0.000000,0.000000,139.000000,129.000000,10.000000,0.000000,0.000000,0.000000:
0000
0000
0000
0000
,
0000
0000
0000
0000
,
1000
0000
1000
0000
,
0001
0000
0001
0000
,
0100
0000
0100
0000
,
0010
0000
0000
0010
,
1000
0000
1000
0000
,
0100
0000
0100
0000
,
1000
0000
1000
0000
,
0001
0001
1001
0000
,
0100
0000
0100
0000
,
0010
0000
0010
0000
,
1000
0000
1000
0000
,
0010
0000
0000
0010
,
1000
0000
1000
0000
,
0100
0000
0100
0000
,
1000
0000
1000
0000
,
0010
0010
0110
0000
,
0100
0000
0001
0000
,
1000
0100
0001
0100
,
1000
0000
0010
0000
,
0100
0010
0001
0010
,
0100
0000
0010
0000
,
1000
0100
0010
0100
,
1000
0000
0001
0000
,
1001
1000
0010
0100
,
0001
0010
1000
1001
,
0000
0000
0000
0000
,
0001
0001
0100
0100
,
0001
0001
1000
1001
,
0001
0010
0100
1000
,
0100
0010
0001
0000
,
1000
1000
0010
0010
,
1000
0001
0100
0110
,
0010
0000
1000
0000
,
0010
0100
0001
1001
,
1000
0000
0100
0000
,
1000
1000
0010
0010
,
0100
0000
0100
0000
,
0001
0001
0000
0010
,
0001
0000
0001
0000
,
1000
1000
0100
0100
,
0010
0000
0010
0000
,
0001
0001
1001
0100
,
0000
0100
0000
0010
,
0000
0010
0000
1000
,
0000
1000
0000
0001
,
0000
0001
0000
1000
,
0000
0100
0000
0010
,
0000
0001
0000
0010
,
0000
0100
0000
1001
,
0000
0000
0000
0000
0000
0110
0000
0000
;

//---------------dance-single - ----------------
#NOTES:
     dance-single:
     :
     Medium:
     9:
     0.430515,0.435385,0.157427,0.067469,0.005622,268.000000,254.000000,14.000000,6.000000,0.000000,0.000000,0.430515,0.435385,0.157427,0.067469,0.005622,268.000000,254.000000,14.000000,6.000000,0.000000,0.000000:
0000
0000
0000
0000
,
0000
0000
0000
0000
,
1000
0100
1000
0000
0100
1000
0100
0000
,
1000
0001
1000
0000
0001
1000
0001
0000
,
0010
0001
0010
0000
0001
0010
0001
0000
,
0001
0100
0010
0010
0000
0100
0010
0000
,
0010
1000
0001
0000
0001
1000
0010
0000
,
0010
0100
1000
0000
1000
0100
0010
0000
,
0100
0001
1000
0000
1000
0001
0100
0000
,
0010
0010
0010
0010
0010
0000
1001
0000
,
0001
0000
0100
0000
0010
1000
0010
0000
,
1000
0000
0100
0000
1000
0001
1000
0000
,
0010
0000
0100
0000
0001
0010
0001
0000
,
1000
0100
0010
0001
0000
1000
1000
0000
,
0001
0000
1000
0000
0010
0100
0010
0000
,
1000
0000
0100
0000
1000
0001
1000
0000
,
0001
0000
0010
0000
0001
0100
0001
0000
,
0100
0100
0100
0100
0100
0000
0000
0000
,
1002
0000
0000
1003
0010
0000
1000
0000
,
0201
0000
0000
0301
0010
0001
1000
0000
,
1020
0000
0000
1030
0100
0000
1000
0001
,
1000
0001
0101
0000
,
1002
0000
0000
0103
0001
0000
0010
0001
,
0010
0001
1000
0000
,
1200
0000
0000
1300
0010
0000
1000
0000
,
1002
1000
0010
1000
,
0013
0001
1000
1001
,
0000
0000
0000
0000
,
1000
0000
1000
0000
0100
0001
0100
0000
,
1000
0000
1000
0000
0010
0100
0010
0000
,
0100
0001
0100
0001
0100
0010
0100
0010
,
1000
0010
0000
1000
0001
0100
0100
0000
,
0001
0000
0001
0000
0010
1000
0010
0000
,
0001
0000
0001
0000
0100
0010
0100
0000
,
1010
0000
0100
0001
1000
0000
1000
0001
,
0100
0000
0000
0010
0000
0000
1000
0000
0100
0000
0000
0000
1001
0000
0000
0000
,
0100
0100
0010
0000
0100
0100
0001
0000
,
0100
0100
0010
0000
0100
0100
1000
0000
,
0100
0010
0100
0000
0010
0100
0010
0000
,
1000
1000
0001
0100
0000
0001
1000
0000
,
0001
0001
1000
0000
0001
0001
0010
0000
,
0001
0001
0100
0000
0001
0001
1000
0000
,
0001
1000
0001
0000
1000
0010
1000
0000
,
0010
0010
0010
0010
0110
0000
1000
0000
,
0010
1000
0010
0100
,
0001
0000
0100
0001
0100
0000
0001
0000
,
0010
0001
0010
0001
,
1000
0000
0001
1000
0001
0000
1000
0000
,
1000
0010
0010
0100
,
0100
0000
0001
0010
0001
0000
0010
0000
,
0010
0001
0001
1001
,
1000
0000
0001
0000
1000
1001
0000
0000
;

//---------------dance-single - ----------------
#NOTES:
     dance-single:
     :
     Hard:
     12:
     0.597581,0.638564,0.157427,0.011245,0.382323,372.000000,358.000000,14.000000,1.000000,0.000000,0.000000,0.597581,0.638564,0.157427,0.011245,0.382323,372.000000,358.000000,14.000000,1.000000,0.000000,0.000000:
0000
0000
0000
0000
,
0000
0000
0000
0000
,
1000
0001
0000
0000
0100
0000
0000
0000
0001
1000
0000
0000
0100
0000
0000
0000
,
1000
0100
0000
0000
0100
0000
0000
0000
0100
0001
0000
0000
0100
0000
0000
0000
,
0100
1000
0000
0000
0010
0000
0000
0000
0100
0001
0000
0000
0010
0000
0000
0000
,
0001
1000
0000
0000
0100
0000
0100
0000
0000
0000
1000
0000
0001
0000
0000
0000
,
1000
0100
0000
0000
1000
0000
0010
0000
0100
0001
0000
0000
0010
0000
0000
0000
,
0001
0100
0000
0000
0001
0000
1000
0000
0100
0010
0000
0000
0100
0000
0000
0000
,
1000
0001
0000
0000
0010
0000
0100
0000
0010
0001
0000
0000
0001
0000
1000
0000
,
0010
0100
0010
0000
0100
0000
0100
0000
0100
0000
0000
0000
1001
0000
0000
0000
,
1000
0001
1000
0000
0001
0000
0100
0000
0001
0010
0001
0000
1000
0000
0000
0000
,
0100
1000
0100
0000
0010
0000
0001
0000
0010
0100
0010
0000
0001
0000
0000
0000
,
1000
0001
1000
0000
0001
0000
0100
0000
0010
1000
0010
0000
0100
0000
0010
0000
,
1000
0001
1000
0000
0001
0000
0001
0000
0000
0001
1000
0000
0100
0000
0001
0000
,
0100
1000
0100
0000
1000
0000
0010
0000
0100
0001
0100
0000
0010
0000
0000
0000
,
0010
0100
0010
0000
1000
0000
0010
0000
1000
0001
1000
0000
0010
0000
0000
0000
,
1000
0100
1000
0000
0001
0000
0100
0000
0001
0010
0001
0000
1000
0000
0100
0000
,
0001
0100
0001
0000
0100
0000
0100
0000
0100
0000
0000
0000
0000
0000
0000
0000
,
1100
0000
0000
1000
0000
0000
0010
0000
1000
0000
0000
0001
0000
0000
0100
0000
,
0001
0000
1000
0100
0001
0000
0001
0100
,
1000
0000
0000
0001
0000
0000
0010
0000
0001
0000
0000
1000
0000
0000
0001
0000
,
0100
0000
0000
0010
0000
0010
1000
0000
0001
0000
0000
0000
0110
0000
0000
0000
,
0101
0000
0000
0100
0000
0000
0010
0000
1000
0000
0000
0100
0000
0000
0001
0000
,
0100
0000
0000
1000
0000
0000
0100
0000
0010
0000
0000
0100
0000
0000
1000
0000
,
0001
0000
1000
0010
0001
0000
0001
0010
,
2000
0001
0100
0001
,
3100
0000
1100
0000
1000
0000
1001
1001
,
0000
0000
0000
0000
,
0001
0001
1000
1000
0010
0100
0010
0001
,
0010
0010
1000
1000
0100
0001
0001
0100
,
1000
0000
1000
0010
0000
0000
0010
0000
0100
0000
0001
0000
0000
0000
0001
0000
,
1000
0100
0000
0100
1000
1001
1001
0000
,
0001
0001
0100
0100
0010
1000
0010
0100
,
0010
0010
1000
1000
0010
0001
0001
0010
,
1000
0000
1000
0100
0000
0000
1000
0000
0001
0000
0000
0001
0000
0001
0100
0000
,
0001
1000
0000
1000
0010
0000
1001
0000
,
0001
0100
0001
0000
1000
0000
0001
0000
0010
0001
0010
0000
0100
0000
0000
0000
,
1000
0100
1000
0000
0001
0000
0100
0000
0010
0100
0010
0000
1000
0000
0000
0000
,
0001
1000
0001
0000
1000
0000
0100
0000
0001
0100
0001
0000
0100
0000
1000
0000
,
0001
1000
0001
0000
1000
0000
1000
0000
0000
1000
0010
0000
0001
0000
0010
0000
,
1000
0100
1000
0000
0001
0000
0100
0000
0001
0010
0001
0000
1000
0001
0000
0000
,
0001
0100
0001
0000
0010
0000
0001
0000
0010
0100
0010
0000
0001
0010
0000
0000
,
0001
1000
0001
0000
1000
0000
0100
0000
1000
0010
1000
0000
0010
0000
0100
0000
,
0001
0100
0001
0000
1000
0000
1000
0000
1001
0000
0000
0000
0010
0100
0000
0000
,
0010
0000
0000
0000
1000
0010
0000
0000
1000
0000
0000
0000
0001
0100
0001
0000
,
1000
0000
0000
0000
1000
0010
1000
0000
0001
0000
0000
0000
0100
0001
0000
0000
,
0010
0000
0000
0000
0001
1000
0000
0000
0100
0000
0000
0000
1000
0100
0010
0000
,
0100
0000
0000
0000
1000
0001
0010
0000
0001
0000
0000
0000
0100
0000
0001
0000
,
0100
1000
0100
0010
0100
0000
0010
1000
,
0010
0100
0010
0001
0010
0000
1000
0000
,
0001
0100
0010
1001
,
0100
0101
0000
0001
1000
1001
0000
0000
;

//---------------dance-double - ----------------
#NOTES:
     dance-double:
     :
     Medium:
     9:
     0.448186,0.464410,0.179917,0.078714,0.000000,279.000000,263.000000,16.000000,7.000000,0.000000,0.000000,0.448186,0.464410,0.179917,0.078714,0.000000,279.000000,263.000000,16.000000,7.000000,0.000000,0.000000:
00000000
00000000
00000000
00000000
,
00000000
00000000
00000000
00000000
,
11000000
00100000
01010000
00100000
,
01001000
00010000
00011000
00000100
,
00010100
00000000
00001000
00000001
00000000
00000001
00001000
00000000
,
00000110
00000000
00001000
00000100
00000000
00000100
00010000
00000000
,
00001000
00010000
00001000
00010000
00000000
00001000
00100000
00000000
,
00010000
10000000
00010000
10000000
00000000
01000000
00100000
00000000
,
00001000
00010000
00001000
00000000
00010000
00001000
00010000
00000000
,
00000100
00001000
00000010
00001000
00000001
00000000
00000110
00000000
,
00010000
00001000
00100000
00001000
00000000
01000000
00100000
00000000
,
10000000
00010000
00100000
00001000
,
00010000
00001000
00010000
00000100
00000000
00001000
00000001
00000000
,
00000100
00000000
00000010
00000100
00001000
00010000
01000000
00000000
,
00100000
00010000
00100000
01000000
00000000
10000000
00010000
00000000
,
00100000
00001000
00010000
00001000
00010000
00000000
00000100
00000000
,
00001000
00000001
00000010
00000000
00000001
00001000
00000010
00000000
,
00001000
00000100
00010000
00000100
00010000
00000000
00011000
00000000
,
00200000
00000000
00000000
00310000
10000000
00000000
01000000
00100000
,
00001000
00000000
00010000
00000100
00000010
00000001
00001000
00000000
,
00000020
00000000
00000000
00001030
00000200
00000000
00000000
00010300
,
00001000
00000000
01000000
00010000
10000000
00100000
01000000
00000000
,
00020000
00000000
00000000
01030000
00010000
00000000
00100000
00001000
,
00000010
00000000
00000100
00001000
00000001
00000100
00000010
00000000
,
00001100
00000000
00010000
00000000
00000100
00000000
00010000
00001000
,
02000000
00010000
00100000
10000000
,
03010000
10000000
01000000
00010000
00001000
00000010
00002002
00000000
,
00000000
00003003
00000000
00000000
,
00000001
00000010
00000001
00000000
00001000
00000010
00001000
00000000
,
00000010
00000010
00000010
00000000
00000100
00000100
00000100
00000000
,
00000010
00010000
00001000
00010000
,
00000100
00000000
00010000
00000000
00001000
00010000
00001000
00000000
,
01000000
00010000
01000000
00000000
00100000
10000000
00100000
00000000
,
10000000
10000000
10000000
00000000
00010000
00010000
00010000
00000000
,
00100000
00001000
00000010
00000001
,
00001000
00000100
00000001
00000100
00001000
00000000
00000110
00000000
,
00000010
00001000
00000010
00000000
00010000
00000100
00010000
00000000
,
00001000
00100000
01000000
10000000
00010000
00000000
01100000
00000000
,
10000000
00100000
10000000
00000000
00010000
01000000
00010000
00000000
,
10000000
01000000
00010000
00001000
00000000
00001000
00010000
00000100
,
00000010
00000001
00000010
00000000
00000001
00001000
00000001
00000000
,
00000001
00000100
00001000
00010000
00100000
00000000
10010000
00000000
,
01000000
00100000
01000000
00000000
00010000
01000000
00010000
00000000
,
00100000
00001000
00010000
00001000
00011000
00000000
00001001
00000000
,
00000010
00000100
00000010
00001000
,
00000001
00001000
00010000
00100000
,
10000000
00100000
00010000
00100000
,
01000000
00000000
00100000
00000000
00001000
00000000
00010000
00000100
,
00000010
00000000
00000001
00000010
00001000
00000000
00001000
00000010
,
00000001
00000100
00000010
00001000
,
00001000
00000100
00000100
00011000
,
00001000
00000000
01000000
00000000
00010000
10000000
00000000
00000000
;

//---------------dance-double - ----------------
#NOTES:
     dance-double:
     :
     Hard:
     12:
     0.626496,0.638564,0.146182,0.033734,0.297987,390.000000,377.000000,13.000000,3.000000,0.000000,0.000000,0.626496,0.638564,0.146182,0.033734,0.297987,390.000000,377.000000,13.000000,3.000000,0.000000,0.000000:
00000000
00000000
00000000
00000000
,
00000000
00000000
00000000
00000000
,
10000000
00000000
00100000
00000000
00010000
00000000
00100000
00000000
10000000
00100000
00000000
00000000
00010000
00000000
00001000
00000000
,
00000010
00000000
00000001
00000000
00000010
00000000
00001000
00000000
00000001
00000010
00000001
00000000
00000100
00000000
00000000
00000000
,
00000001
00000000
00000100
00000000
00001000
00000000
00000100
00000000
00000001
00000100
00000000
00000000
00001000
00000000
00010000
00000000
,
01000000
00000000
10000000
00000000
01000000
00000000
00010000
00000000
00000000
01000000
10000000
00000000
00010000
00000000
00100000
00000000
,
00001000
00000000
00010000
00000000
00001000
00000000
01000000
00000000
00001000
00010000
00001000
00000000
00010000
00000000
00000000
00000000
,
00001000
00000000
00010000
00000000
00000010
00000000
00010000
00000000
00000100
00010000
00000100
00000000
00010000
00000000
00000000
00000000
,
00001000
00010000
00000000
00000000
01000000
00000000
10000000
00000000
00100000
01000000
00000000
00000000
00010000
00000000
01000000
00000000
,
00001000
00010000
00001000
00000000
00010000
00000000
00010000
00000000
00010000
00000000
00001000
00000000
00000010
00000000
00000001
00000000
,
00001000
00000010
00001000
00000000
00000010
00000000
00000100
00000000
00000001
00001000
00000001
00000000
00001000
00000000
00000000
00000000
,
00000100
00010000
00000100
00000000
00010000
00000000
00001000
00000000
00010000
00001000
00010000
00000000
01000000
00000000
00100000
00000000
,
00010000
10000000
00010000
00000000
01000000
00000000
00100000
00000000
10000000
00010000
10000000
00000000
00010000
00000000
00000000
00000000
,
00100000
00001000
00100000
00000000
00001000
00000000
00001000
00000000
00000000
00010000
00001000
00000000
00000010
00000000
00000001
00000000
,
00001000
00000100
00001000
00000000
00000001
00000000
00000010
00000000
00000001
00001000
00000001
00000000
00000100
00000000
00000000
00000000
,
00001000
00010000
00001000
00000000
00100000
00000000
00010000
00000000
01000000
00010000
01000000
00000000
00100000
00000000
00000000
00000000
,
10000000
01000000
10000000
00000000
01000000
00000000
00100000
00000000
00010000
00100000
00010000
00000000
01000000
00000000
00001000
00000000
,
00010000
00001000
00010000
00000000
00001000
00000000
00001000
00000000
00011000
00000000
00000000
00000000
00000000
00000000
00000000
00000000
,
00001001
00000000
00000001
00000100
00001000
00000000
00001000
00000100
,
00000001
00000000
00000000
00000100
00000000
00000000
00000010
00000000
00010000
00001000
00000000
00010000
00001000
00000000
00100000
00000000
,
00010000
00000000
10000000
01000000
00010000
00000000
00010000
01000000
,
10000000
00000000
00000000
00100000
00000000
10000000
00010000
00000000
00100000
00000000
00001000
00000000
00000010
00000000
00000001
00000000
,
00001001
00000000
00000001
00000010
00001000
00000000
00001000
00000010
,
00000001
00000000
00000000
00001000
00000000
00000000
00000010
00000000
00010000
00001000
00000000
00010000
00001000
00000000
00100000
00000000
,
00010000
00000000
10000000
00100000
00010000
00000000
00010000
00100000
,
20000000
00100000
01000000
30010000
,
00100000
01000000
00010000
01000000
00001000
00000010
00002002
00000000
,
00000000
00003003
00000000
00000000
,
00000001
00000001
00001000
00001000
00000100
00010000
01000000
10000000
,
00010000
00100000
10000000
00100000
00010000
01000000
00010000
00001000
,
00000010
00000000
00000000
00001000
00000001
00000000
00000010
00000000
00000100
00000000
00000100
00000000
00000000
00000000
00001000
00000000
,
00000100
00010000
00000000
00001000
00010000
00011000
00011000
00000000
,
00010000
00010000
10000000
10000000
01000000
00010000
00001000
00000010
,
00000001
00001000
00000100
00000001
00000100
00001000
01000000
00100000
,
00010000
00000000
00000000
10000000
00010000
00000000
00100000
00000000
00100000
00000000
00010000
00000000
00000000
00000000
10000000
00000000
,
00010000
00100000
00001000
00000010
00000001
00000000
00001001
00000000
,
00001000
00000100
00001000
00000000
00000100
00000000
00010000
00000000
00001000
00010000
00001000
00000000
00100000
00000000
00000000
00000000
,
00010000
10000000
00010000
00000000
01000000
00000000
00100000
00000000
00001000
00010000
00001000
00000000
00010000
00000000
00000000
00000000
,
00000100
00001000
00000100
00000000
00001000
00000000
00000001
00000000
00000010
00000001
00000010
00000000
00000001
00000000
00001000
00000000
,
00000100
00010000
00000100
00000000
00010000
00000000
00010000
00000000
00000000
00001000
00010000
00000000
01000000
00000000
10000000
00000000
,
00100000
01000000
00100000
00000000
10000000
00000000
00100000
00000000
01000000
00010000
01000000
00000000
00001000
00000000
00010000
00000000
,
00001000
00010000
00001000
00000000
00010000
00000000
00000010
00000000
00000100
00000010
00000100
00000000
00000001
00000000
00000100
00000000
,
00001000
00010000
00001000
00000000
00100000
00000000
00010000
00000000
10000000
00010000
10000000
00000000
00010000
00000000
00100000
00000000
,
00001000
00100000
00001000
00000000
00010000
00000000
00010000
00000000
00011000
00000000
00000000
00000000
10010000
00000000
00000000
10000000
,
01000000
00000000
00000000
00000000
00110000
00000000
00000000
00010000
01000000
00000000
00000000
00000000
00100000
00000000
10000000
00000000
,
00010000
00000000
01000000
00000000
00001000
00000000
00001000
00000000
00001000
00000000
00000000
00000000
00011000
00000000
00000000
00100000
,
00001000
00000000
00000000
00000000
00011000
00000000
00000000
00000010
00010000
00000000
00000000
00000000
00001000
00000000
00010000
00000000
,
00000100
00000010
00000001
00000001
00000001
00000000
00001000
00000100
,
00000001
00000000
00000001
00000100
00001000
00000000
00000100
00010000
,
00001000
00010000
01000000
00100000
00010000
00100000
01000000
10000000
,
00000000
00100000
00000000
01000000
00000000
00010000
00100000
00010000
,
00000000
00101000
00000000
00010000
00000100
00000010
00000000
00000000
;

//---------------dance-double - ----------------
#NOTES:
     dance-double:
     :
     Easy:
     5:
     0.242566,0.290256,0.101203,0.022490,0.000000,151.000000,142.000000,9.000000,2.000000,0.000000,0.000000,0.242566,0.290256,0.101203,0.022490,0.000000,151.000000,142.000000,9.000000,2.000000,0.000000,0.000000:
// measure 0
00000000
00000000
00000000
00000000
,  // measure 1
00000000
00000000
00000000
00000000
,  // measure 2
10000000
00000000
10000000
00000000
,  // measure 3
00010000
00000000
00010000
00000000
,  // measure 4
00100000
00001000
00010000
00000100
,  // measure 5
00000010
00000000
00000010
00000001
,  // measure 6
00001000
00000000
00001000
00000000
,  // measure 7
00000001
00000000
00000001
00000000
,  // measure 8
00001000
00000100
00010000
00001000
,  // measure 9
00010000
01000000
00100000
10010000
,  // measure 10
01000000
00000000
01000000
00000000
,  // measure 11
00100000
01000000
00010000
01000000
,  // measure 12
00001000
00000000
00001000
00000000
,  // measure 13
00010000
00010000
00000000
00001100
,  // measure 14
00000010
00000001
00001000
00000100
,  // measure 15
00010000
00001000
00010000
00000100
,  // measure 16
00010000
00001000
01000000
00100000
,  // measure 17
10000000
00010000
01000000
10010000
,  // measure 18
10000000
00000000
01000000
00000000
,  // measure 19
00010000
00001000
00010000
00000000
,  // measure 20
00000010
00000000
00000100
00000000
,  // measure 21
00000001
00001000
00000001
00000000
,  // measure 22
00001100
00000000
00000100
00000000
,  // measure 23
00010000
00001000
00100000
00000000
,  // measure 24
10010000
00000000
01000000
00000000
,  // measure 25
00202000
00000000
00000000
00000000
,  // measure 26
00000000
00000000
00000000
00000000
,  // measure 27
00303000
00000000
00000000
00000000
,  // measure 28
00001000
00001000
00010000
00010000
,  // measure 29
00000100
00000000
00001000
00000000
,  // measure 30
00000001
00000000
00000010
00000000
,  // measure 31
00000100
00000000
00001000
00000100
,  // measure 32
00010000
00010000
00001000
00001000
,  // measure 33
00100000
00000000
01000000
00000000
,  // measure 34
10000000
01000000
00010000
00001000
,  // measure 35
00000010
00000001
00001000
00001001
,  // measure 36
00000010
00000000
00000010
00000000
,  // measure 37
00000100
00000000
00000100
00000000
,  // measure 38
00000010
00000010
00001000
00001000
,  // measure 39
00000100
00000000
00010000
00000000
,  // measure 40
00001000
00000000
00001000
00000000
,  // measure 41
00010000
00000000
00010000
00000000
,  // measure 42
01000000
01000000
00100000
00100000
,  // measure 43
00010000
10000000
01010000
00001000
,  // measure 44
00010000
00001000
00000000
00010000
,  // measure 45
00000010
00010000
00000000
00001000
,  // measure 46
00010000
00001000
00000000
01000000
,  // measure 47
00001000
01000000
00000000
00001000
,  // measure 48
00010000
00000100
00000010
00000100
,  // measure 49
00010000
00001000
01000000
00100000
,  // measure 50
01000000
00010000
00000000
10010000
,  // measure 51
10000000
00000000
01000000
00000000
00010000
00001000
00000000
00000000
;
