#TITLE:ISLAND;
#SUBTITLE:(Thrillseekers Remix);
#ARTIST:ORINOKO;
#TITLETRANSLIT:;
#SUBTITLETRANSLIT:;
#ARTISTTRANSLIT:;
#GENRE:;
#CREDIT:;
#BANNER:ISLAND (Thrillseekers Remix).png;
#BACKGROUND:ISLAND (Thrillseekers Remix)-bg.png;
#LYRICSPATH:;
#CDTITLE:DANCE MANIA BEST OF WORLD TRANCE -FANTASIA- 2.PNG;
#MUSIC:ISLAND (Thrillseekers Remix).ogg;
#OFFSET:-0.050000;
#SAMPLESTART:69.414612;
#SAMPLELENGTH:15.000000;
#SELECTABLE:YES;
#DISPLAYBPM:138.000000;
#BPMS:0.000000=138.080002
,64.000000=137.940002
,83.500000=148.800003
,87.500000=137.940002
,92.000000=139.175003
,96.000000=138.080002
,159.500000=143.750000
,160.000000=138.080002
;
#STOPS:
;
#BGCHANGES:16.000=text8.mp4=1.000=1=0=1===CrossFade==,
32.000=light6.mp4=1.000=0=0=1=====,
40.000=moon1.mp4=1.000=0=0=1=====,
48.000=light6.mp4=1.000=0=0=1=====,
56.000=rain1.mp4=1.000=0=0=1=====,
64.000=snow4.mp4=0.700=0=0=1=====,
80.000=grid1.mp4=0.700=0=0=1=====,
96.000=text8.mp4=1.000=0=1=1=StretchRewind====,
112.000=kaliedoscope6.mp4=1.200=0=0=1=====,
128.000=ring2.mp4=1.000=0=0=1=====,
144.000=kaliedoscope9.mp4=0.900=0=0=1=====,
152.000=light6.mp4=1.000=0=1=1=StretchRewind====,
156.000=moon1.mp4=1.000=0=1=1=StretchRewind====,
160.000=blizzard1.mp4=1.000=0=1=1=StretchRewind====,
168.000=fish1.mp4=1.000=0=0=1=====,
176.000=butterfly1.mp4=1.000=0=0=1=====,
184.000=tunnel10.mp4=1.000=0=0=1=====,
192.000=blizzard1.mp4=1.000=0=0=1=====,
200.000=rain2.mp4=1.000=0=0=1=====,
208.000=butterfly1.mp4=1.000=0=0=1=====,
216.000=room1.mp4=1.000=0=0=1=====,
224.000=waterfall1.mp4=1.000=0=0=1=====,
232.000=text8.mp4=1.000=0=1=1=StretchRewind====,
240.000=fish1.mp4=1.000=0=1=1=StretchRewind====,
248.000=ISLAND (Thrillseekers Remix)-bg.png=1.000=0=0=1=====,
99999.000=-nosongbg-=1.000=0=0=0=StretchNoLoop====,
99999=-nosongbg-=1.000=0=0=0 // don't automatically add -songbackground-
;
#KEYSOUNDS:;
#ATTACKS:;

//---------------dance-single - ----------------
#NOTES:
     dance-single:
     :
     Easy:
     4:
     0.150442,0.252742,0.087758,0.122861,0.000000,120.000000,110.000000,10.000000,14.000000,0.000000,0.000000,0.150442,0.252742,0.087758,0.122861,0.000000,120.000000,110.000000,10.000000,14.000000,0.000000,0.000000:
0000
0000
0000
0000
,
0000
0000
0000
0000
,
0000
0000
0000
0000
,
0000
0000
0000
0000
,
0000
0000
0000
0000
,
0000
0000
0000
0000
,
0000
0000
0000
0000
,
0000
0000
0000
0000
,
2000
0000
0000
0000
,
3000
0000
0000
0000
,
0002
0000
0000
0000
,
0003
0000
0000
0000
,
0200
0000
0000
0000
,
0300
0000
0000
0000
,
0020
0000
0000
0000
,
0130
0000
0100
0000
,
2002
0000
0000
0000
,
0000
0000
0000
0000
3003
0000
0000
0220
,
0000
0000
0000
0000
,
0000
0000
0000
0000
0000
0330
0000
0000
,
2002
0000
0000
0000
,
0000
0000
0000
0000
3003
0000
0000
0220
,
0000
0000
0000
0000
0000
0000
0000
0330
,
0000
0000
0000
0000
,
1000
1000
1000
0000
,
0001
0001
0001
0000
,
1000
0000
1000
0000
,
0001
0000
0001
0000
,
0100
0100
0100
0000
,
0010
0010
0010
0000
,
0100
0000
0100
0000
,
0010
0000
0010
0000
,
1001
0100
1000
0000
,
0001
0000
0100
0000
,
0001
0000
1000
0000
,
0100
0000
0010
0000
,
1001
0010
0001
0000
,
0100
0000
0010
0000
,
1000
0000
0010
0000
,
0100
0001
1000
0100
,
1001
0000
0010
0010
,
0010
0000
0100
0000
,
0010
0010
0010
0000
,
1000
0000
0001
0000
,
1001
0000
0100
0000
,
0001
0001
0001
0000
,
1000
0000
0001
0001
,
0001
0000
0100
0000
,
0010
1000
0010
0000
,
1000
1000
1000
0000
,
0001
0100
0001
0000
,
0001
0001
0001
0000
,
0100
0010
0100
0000
,
0010
0010
0010
0000
,
0010
0100
0010
0000
,
0100
0100
0100
0000
,
1001
0000
0000
0000
,
0010
0010
0010
0010
,
0010
0000
0000
0000
,
0100
0100
0100
0100
,
0100
0000
0000
0000
,
0001
0001
0001
0001
,
2002
0000
0000
0000
,
0000
0000
0000
0000
,
3003
0000
0000
0000
;

//---------------dance-single - ----------------
#NOTES:
     dance-single:
     :
     Medium:
     7:
     0.238200,0.365072,0.070206,0.149188,0.000000,190.000000,182.000000,8.000000,17.000000,0.000000,0.000000,0.238200,0.365072,0.070206,0.149188,0.000000,190.000000,182.000000,8.000000,17.000000,0.000000,0.000000:
0000
0000
0000
0000
,
0000
0000
0000
0000
,
0000
0000
0000
0000
,
0000
0000
0000
0000
,
0000
0000
0000
0000
,
0000
0000
0000
0000
,
0000
0000
0000
0000
,
0000
0000
0000
0000
,
2002
0000
0000
3000
,
0010
0000
0010
0000
0013
0000
0001
1000
,
0002
0000
0000
0003
,
2000
0000
0000
3000
,
0120
0000
0000
0000
,
0100
0000
0100
0000
0130
0000
0001
1000
,
0002
0000
0000
0003
,
1000
0000
0000
0010
0000
0000
0100
0000
,
2002
0000
0000
0000
,
0000
0000
0000
0000
3003
0000
0000
0220
,
0000
0000
0000
0000
,
0000
0000
0000
0330
0000
0000
0001
0000
,
0010
0000
0100
1000
0000
0100
2000
0000
,
0000
0000
0000
0000
3000
0000
0000
2002
,
0000
0000
0000
3003
,
0100
0000
0000
0010
0000
0000
1000
0000
,
0001
0000
0001
0000
,
1000
1000
0001
0010
,
0100
0000
0100
0000
,
1000
1000
0010
0100
,
0001
0000
1000
0000
,
0010
0100
0001
0010
,
1000
0000
0010
0000
,
0001
1000
0100
0001
,
0100
0000
1000
0000
0001
0100
0001
0000
,
1000
0000
0010
0000
0100
0010
0100
0000
,
0001
0000
0001
0100
,
0010
0000
1000
0100
,
0010
0000
0001
0000
1000
0010
1000
0000
,
0001
0000
0100
0000
0010
0100
0010
0000
,
1000
0001
0010
0100
,
1000
0000
0000
0001
0000
0000
0100
0000
,
1001
0001
0001
0000
,
1000
1000
0001
0001
,
0100
0000
0010
0000
1000
0001
1000
0000
,
0010
0000
0100
0000
0001
1000
0001
0000
,
0110
0100
0100
0000
,
0010
0010
1000
1000
,
0001
0000
0100
0000
0001
0010
0001
0000
,
1000
0000
0100
0000
1000
0010
1000
0000
,
0001
0100
0010
1000
,
0200
0001
1000
0001
,
1300
0000
0001
0000
0010
0001
0010
0001
,
1000
0000
0010
0000
0100
0010
0100
0010
,
1000
0001
0100
0001
,
0020
1000
0001
1000
,
0031
0000
0100
0000
0010
1000
0010
1000
,
0001
0000
0010
0000
0001
1000
0001
1000
,
0100
1000
0100
0000
,
1000
0001
1000
0000
,
0001
0010
0001
0000
,
0100
0010
0100
0000
,
0001
0010
0100
1000
,
0100
0001
1000
0010
,
2002
0000
0000
0000
,
0000
0000
0000
0000
,
3003
0000
0000
0000
;

//---------------dance-single - ----------------
#NOTES:
     dance-single:
     :
     Hard:
     13:
     0.442550,0.589732,0.052655,0.438789,0.447565,353.000000,347.000000,6.000000,50.000000,0.000000,0.000000,0.442550,0.589732,0.052655,0.438789,0.447565,353.000000,347.000000,6.000000,50.000000,0.000000,0.000000:
0000
0000
0000
0000
,
0000
0000
0000
0000
,
0000
0000
0000
0000
,
0000
0000
0000
0000
,
0000
0000
0000
0000
,
0000
0000
0000
0000
,
0000
0000
0000
0000
,
0000
0000
0000
0000
,
1002
0000
0000
0000
0100
0000
0100
0000
0000
0100
0000
0000
0203
0000
0000
0000
,
0320
0000
2030
0000
3002
0000
1003
0100
,
0020
0000
0000
0000
0001
0000
0001
0000
0000
0001
0000
0000
0032
0000
0000
0000
,
2003
0000
0000
0000
0010
0000
0010
0000
0000
0010
0000
0000
3020
0000
0000
0000
,
0230
0000
0301
1000
0200
0000
1300
0001
,
0020
0000
0032
0000
0203
0000
0310
1000
,
0200
0000
0000
0000
1000
0000
1000
0000
0000
1000
0000
0000
2300
0000
0000
0000
,
3002
0000
0000
2003
0000
0000
3010
0000
,
2002
0000
0000
3000
,
2000
0000
0000
0000
0003
0000
0000
0200
,
0000
0000
3000
0000
,
0002
0000
0000
0300
0000
0000
2003
0000
,
3020
0000
0031
2000
0000
3001
0100
0020
,
0000
0000
0000
0000
0000
0000
0000
0200
,
0000
0000
0030
0000
,
0302
0000
0000
2003
0000
0000
3001
0000
,
1001
0000
0000
0000
0100
0000
0000
0001
0000
0000
0010
0000
0100
0000
0000
0000
,
1000
0000
0001
0000
1000
0000
0000
0010
0000
0100
0000
0001
0000
0000
0010
0000
,
0001
0000
0000
0000
0100
0000
0000
1000
0000
0000
0100
0000
0010
0000
0000
0000
,
1000
0000
0001
0000
1000
0000
0000
0001
0000
0100
0000
0010
0000
1000
0100
0000
,
1000
0000
0000
0000
0001
0000
0000
0010
0000
0000
0001
0000
0100
0000
0000
0000
,
0010
0000
1000
0000
0010
0000
0000
0100
0000
0001
0000
1000
0000
0000
0010
0000
,
0100
0000
0000
0000
0001
0000
0000
1000
0000
0000
0100
0000
0001
0000
0000
0000
,
0100
0000
1000
0000
0001
0100
0000
0100
0001
0000
0010
0000
0100
0000
1000
0000
,
0102
0000
1000
0000
1000
0000
0000
0010
0000
0010
0000
0010
0000
0000
0103
0000
,
0020
0000
0100
0000
0100
0000
0000
1000
0000
1000
0000
1000
0000
0000
0130
0000
,
0020
0000
0000
0000
2030
0000
0000
0001
0000
0000
0010
0000
3020
0000
0000
0000
,
1030
0000
0100
0000
0010
0001
0000
0001
0010
0000
0100
0000
1000
0000
0001
0000
,
0020
0000
0001
0000
0001
0000
0000
1000
0000
1000
0000
1000
0000
0000
0031
0000
,
0200
0000
0010
0000
0010
0000
0000
1000
0000
1000
0000
1000
0000
0000
0301
0000
,
0100
0000
0010
0000
1000
0000
0000
0001
0000
0100
0000
0010
0000
0000
1000
0000
,
0001
0000
1000
0000
0100
0000
0010
0001
0000
1000
0000
0001
0100
0000
0010
0000
,
1001
0000
0100
0000
0010
0001
0000
0100
0000
0001
0000
1000
0000
0010
0100
0000
,
0001
0000
1000
0000
0010
1000
0000
0001
0000
0100
0000
0001
0000
1000
0100
0000
,
1000
0000
0010
0000
2000
0000
0000
0001
0000
0001
0000
3001
0000
0100
0010
0000
,
0100
0000
0001
0000
0200
0000
0000
0010
0000
0310
0000
1000
0010
0000
0100
0000
,
0001
0000
0010
0000
0100
1000
0000
0100
0000
0010
0000
0001
0000
1000
0100
0000
,
1000
0000
0001
0000
0100
0000
0001
0010
0000
0001
0000
1000
0000
0001
0100
0000
,
0010
0000
1000
0000
0020
0000
0000
1000
0000
1000
0000
1030
0000
0001
0100
0000
,
0010
0000
1000
0000
0100
0000
0010
0001
0000
1000
0000
0001
0100
0000
0010
0000
,
1001
0000
0100
0000
0001
0010
0000
0010
0001
0000
1000
0000
0100
0000
0010
0000
,
0002
0000
1000
0000
0100
0000
1003
0001
,
0100
0000
0010
0000
0100
0000
0001
0100
0000
0010
0000
1000
0010
0000
0100
0000
,
0010
0000
1000
0000
0001
0000
1000
0100
0000
0010
0000
0001
0100
0000
0010
0000
,
1000
0000
0001
0000
0100
0010
0000
0010
0100
0000
0001
0000
0010
0000
0100
0000
,
2000
0000
0001
0000
0010
0000
3001
1000
,
0100
0000
1000
0000
0001
0000
0010
0001
0000
1000
0000
0010
0100
0010
0100
0000
,
0001
0000
1000
0000
0100
0000
0010
0001
0000
1000
0000
0001
0100
0000
0010
0100
,
0010
0000
0000
1000
0001
0000
0020
0000
0000
0000
0031
0000
0100
0000
0010
0000
,
1000
0000
0000
0100
0010
0000
0002
0000
0000
0000
1003
0000
0001
0000
0010
0000
,
0100
0000
1000
0000
0001
0000
0020
0000
0000
0031
0000
1000
0001
0000
1000
0000
,
0010
0000
0100
0000
0001
0000
2000
0000
0000
3010
0000
1000
0001
0000
0100
0000
,
0010
0000
0200
0000
0000
0000
0301
1000
0001
0000
0100
0000
0010
0000
0001
0000
,
1000
0000
0200
0000
0000
0000
0310
0001
0010
0000
0100
0000
1000
0001
1000
0002
,
2000
0000
0000
0000
,
0000
0000
0000
0000
,
3003
0000
0000
0000
;

//---------------dance-single - ----------------
#NOTES:
     dance-single:
     :
     Beginner:
     2:
     0.105309,0.196577,0.096534,0.017552,0.000000,84.000000,73.000000,11.000000,2.000000,0.000000,0.000000,0.105309,0.196577,0.096534,0.017552,0.000000,84.000000,73.000000,11.000000,2.000000,0.000000,0.000000:
// measure 0
0000
0000
0000
0000
,  // measure 1
0000
0000
0000
0000
,  // measure 2
0000
0000
0000
0000
,  // measure 3
0000
0000
0000
0000
,  // measure 4
0000
0000
0000
0000
,  // measure 5
0000
0000
0000
0000
,  // measure 6
0000
0000
0000
0000
,  // measure 7
0000
0000
0000
0000
,  // measure 8
1000
0000
0000
0000
,  // measure 9
0000
0000
0000
0000
,  // measure 10
1000
0000
0000
0000
,  // measure 11
0000
0000
0000
0000
,  // measure 12
0001
0000
0000
0000
,  // measure 13
0000
0000
0000
0000
,  // measure 14
0001
0000
0000
0000
,  // measure 15
0000
0000
0000
0000
,  // measure 16
1001
0000
0000
0000
,  // measure 17
0000
0000
0000
0000
,  // measure 18
0000
0000
0000
0000
,  // measure 19
0000
0000
0000
0000
,  // measure 20
1001
0000
0000
0000
,  // measure 21
0000
0000
0000
0000
,  // measure 22
0000
0000
0000
0000
,  // measure 23
0000
0000
0000
0000
,  // measure 24
1001
0000
0000
0000
,  // measure 25
0010
0000
0010
0000
,  // measure 26
0010
0000
0000
0000
,  // measure 27
0100
0000
0100
0000
,  // measure 28
1001
0000
0000
0000
,  // measure 29
0010
0000
0010
0000
,  // measure 30
0010
0000
0000
0000
,  // measure 31
0100
0000
0100
0000
,  // measure 32
1001
0000
0000
0000
,  // measure 33
1000
1000
1000
0000
,  // measure 34
1001
0000
0000
0000
,  // measure 35
0001
0001
0001
0000
,  // measure 36
1001
0000
0000
0000
,  // measure 37
0100
0100
0100
0000
,  // measure 38
0110
0000
0000
0000
,  // measure 39
0010
0010
0010
0000
,  // measure 40
0110
0000
0000
0000
,  // measure 41
1000
1000
1000
1000
,  // measure 42
1000
0000
1000
0000
,  // measure 43
1000
0000
0000
0000
,  // measure 44
0110
0000
0000
0000
,  // measure 45
0001
0001
0001
0001
,  // measure 46
0001
0000
0001
0000
,  // measure 47
0001
0000
0000
0000
,  // measure 48
1000
1000
1000
0000
,  // measure 49
1000
0000
0000
0000
,  // measure 50
0001
0001
0001
0000
,  // measure 51
0001
0000
0000
0000
,  // measure 52
0100
0100
0100
0000
,  // measure 53
0100
0000
0000
0000
,  // measure 54
0010
0010
0010
0000
,  // measure 55
0010
0000
0000
0000
,  // measure 56
1000
0000
0000
0000
,  // measure 57
1000
0000
0000
0000
,  // measure 58
0001
0000
0000
0000
,  // measure 59
0001
0000
0000
0000
,  // measure 60
1000
0000
0000
0000
,  // measure 61
1000
0000
0000
0000
,  // measure 62
2002
0000
0000
0000
,  // measure 63
0000
0000
0000
0000
,  // measure 64
3003
0000
0000
0000
;
