#VERSION:0.83;
#TITLE:I WANT YOU;
#SUBTITLE:(Pablo Flores Club Mix);
#ARTIST:THALIA Feat. FAT JOE;
#TITLETRANSLIT:;
#SUBTITLETRANSLIT:;
#ARTISTTRANSLIT:;
#GENRE:;
#ORIGIN:;
#TAGS:;
#CREDIT:;
#BANNER:I WANT YOU (Pablo Flores Club Mix).png;
#BACKGROUND:I WANT YOU (Pablo Flores Club Mix)-bg.png;
#PREVIEWVID:;
#JACKET:I WANT YOU (Pablo Flores Club Mix)-jacket.png;
#CDIMAGE:;
#DISCIMAGE:;
#LYRICSPATH:;
#CDTITLE:Zip Mania 7.png;
#MUSIC:I WANT YOU (Pablo Flores Club Mix).ogg;
#OFFSET:-0.050000;
#SAMPLESTART:44.669163;
#SAMPLELENGTH:15.000000;
#SELECTABLE:YES;
#BPMS:0.000000=129.000000
;
#STOPS:;
#DELAYS:;
#WARPS:;
#TIMESIGNATURES:0.000000=4=4
;
#TICKCOUNTS:0.000000=4
;
#COMBOS:0.000000=1
;
#SPEEDS:0.000000=1.000000=0.000000=0
;
#SCROLLS:0.000000=1.000000
;
#LABELS:0.000000=Song Start
;
#BGCHANGES:16.000=amoeba3.mp4=1.000=1=0=1===CrossFade==,
24.000=heart10.mp4=1.000=0=0=1=====,
28.000=heart14.mp4=1.400=0=0=1=====,
32.000=ddr4.mp4=1.000=0=0=1=====,
48.000=film1.mp4=1.000=0=0=1=====,
64.000=girl2.mp4=1.200=0=0=1=====,
72.000=heart14.mp4=1.400=0=0=1=====,
80.000=blinds1.mp4=1.000=0=0=1=====,
88.000=amoeba2.mp4=1.000=0=0=1=====,
96.000=arrows2.mp4=1.000=0=0=1=====,
104.000=amoeba3.mp4=1.000=0=1=1=StretchRewind====,
112.000=feather1.mp4=1.000=0=0=1=====,
120.000=heart10.mp4=1.000=0=0=1=====,
123.500=girl2.mp4=1.200=0=1=1=StretchRewind====,
125.500=ddr4.mp4=1.400=0=1=1=StretchRewind====,
128.000=arrows2.mp4=1.000=0=1=1=StretchRewind====,
136.000=heart10.mp4=1.000=0=1=1=StretchRewind====,
140.000=heart14.mp4=1.400=0=1=1=StretchRewind====,
144.000=feather1.mp4=1.000=0=1=1=StretchRewind====,
152.000=amoeba3.mp4=1.000=0=1=1=StretchRewind====,
155.500=girl2.mp4=1.200=0=1=1=StretchRewind====,
160.000=amoeba2.mp4=1.000=0=1=1=StretchRewind====,
164.000=amoeba3.mp4=1.000=0=1=1=StretchRewind====,
168.000=ddr4.mp4=1.400=0=0=1=====,
169.000=girl2.mp4=1.200=0=0=1=====,
170.000=ddr4.mp4=1.400=0=0=1=====,
171.000=girl2.mp4=1.200=0=0=1=====,
172.000=heart13.mp4=1.400=0=0=1=====,
180.000=blinds1.mp4=1.000=0=1=1=StretchRewind====,
188.000=heart13.mp4=1.400=0=0=1=====,
196.000=heart14.mp4=1.400=0=1=1=StretchRewind====,
200.000=I WANT YOU (Pablo Flores Club Mix)-bg.png=1.000=0=0=1=====,
99999=-nosongbg-=1.000=0=0=0 // don't automatically add -songbackground-
;
#KEYSOUNDS:;
#ATTACKS:
;

//---------------dance-single - ----------------
#NOTEDATA:;
#CHARTNAME:;
#CHARTHASH:2147483647;
#STEPSTYPE:dance-single;
#BANNER:;
#DESCRIPTION:;
#CHARTSTYLE:;
#DIFFICULTY:Beginner;
#METER:1;
#METERF:1.000000;
#LASTSECONDHINT:94.468605;
#RADARVALUES:0.115005,0.183326,0.010321,0.020642,0.000000,78.000000,77.000000,1.000000,2.000000,0.000000,0.000000,0.000000,0.000000,0.000000,0.115005,0.183326,0.010321,0.020642,0.000000,78.000000,77.000000,1.000000,2.000000,0.000000,0.000000,0.000000,0.000000,0.000000;
#CREDIT:;
#NOTES:
0000
0000
0000
0000
,
0000
0000
0000
0000
,
0000
0000
0000
0000
,
0000
0000
0000
0000
,
0000
1000
0000
1000
,
0000
0001
0000
0001
,
0000
0100
0000
0100
,
0000
0000
0000
0000
,
0010
0000
0010
0000
,
0010
0000
0000
0000
,
0100
0000
0100
0000
,
0100
0000
0000
0000
,
0001
0000
0001
0000
,
0001
0000
0000
0000
,
1000
0000
1000
0000
,
1000
0000
0000
0000
,
0010
0010
0010
0000
,
0010
0000
0010
0000
,
0100
0100
0100
0000
,
0100
0000
0100
0000
,
0001
0001
0001
0000
,
0001
0000
0001
0000
,
1000
1000
1000
0000
,
1000
0000
1000
0000
,
1000
0000
0100
0000
,
0010
0000
0000
0000
,
0100
0000
0001
0000
,
0010
0000
0000
0000
,
0001
0000
1000
0000
,
0100
0000
0000
0000
,
1000
0000
0010
0000
,
0100
0000
0000
0000
,
0010
0000
1000
0000
,
0010
0000
1000
0000
,
0010
0000
0000
0000
,
0100
0001
0100
0010
,
1000
0000
0001
0000
,
1000
0000
0001
0000
,
1000
0000
0000
0000
,
0001
0000
0000
0000
,
0100
0000
0000
0000
,
0010
0000
0000
0000
,
1000
0000
0000
0000
,
0100
0000
0000
0000
,
1000
0000
0000
0000
,
0010
0000
0000
0000
,
0100
0000
0000
0000
,
0001
0000
0000
0000
,
1000
0000
0000
0000
,
0001
0000
1000
0000
,
2002
0000
0000
3003
;

//---------------dance-single - ----------------
#NOTEDATA:;
#CHARTNAME:;
#CHARTHASH:2147483647;
#STEPSTYPE:dance-single;
#BANNER:;
#DESCRIPTION:;
#CHARTSTYLE:;
#DIFFICULTY:Easy;
#METER:5;
#METERF:5.000000;
#LASTSECONDHINT:94.468605;
#RADARVALUES:0.230010,0.340463,0.175457,0.020642,0.000000,156.000000,139.000000,17.000000,2.000000,0.000000,0.000000,0.000000,0.000000,0.000000,0.230010,0.340463,0.175457,0.020642,0.000000,156.000000,139.000000,17.000000,2.000000,0.000000,0.000000,0.000000,0.000000,0.000000;
#CREDIT:;
#NOTES:
0000
0000
0000
0000
,
0000
0000
0000
0000
,
0000
0000
0000
0000
,
0000
0000
0000
0000
,
0000
1000
0000
1000
,
0000
0001
0000
0001
,
0000
0100
0000
0100
,
0000
0000
0000
0000
,
0010
0010
0010
0000
,
0010
0010
0010
0000
,
0100
0001
0100
0010
,
1000
0100
1000
0001
,
0100
0100
0100
0000
,
0100
0100
0100
0000
,
0010
0100
0010
0100
,
0001
0100
0001
1000
,
0010
1000
1010
0000
,
1000
0001
1001
0000
,
0001
0100
0101
0000
,
0101
0000
0110
0000
,
0010
1000
1001
0000
,
0001
0100
0110
0000
,
1000
0010
0110
0000
,
0100
0100
0001
0001
,
1000
0000
1000
0000
,
0001
0000
0001
0000
,
0100
0100
0010
0010
,
1000
1000
0010
1000
,
0001
0000
0001
0000
,
0100
0000
0100
0000
,
0010
0010
0100
0100
,
1001
0000
0110
0000
,
1000
0010
1000
0000
,
0001
0100
0001
0000
,
1000
1000
0001
0001
,
1000
0000
1000
0000
,
0010
0100
0010
0000
,
0100
0001
0100
0000
,
0001
0001
0010
0010
,
0001
1001
1000
0010
,
1000
1010
0010
0100
,
0001
0011
0001
1000
,
0100
1100
1000
1001
,
0110
0000
0010
0000
,
0010
0000
0010
0000
,
0100
0000
0100
0000
,
0100
0000
0001
0000
,
0001
1000
0100
0010
,
0001
1000
0010
0100
,
0001
0001
1000
1000
,
2002
0000
0000
3003
;

//---------------dance-single - ----------------
#NOTEDATA:;
#CHARTNAME:;
#CHARTHASH:1088957257;
#STEPSTYPE:dance-single;
#BANNER:;
#DESCRIPTION:;
#CHARTSTYLE:;
#DIFFICULTY:Medium;
#METER:8;
#METERF:8.000000;
#LASTSECONDHINT:94.468605;
#RADARVALUES:0.309629,0.366653,0.134173,0.082568,0.082568,210.000000,197.000000,13.000000,8.000000,0.000000,0.000000,0.000000,0.000000,0.000000,0.309629,0.366653,0.134173,0.082568,0.082568,210.000000,197.000000,13.000000,8.000000,0.000000,0.000000,0.000000,0.000000,0.000000;
#CREDIT:;
#NOTES:
0000
0000
0000
0000
,
0000
0000
0000
0000
,
0000
0000
0000
0000
,
0000
0000
0000
0000
,
0000
1000
0000
1000
,
0000
0001
0000
0001
,
0000
0000
0100
0000
0000
0000
0100
0010
,
0000
0000
0100
0000
0000
0010
0000
0000
1000
0000
0000
0001
0000
0000
1000
0000
,
0001
0010
0001
0000
,
1000
0100
1000
0000
,
0010
0100
0010
0001
,
0010
0000
1000
0000
0010
0100
0010
0000
,
0100
0001
1001
0000
,
1000
0010
0110
0000
,
0100
0001
0010
1000
,
0010
0000
0001
0000
0100
0001
0010
0100
,
1000
0000
0000
0000
0200
0000
0000
0000
1000
0000
0000
1300
0000
0000
0000
0000
,
1000
0000
0000
0000
0020
0000
0000
0000
0100
0000
0000
0130
0000
0000
0000
0000
,
0100
0001
0010
0001
,
1000
1000
0000
1000
0001
0001
1000
0000
,
0010
0000
0000
0000
0200
0000
0000
0000
0001
0000
0000
0301
0000
0000
0000
0000
,
0001
0000
0000
0000
0020
0000
0000
0000
0001
0000
0000
0031
0000
0000
0000
0000
,
0001
0100
0010
1000
,
1100
1010
0110
0101
,
0001
0000
0001
0000
1000
0010
1000
0000
,
0010
0000
0010
0000
0100
0001
0100
0000
,
0001
1000
0010
1000
,
0100
0000
1000
0000
0010
1000
0001
0000
,
0010
0000
0010
0000
0001
0100
0001
0000
,
0100
0000
0100
0000
0010
0100
0010
0000
,
1000
0010
0100
0001
,
1000
0000
0010
0000
0000
1000
0000
0000
0001
0000
0000
0100
0000
0000
0001
0000
,
0010
0001
0100
0101
,
0001
1000
0010
1010
,
1000
1000
0001
0001
,
0102
0000
0000
0000
1003
0001
1000
0000
,
0010
0010
0100
0101
,
0001
0001
1000
1010
,
0010
0100
0001
1000
,
0100
0000
1000
0000
0000
0100
0000
0000
0010
0000
0000
0001
0000
0000
1000
0000
,
0000
0000
0001
0000
0000
0010
0000
0000
0100
0000
0000
1000
0000
0000
0001
1000
,
0000
0000
1000
0000
0000
0001
0000
0000
1000
0000
0000
0010
0000
0000
0010
0100
,
0000
0010
1000
0010
,
2001
0000
0100
0000
,
0100
0000
3100
0000
,
0100
1000
0010
0100
,
0001
0010
0001
0000
1000
0001
1000
0000
,
0001
0100
0001
0000
0010
0000
0001
0000
,
1000
0000
0100
0000
1000
0100
0010
0001
,
1000
1000
0000
0001
1000
1000
0001
0000
,
2002
0000
0000
3003
;

//---------------dance-single - ----------------
#NOTEDATA:;
#CHARTNAME:;
#CHARTHASH:1509272690;
#STEPSTYPE:dance-single;
#BANNER:;
#DESCRIPTION:;
#CHARTSTYLE:;
#DIFFICULTY:Hard;
#METER:11;
#METERF:11.000000;
#LASTSECONDHINT:94.468605;
#RADARVALUES:0.429058,0.602358,0.361234,0.123852,0.149654,291.000000,256.000000,35.000000,12.000000,0.000000,0.000000,0.000000,0.000000,0.000000,0.429058,0.602358,0.361234,0.123852,0.149654,291.000000,256.000000,35.000000,12.000000,0.000000,0.000000,0.000000,0.000000,0.000000;
#CREDIT:;
#NOTES:
// measure 0
0000
0000
0000
0000
,  // measure 1
0000
0000
0000
0000
,  // measure 2
0000
0000
0000
0000
,  // measure 3
0000
0000
0000
0000
,  // measure 4
0000
1000
0000
0001
,  // measure 5
0000
0100
0000
0010
,  // measure 6
1001
0000
0100
0000
0000
0000
0100
1000
,  // measure 7
0000
0000
1001
0000
0000
0101
0000
0000
1001
0000
0000
0110
0000
0000
0100
0000
,  // measure 8
0001
1000
0010
1000
,  // measure 9
0100
0000
1000
0100
0001
0100
0010
0000
,  // measure 10
0100
0000
0000
0000
1000
0000
0000
0000
0001
0000
0000
0000
0100
0000
0001
0200
,  // measure 11
0000
0000
0010
0000
0310
0000
0000
1000
0000
0000
0010
0000
1000
0000
0000
0000
,  // measure 12
0001
1000
0001
0010
,  // measure 13
0001
0000
1000
0100
0010
0001
1000
0000
,  // measure 14
0001
0000
0000
0000
1000
0000
0000
0000
0010
0000
0000
0000
1000
0000
0001
2000
,  // measure 15
0000
0000
0010
0000
3010
0000
0000
1000
0000
0000
0001
0000
1000
0000
0000
0000
,  // measure 16
1001
0000
0000
0000
1000
0000
0000
0000
0010
0000
0000
2010
0000
0000
0000
0000
,  // measure 17
3100
0000
0000
0000
0001
0000
0000
0000
0010
0000
0000
0012
0000
0000
1003
0000
,  // measure 18
0001
0000
0000
0000
0010
0000
0000
0000
0001
0000
0000
1000
0000
0001
1000
0000
,  // measure 19
0010
0000
0010
0000
0000
1000
0001
0000
0100
0000
0100
0000
0010
0000
0000
0000
,  // measure 20
1001
0000
0000
0000
1000
0000
0000
0000
0010
0000
0000
0210
0000
0000
0301
0000
,  // measure 21
0100
0000
0010
0000
1000
0001
1000
0000
,  // measure 22
0010
0000
0100
0000
0001
0010
0001
0000
,  // measure 23
1000
1000
0001
0001
1000
0010
1010
0000
,  // measure 24
0110
0000
0100
0000
0001
0100
1000
0000
,  // measure 25
1000
0100
0001
0000
0100
0100
0100
0000
,  // measure 26
0010
1000
0010
1000
0001
0100
0010
0000
,  // measure 27
0010
1000
0010
1000
0100
0010
0001
0000
,  // measure 28
1001
0000
1000
0000
0001
0010
1000
0000
,  // measure 29
1000
0010
0001
0000
0010
0010
0010
0000
,  // measure 30
0001
0000
0100
0000
0010
0000
1000
0000
0100
0000
0010
0000
0001
0000
1000
0001
,  // measure 31
0000
0000
0011
0000
0000
1001
0000
0000
1100
0000
0000
1010
0000
0000
0010
0000
,  // measure 32
0200
0001
0310
1001
,  // measure 33
1000
0100
0001
0000
0001
0100
1000
0000
,  // measure 34
0020
1000
0100
1030
,  // measure 35
1001
1000
0010
0100
0001
0010
0100
0000
,  // measure 36
2000
0001
3010
0110
,  // measure 37
1000
0010
0001
0000
0001
0010
1000
0000
,  // measure 38
1000
0000
0000
0000
0001
0000
0000
0000
0100
0000
0000
0000
0001
0000
1000
0001
,  // measure 39
0000
0000
0011
0000
0000
0101
0000
0000
0110
0000
0000
1010
0000
0000
1000
0100
,  // measure 40
0000
0000
1100
0000
0000
1001
0000
0000
0110
0000
0000
0101
0000
0000
0001
1000
,  // measure 41
0001
0000
1001
0000
0000
1100
0000
0000
1010
0000
0000
0110
0000
0000
0100
0000
,  // measure 42
0101
0001
1000
0010
1000
0010
0100
0001
,  // measure 43
0200
0001
0010
0301
,  // measure 44
0001
1000
1000
0000
1000
0001
0001
0000
,  // measure 45
0020
0001
0100
0031
,  // measure 46
0001
0100
0100
0010
1000
0001
1000
0000
,  // measure 47
1000
0000
0000
1010
0000
0000
1000
0000
0100
0000
0010
0000
0001
0000
0000
0000
,  // measure 48
0100
0000
0000
0001
1000
0000
0010
0000
0100
0000
0001
0000
0000
0001
1000
0001
,  // measure 49
1000
0000
0010
0000
0000
0010
0100
0000
0001
0000
0001
0000
1000
0000
0000
0000
,  // measure 50
2002
0000
0000
3003
;

//---------------dance-double - ----------------
#NOTEDATA:;
#CHARTNAME:;
#CHARTHASH:2147483647;
#STEPSTYPE:dance-double;
#BANNER:;
#DESCRIPTION:;
#CHARTSTYLE:;
#DIFFICULTY:Easy;
#METER:5;
#METERF:5.000000;
#LASTSECONDHINT:94.468605;
#RADARVALUES:0.201996,0.288084,0.123852,0.258025,0.000000,137.000000,125.000000,12.000000,25.000000,0.000000,0.000000,0.000000,0.000000,0.000000,0.201996,0.288084,0.123852,0.258025,0.000000,137.000000,125.000000,12.000000,25.000000,0.000000,0.000000,0.000000,0.000000,0.000000;
#CREDIT:;
#NOTES:
00000000
00000000
00000000
00000000
,
00000000
00000000
00000000
00000000
,
00000000
00000000
00000000
00000000
,
00000000
00000000
00000000
00000000
,
00000000
10000000
00000000
10000000
,
00000000
00010000
00000000
00010000
,
00000000
00100000
00000000
00100000
,
00000000
00000000
00000000
00000000
,
00001000
00001000
00001000
00000000
,
00010000
00010000
00010000
00000000
,
00000010
00000100
00000001
00001000
,
00002200
00000000
00003300
00000000
,
00000100
00000100
00000100
00000000
,
00010000
00010000
00010000
00000000
,
00001000
01000000
00100000
10000000
,
20200000
00000000
30300000
00000000
,
20000000
30000000
00010000
00010000
,
02000000
03000000
00001000
00001000
,
00020000
00030000
00000010
00000010
,
00000100
00000001
00001000
00000100
,
00020000
00030000
00001000
00001000
,
02000000
03000000
00100000
00100000
,
10000000
00010000
01000000
00100000
,
20000000
30200000
02300000
03020000
,
00130000
00000000
00001000
00000000
,
00010000
00000000
00000100
00000010
,
00000100
00000001
00000100
00001000
,
00000100
00010000
00001000
01000000
,
00100000
00000000
10000000
00000000
,
00100000
00000000
10000000
00010000
,
00100000
00001000
00100000
00010000
,
00100000
00101000
00001000
00011000
,
00010000
00000000
00000010
00000000
,
00000100
00000100
00000001
00000001
,
00001000
00000100
00010000
00001000
,
02002000
00000000
03003000
00000000
,
01000000
00000000
01000000
00000000
,
00100000
00000000
00100000
00000000
,
10000000
00100000
01000000
00010000
,
00220000
00000000
00330000
00000000
,
00022000
00000000
00033000
00000000
,
00020020
00000000
00030030
00000000
,
00000100
00000100
00000010
00000010
,
00000202
00000000
00000303
00000000
,
00000001
00000000
00000001
00000000
,
00001000
00000000
00001000
00000000
,
00000100
00000000
00000100
00000000
,
00010000
00010000
00001000
00001000
,
01000000
01000000
00100000
00100000
,
10100000
00000000
10010000
00000000
,
00220000
00000000
00000000
00330000
;

//---------------dance-double - ----------------
#NOTEDATA:;
#CHARTNAME:;
#CHARTHASH:2010070233;
#STEPSTYPE:dance-double;
#BANNER:;
#DESCRIPTION:;
#CHARTSTYLE:;
#DIFFICULTY:Medium;
#METER:8;
#METERF:8.000000;
#LASTSECONDHINT:94.468605;
#RADARVALUES:0.345016,0.419032,0.123852,0.061926,0.082568,234.000000,222.000000,12.000000,6.000000,0.000000,0.000000,0.000000,0.000000,0.000000,0.345016,0.419032,0.123852,0.061926,0.082568,234.000000,222.000000,12.000000,6.000000,0.000000,0.000000,0.000000,0.000000,0.000000;
#CREDIT:;
#NOTES:
00000000
00000000
00000000
00000000
,
00000000
00000000
00000000
00000000
,
00000000
00000000
00000000
00000000
,
00000000
00000000
00000000
00000000
,
00000000
10000000
00000000
10000000
,
00000000
00010000
00000000
00010000
,
00100000
00000000
00001000
00000000
00010000
00000000
00000010
00000010
,
00000000
00000000
00000100
00000000
00000000
00001000
00000000
00000000
00000100
00000000
00000000
00010000
00000000
00000000
00001000
00000000
,
01000000
00000000
01000000
00000000
00100000
00000000
10000000
00100000
,
10000000
00000000
00100000
00000000
00100000
00000000
01000000
00010000
,
00001000
00000000
00010000
00000000
00100000
00000000
00001000
00010000
,
00000010
00000100
00000001
00000000
,
00001000
00000000
00000100
00000000
00010000
00000000
00001000
01000000
,
00100000
10000000
00010000
00000000
,
10000000
00000000
00100000
00000000
01000000
00000000
00010000
00100000
,
00001000
00000000
00010000
00000000
00000100
00001000
00000010
00000100
,
00000001
00000000
00000000
00000000
00002000
00000000
00000000
00000000
00000010
00000000
00000000
00003010
00000000
00000000
00000000
00000000
,
00001000
00000000
00000100
00000000
00010000
00001000
00010000
00000000
,
00001000
00000000
00000000
00000000
02000000
00000000
00000000
00000000
00100000
00000000
00000000
03100000
00000000
00000000
00000000
00000000
,
00100000
00100000
00000000
10000000
00010000
00010000
01000000
00000000
,
00100000
00000000
00000000
00000000
02000000
00000000
00000000
00000000
00010000
00000000
00000000
03010000
00000000
00000000
00000000
00000000
,
01000000
00000000
00001000
00000000
00010000
00000100
00010000
00000000
,
00000100
00000000
00000000
00000000
00002000
00000000
00000000
00000000
00000010
00000000
00000000
00003010
00000000
00000000
00000000
00000000
,
00000110
00000101
00001001
00010010
,
00010000
00001000
00010000
00000000
00001000
00010000
00001000
00000000
,
00100000
00100000
00100000
00000000
00010000
00010000
00010000
00000000
,
10000000
00010000
00100000
00001000
,
00010000
00000100
00001000
00000001
,
00000010
00000001
00000010
00000000
00000001
00000010
00000001
00000000
,
00001000
00001000
00001000
00000000
00000100
00000100
00000100
00000000
,
00010000
00001000
00010000
00001000
00100000
00010000
00100000
00010000
,
10000000
00000000
00010000
00000000
00000000
10000000
00000000
00000000
00100000
00000000
00000000
01000000
00000000
00000000
00010000
00000000
,
00100000
00000000
00001000
00000000
00010000
00010000
00010000
00000000
,
00001000
00000000
00010000
00000000
00000010
00000100
00000010
00000000
,
00001000
00000001
00000100
00000010
,
00001000
00001100
00000100
00010100
,
00010000
00000000
00001000
00000000
01000000
00100000
01000000
00000000
,
00100000
00000000
10000000
00000000
10000000
00010000
10000000
00000000
,
00010000
01000000
01001000
00001000
,
00010000
00000000
00010000
00000000
00000000
00001000
00000000
00000000
00010000
00000000
00000000
00000010
00000000
00000000
00000100
00000000
,
00000000
00000000
00000001
00000000
00000000
00001000
00000000
00000000
00000100
00000000
00000000
00010000
00000000
00000000
00001000
01000000
,
00000000
00000000
01000000
00000000
00000000
00100000
00000000
00000000
10000000
00000000
00000000
00010000
00000000
00000000
10000000
00010000
,
00000000
10000000
00010000
00100000
,
00101000
00100000
00010000
00100000
,
00001000
00000000
00010000
00000000
00000010
00000100
00000010
00000000
,
00000101
00000001
00001000
00000100
,
00010000
00000000
00001000
00000000
01000000
00100000
01000000
00000000
,
00100000
00000000
10000000
00010000
01000000
00000000
00100000
00000000
,
10100000
00000000
10000000
00010000
01000000
00010000
00100000
00000000
,
00101000
00001000
00000000
00010000
00000100
00000100
00001000
00000000
,
00002002
00000000
00000000
00003003
;

//---------------dance-double - ----------------
#NOTEDATA:;
#CHARTNAME:;
#CHARTHASH:2147483647;
#STEPSTYPE:dance-double;
#BANNER:;
#DESCRIPTION:;
#CHARTSTYLE:;
#DIFFICULTY:Hard;
#METER:12;
#METERF:12.000000;
#LASTSECONDHINT:94.468605;
#RADARVALUES:0.507203,0.602358,0.288988,0.020642,0.350913,344.000000,316.000000,28.000000,2.000000,0.000000,0.000000,0.000000,0.000000,0.000000,0.507203,0.602358,0.288988,0.020642,0.350913,344.000000,316.000000,28.000000,2.000000,0.000000,0.000000,0.000000,0.000000,0.000000;
#CREDIT:;
#NOTES:
00000000
00000000
00000000
00000000
,
00000000
00000000
00000000
00000000
,
00000000
00000000
00000000
00000000
,
00000000
00000000
00000000
00000000
,
10000000
00010000
01000000
01010000
,
00001000
00000000
00010000
00000000
00000010
00001000
00000001
00000000
,
00000100
00000000
00000001
00000000
00001000
00000000
00000100
00000000
00010000
00000000
00000000
00001000
00000000
00000000
00100000
00000000
,
00000000
00000000
00110000
00000000
00000000
10010000
00000000
00000000
11000000
00000000
00000000
10100000
00000000
00000000
00100000
00000000
,
01000000
00000000
00010000
00000000
10000000
00000000
01000000
10000000
,
00010000
01000000
00001000
00000000
,
00010000
00000000
00000100
00000000
00001000
00000000
00000001
00000100
,
00000010
00010000
00011000
00001000
,
01000000
00000000
00010000
00000000
10000000
00000000
00100000
01000000
,
00001000
00000000
00010000
00000000
00000100
00000000
00010000
00000010
,
00000100
00000010
00000001
00000010
,
00000100
00000000
00000000
00000000
00000010
00000000
00001000
00000000
00000100
00000000
00000000
00010000
00000000
00001000
00000000
00000000
,
00101000
00000000
00100000
00000000
00010000
00000000
10000000
00010000
10000000
00000000
00010000
01000000
00000000
00010000
01000000
00000000
,
00010000
00000000
10000000
01000000
10000000
00000000
00100000
00000000
01000000
00000000
00010000
00100000
00000000
00010000
00100000
00000000
,
00000000
00001000
00000000
00001000
00010000
00000000
00000010
00001000
00000100
00000000
00001000
00000010
00000000
00001000
00000001
00001000
,
00000001
00000000
00000001
00000000
00000000
00001000
00000100
00000000
00010000
00000000
00010000
00000000
00001000
00000000
01000000
00000000
,
01100000
00000000
00100000
00000000
10000000
00000000
00010000
10000000
00010000
00000000
10000000
00010000
00000000
10000000
00010000
10000000
,
00000000
00100000
00000000
00100000
01000000
00000000
00010000
00100000
00010000
00000000
00100000
00001000
00000000
00100000
00001000
00010000
,
00000000
00000100
00000000
00000100
00010000
00000000
00000100
00010000
00000010
00000000
00000010
00000100
00000000
00000010
00001000
00000010
,
00000100
00000100
00000001
00000001
00001000
00001000
00000100
00010000
,
00011000
00000000
01000000
00000000
00010000
10000000
01000000
00000000
,
10000000
00100000
01000000
00010000
00001000
00000010
00000100
00000001
,
00001000
00000000
00000100
00000000
00010000
00001000
01000000
00100000
,
10000000
00000000
01000000
00000000
10000000
00000000
00010000
00000000
00100000
00000000
00010000
01000000
00000000
00000000
00100000
00000000
,
10100000
00000000
01000000
00000000
00010000
00100000
00001000
00000000
,
00010000
00000000
00000010
00000000
00000100
00000001
00001000
00000000
,
00000100
00000000
00001000
00000000
00000100
00000000
00010000
00000000
00001000
00000000
00010000
00000000
00001000
00000000
01000000
00010000
,
01000000
00000000
01010000
00000000
00000000
10010000
00000000
00000000
10100000
00000000
00000000
01100000
00000000
00000000
01000000
00000000
,
00010000
00000000
00100000
00000000
00001000
00010000
00000010
00000000
,
00000100
00000000
00000001
00000000
00000010
00000001
00000010
00000000
,
00000001
00001000
00000100
00010000
00001000
00010000
00001000
01000000
,
00010000
00000000
01000000
00000000
00100000
00000000
00000000
00000000
10000000
00000000
00010000
10000000
00000000
00000000
00010000
00000000
,
01010000
00000000
00100000
00000000
00001000
00010000
00000100
00000000
,
00001000
00000010
00000001
00000010
00001000
00000100
00010000
00001000
,
01000000
00000000
00000000
00000000
00100000
00000000
00000000
00000000
10000000
00000000
00000000
00000000
00100000
00000000
10000000
01000000
,
10000000
00000000
10010000
00000000
00000000
01010000
00000000
00000000
01100000
00000000
00000000
01001000
00000000
00000000
00001000
00010000
,
00000000
00000000
00011000
00000000
00000000
00010010
00000000
00000000
00000110
00000000
00000000
00000101
00000000
00000000
00000001
00001000
,
00000000
00000000
00001100
00000000
00000000
00010100
00000000
00000000
00011000
00000000
00000000
01001000
00000000
00000000
01000000
00100000
,
01000000
00000000
00000000
00100000
10000000
00000000
00000000
01000000
00010000
00000000
00000000
01000000
10000000
00000000
00000000
00100000
,
01000000
00000000
00010000
00000000
00100000
00000000
00001000
00010000
,
00000100
00000000
00001000
00000000
00000001
00000010
00000001
00001000
,
00000100
00000000
00000000
00010000
00000000
00000000
00001000
00000000
01000000
00000000
00100000
00000000
10000000
01000000
10000000
00000000
,
00010000
00000000
01000000
00010000
00000000
01000000
00010000
00000000
00000000
00100000
00001000
00100000
00001000
00000000
00010000
00000000
,
00000100
00000000
00001000
00000000
00000001
00000000
00000000
00000000
00000010
00000000
00000001
00001000
00000000
00000001
00001000
00000000
,
00000000
00000100
00000000
00000100
00010000
00000000
00001000
00000000
01000000
00010000
00000000
00100000
00000000
00010000
10000000
00010000
,
10000000
00000000
00100000
00000000
00000000
00100000
10000000
00000000
00010000
00000000
01000000
00000000
00001000
00000000
00000000
00000000
,
00022000
00000000
00000000
00033000
;
