#VERSION:0.83;
#TITLE:ひざしの奥のハッピーハート;
#SUBTITLE:;
#ARTIST:Aie;
#TITLETRANSLIT:Hiza shi no oku no happihato;
#SUBTITLETRANSLIT:;
#ARTISTTRANSLIT:;
#GENRE:;
#ORIGIN:;
#TAGS:;
#CREDIT:;
#BANNER:Hiza shi no oku no happihato.png;
#BACKGROUND:Hiza shi no oku no happihato-bg.png;
#PREVIEWVID:;
#JACKET:Hiza shi no oku no happihato-jacket.png;
#CDIMAGE:;
#DISCIMAGE:;
#LYRICSPATH:;
#CDTITLE:cdtitle.png;
#MUSIC:Hiza shi no oku no happihato.ogg;
#OFFSET:0.000000;
#SAMPLESTART:44.000000;
#SAMPLELENGTH:15.000000;
#SELECTABLE:YES;
#DISPLAYBPM:120.000000;
#BPMS:0.000000=120.000000
,248.000000=60.000000
,250.000000=120.000000
;
#STOPS:;
#DELAYS:;
#WARPS:;
#TIMESIGNATURES:0.000000=4=4
;
#TICKCOUNTS:0.000000=4
;
#COMBOS:0.000000=1
;
#SPEEDS:0.000000=1.000000=0.000000=0
;
#SCROLLS:0.000000=1.000000
;
#LABELS:0.000000=Song Start
;
#BGCHANGES:8.000=girl2a.mp4=0.900=1=0=1===CrossFade==,
16.000=heart1.mp4=0.800=0=0=1=====,
24.000=girl2a.mp4=0.900=0=0=1=====,
32.000=groove1.mp4=0.800=0=0=1=====,
40.000=flower1.mp4=1.000=0=0=1=====,
48.000=frog1.mp4=0.800=0=0=1=====,
56.000=heart4.mp4=0.800=0=0=1=====,
64.000=kaliedoscope5.mp4=0.800=0=0=1=====,
72.000=heart9.mp4=0.800=0=0=1=====,
80.000=kaliedoscope6.mp4=0.800=0=0=1=====,
88.000=kaliedoscope7.mp4=1.000=0=0=1=====,
96.000=heart7.mp4=1.000=0=0=1=====,
104.000=heart2.mp4=0.900=0=0=1=====,
112.000=heart12.mp4=1.200=0=0=1=====,
120.000=flower1.mp4=1.000=0=1=1=StretchRewind====,
128.000=frog1.mp4=0.800=0=1=1=StretchRewind====,
136.000=kaliedoscope7.mp4=1.000=0=1=1=StretchRewind====,
152.000=kaliedoscope5.mp4=0.800=0=1=1=StretchRewind====,
168.000=girl2a.mp4=0.900=0=1=1=StretchRewind====,
184.000=kaliedoscope6.mp4=0.800=0=1=1=StretchRewind====,
200.000=kaliedoscope7.mp4=1.000=0=1=1=StretchRewind====,
208.000=heart7.mp4=1.000=0=1=1=StretchRewind====,
216.000=heart2.mp4=0.900=0=1=1=StretchRewind====,
224.000=heart12.mp4=1.200=0=1=1=StretchRewind====,
232.000=flower1.mp4=1.000=0=1=1=StretchRewind====,
240.000=groove1.mp4=0.800=0=1=1=StretchRewind====,
248.000=ring11.mp4=0.600=0=0=1=====,
250.000=flower1.mp4=1.000=0=0=1=====,
258.000=frog1.mp4=0.800=0=1=1=StretchRewind====,
262.000=Hiza shi no oku no happihato-bg.png=1.000=0=0=1=====,
99999=-nosongbg-=1.000=0=0=0 // don't automatically add -songbackground-
;
#KEYSOUNDS:;
#ATTACKS:
;

//---------------dance-single - ----------------
#NOTEDATA:;
#CHARTNAME:;
#CHARTHASH:4115342388;
#STEPSTYPE:dance-single;
#BANNER:;
#DESCRIPTION:;
#CHARTSTYLE:;
#DIFFICULTY:Easy;
#METER:4;
#METERF:4.000000;
#LASTSECONDHINT:135.250000;
#RADARVALUES:0.187798,0.235940,0.091388,0.119508,0.000000,187.000000,174.000000,13.000000,17.000000,0.000000,0.000000,0.000000,0.000000,0.000000,0.187798,0.235940,0.091388,0.119508,0.000000,187.000000,174.000000,13.000000,17.000000,0.000000,0.000000,0.000000,0.000000,0.000000;
#CREDIT:;
#DISPLAYBPM:120.000000;
#NOTES:
0000
0000
0000
0000
,
0000
0000
0000
0000
,
1000
0000
1000
0000
,
0001
0000
0001
0000
,
0100
0000
0100
0000
,
0010
0000
0010
0000
,
0100
0000
0001
0000
,
0010
0000
0001
0000
,
1000
0000
0100
0000
,
0010
0001
1000
0100
,
1001
0100
0100
1000
,
0010
1000
1000
0001
,
0100
0001
0001
0010
,
0001
0100
0100
0010
,
1000
0000
1000
0000
,
0100
0000
1000
0000
,
0010
0000
0100
0000
,
0001
0000
0010
0000
,
0001
0000
0100
0000
,
0010
0000
1000
0000
,
0100
0000
0010
0000
,
0001
0000
1000
0000
,
1001
0000
0001
0100
,
0010
0000
1000
0000
,
0010
1000
0100
0010
,
0001
0000
0010
0000
,
1001
0000
0100
1000
,
0010
0000
0100
0000
,
0001
0010
1000
0010
,
0001
0100
0010
1000
,
1001
0001
0100
0010
,
1000
0010
0100
0001
,
0001
1000
0100
0010
,
0100
0100
1000
0100
,
2001
0000
0100
3100
,
1002
0000
0010
0013
,
0002
0003
0200
0300
,
0010
0010
1000
1000
,
1002
0000
0010
0013
,
2001
0000
0100
3100
,
2000
3000
0020
0030
,
0100
0100
0001
0001
,
1000
0000
1000
0000
,
1000
0000
0000
0000
,
0001
0000
0001
0000
,
0001
0000
0000
0000
,
0100
0000
0100
0000
,
0100
0000
0000
0000
,
0010
0000
0010
0000
,
0010
0000
0000
0000
,
1001
1000
0100
0010
,
0001
0000
0100
0000
,
0001
0010
0100
1000
,
0001
0000
0100
0000
,
0010
1000
0100
0001
,
0100
0000
1000
0000
,
0001
1000
0010
0100
,
0001
0010
1000
0010
,
2001
0100
3100
0000
,
0020
0030
0020
0030
,
1002
0100
0103
0000
,
2000
3000
2000
3000
,
2010
0000
3100
1000
,
0100
1000
0010
0100
,
0010
0100
0001
0000
,
1000
0000
2002
0000
,
0000
0000
0000
0000
,
0000
3003
0000
0000
0000
0000
0000
0000
;

//---------------dance-single - ----------------
#NOTEDATA:;
#CHARTNAME:;
#CHARTHASH:1919904879;
#STEPSTYPE:dance-single;
#BANNER:;
#DESCRIPTION:;
#CHARTSTYLE:;
#DIFFICULTY:Beginner;
#METER:1;
#METERF:0.000000;
#LASTSECONDHINT:135.250000;
#RADARVALUES:0.094401,0.165158,0.007030,0.021090,0.000000,94.000000,93.000000,1.000000,3.000000,0.000000,0.000000,0.000000,0.000000,0.000000,0.094401,0.165158,0.007030,0.021090,0.000000,94.000000,93.000000,1.000000,3.000000,0.000000,0.000000,0.000000,0.000000,0.000000;
#CREDIT:;
#DISPLAYBPM:120.000000;
#NOTES:
0000
0000
0000
0000
,
0000
0000
0000
0000
,
1000
0000
1000
0000
,
1000
0000
0000
0000
,
0010
0000
0010
0000
,
0010
0000
0000
0000
,
0100
0000
0100
0000
,
0100
0000
0000
0000
,
0001
0000
0001
0000
,
0001
0000
0000
0000
,
1000
0000
0000
0000
,
1000
0000
0000
0000
,
0001
0000
0000
0000
,
0001
0000
0000
0000
,
1000
0000
0000
0000
,
1000
0000
0000
0000
,
0010
0000
0000
0000
,
0010
0000
0000
0000
,
0100
0000
0000
0000
,
0100
0000
0000
0000
,
0001
0000
0000
0000
,
0001
0000
0000
0000
,
1000
0000
1000
0000
,
1000
0000
0000
0000
,
0010
0000
0010
0000
,
0010
0000
0000
0000
,
0100
0000
0100
0000
,
0100
0000
0000
0000
,
0001
0000
0001
0000
,
0001
0000
0000
0000
,
0100
0000
0000
0000
,
0100
0000
0000
0000
,
0010
0000
0000
0000
,
0010
0000
0000
0000
,
1000
1000
1000
1000
,
1000
0000
0000
0000
,
0100
0000
0100
0000
,
0010
0000
0010
0000
,
0001
0001
0001
0001
,
0001
0000
0000
0000
,
1000
0000
1000
0000
,
0010
0000
0010
0000
,
0100
0000
0000
0000
,
0010
0000
0000
0000
,
1000
0000
0000
0000
,
0100
0000
0000
0000
,
0001
0000
0000
0000
,
0100
0000
0000
0000
,
1000
0000
0000
0000
,
0010
0000
1000
0000
,
0001
0000
0001
0000
,
0001
0000
0000
0000
,
1000
0000
1000
0000
,
1000
0000
0000
0000
,
0010
0000
0010
0000
,
0010
0000
0000
0000
,
0100
0000
0100
0000
,
0100
0000
0000
0000
,
0010
0000
0010
0000
,
0010
0000
0000
0000
,
0100
0000
0100
0000
,
0100
0000
0000
0000
,
0020
0000
1030
0000
,
1000
0000
0001
0000
,
0001
0000
1000
0000
,
1000
0000
2002
0000
,
0000
0000
0000
0000
,
0000
3003
0000
0000
0000
0000
0000
0000
;

//---------------dance-single - ----------------
#NOTEDATA:;
#CHARTNAME:;
#CHARTHASH:1919904879;
#STEPSTYPE:dance-single;
#BANNER:;
#DESCRIPTION:;
#CHARTSTYLE:;
#DIFFICULTY:Medium;
#METER:7;
#METERF:7.000000;
#LASTSECONDHINT:135.250000;
#RADARVALUES:0.279187,0.306722,0.189807,0.274165,0.000000,278.000000,251.000000,27.000000,39.000000,0.000000,0.000000,0.000000,0.000000,0.000000,0.279187,0.306722,0.189807,0.274165,0.000000,278.000000,251.000000,27.000000,39.000000,0.000000,0.000000,0.000000,0.000000,0.000000;
#CREDIT:;
#DISPLAYBPM:120.000000;
#NOTES:
0000
0000
0000
0000
,
0000
0000
0000
0000
,
1000
0010
0001
1000
,
1100
0000
0000
0101
0000
0000
0001
1000
,
0010
0000
0100
0000
0001
0010
0001
0000
,
1000
0000
0010
0000
1000
0001
1000
0000
,
0001
1000
0100
0001
,
1100
0000
0000
1001
0000
0000
0001
1000
,
0100
1000
0010
0100
,
0001
1000
0010
1001
,
0210
0000
0001
0000
0001
0000
0301
0100
,
0020
0000
1000
0000
1000
0000
1030
0010
,
0200
0000
0001
0000
0001
0000
0301
1000
,
0100
1000
0010
0100
,
1001
0000
0000
0001
0100
0000
0001
1000
,
0001
1000
2020
3030
,
1000
0000
2000
0000
,
0001
0000
3001
0000
1000
0010
1000
0000
,
0110
0000
0000
0100
0010
0000
1000
0001
,
1000
0001
0202
0303
,
0010
0000
0020
0000
,
0001
0000
0031
0000
0001
1000
0001
0000
,
1001
0100
1000
0010
,
1000
0000
0000
0001
0000
0000
1000
0000
,
0010
0100
0001
0010
,
1000
0000
0010
0000
0001
0000
0100
0001
,
0100
0001
0010
0001
,
1000
0000
0000
0100
0000
0000
1000
0000
,
1010
0100
1000
0001
,
1001
0100
0010
1010
,
2001
0000
0010
0000
0010
0000
3010
1000
,
0200
0000
1000
0000
1000
0000
1300
0100
,
0020
0000
0001
0000
0001
0000
0031
0010
,
0100
0000
1000
0000
0100
0000
1000
0001
,
0202
0000
0303
0001
1000
0000
0100
0000
,
2020
3030
0200
0300
,
1000
1000
0001
0001
,
0100
0000
0010
0000
1000
0010
1000
0000
,
2002
0000
3003
1000
0010
0000
1000
0000
,
2020
3030
2000
3000
,
0001
0001
0100
0100
,
0010
1000
0100
0010
,
0002
0000
0003
0100
0001
0000
0010
0000
,
2001
0000
0200
3300
,
2000
3000
0020
0030
,
1000
1000
0010
0010
,
0202
0000
0303
0001
1000
0000
0100
0000
,
1002
0000
0020
0033
,
0002
0003
0200
0300
,
0010
0100
1000
0100
,
0110
0100
0010
1000
,
0001
0000
0000
1000
0000
0000
0001
0000
,
1000
0100
0010
0001
,
0010
0000
0100
0000
1000
0000
0100
1000
,
0100
1000
0010
0100
,
0001
0000
0000
0010
0000
0000
0001
0000
,
1000
0100
1000
0010
,
0100
0001
1000
0001
,
2001
0000
0010
0000
0010
0000
3010
0100
,
0002
0000
1000
0000
1000
0000
1003
0001
,
0200
0000
0010
0000
0010
0000
0310
0100
,
0001
1000
0100
0010
,
0021
0000
0031
0010
,
0001
1000
1001
0100
,
1000
0010
0100
0001
,
1000
0001
2002
0000
,
0000
0000
0000
0000
,
0000
3003
0000
0000
0000
0000
0000
0000
;

//---------------dance-single - ----------------
#NOTEDATA:;
#CHARTNAME:;
#CHARTHASH:1919904879;
#STEPSTYPE:dance-single;
#BANNER:;
#DESCRIPTION:;
#CHARTSTYLE:;
#DIFFICULTY:Hard;
#METER:12;
#METERF:12.000000;
#LASTSECONDHINT:135.250000;
#RADARVALUES:0.500126,0.495475,0.210896,0.323374,0.319859,498.000000,468.000000,30.000000,46.000000,0.000000,0.000000,0.000000,0.000000,0.000000,0.500126,0.495475,0.210896,0.323374,0.319859,498.000000,468.000000,30.000000,46.000000,0.000000,0.000000,0.000000,0.000000,0.000000;
#CREDIT:;
#DISPLAYBPM:120.000000;
#NOTES:
// measure 0
0000
0000
0000
0000
,  // measure 1
0000
0000
0000
0000
0000
0000
0000
0000
0000
0000
0000
0000
0000
0000
0001
1000
,  // measure 2
0020
0000
0000
0000
0030
0000
0100
0001
1000
0000
0100
0000
0010
0000
0001
0000
,  // measure 3
0022
0000
0033
1002
0000
1003
0001
0100
,  // measure 4
0010
0000
0000
0010
1000
0000
0001
0000
0100
0000
1000
0000
0010
0000
0000
0000
,  // measure 5
0110
0000
0000
0100
0001
0000
1000
0000
0100
0000
0001
0000
1000
0000
0000
0000
,  // measure 6
0021
0000
0000
0000
0030
0001
1000
0010
0100
0000
0100
0000
0010
0000
1000
0000
,  // measure 7
2002
0000
3003
2100
0000
3010
1000
0100
,  // measure 8
1000
0000
0000
1000
0001
0000
0010
0000
0100
0000
1000
0000
0001
0000
0000
0001
,  // measure 9
1000
0100
0001
0100
0010
0001
0101
0000
,  // measure 10
1001
0000
0000
0000
0100
0000
0000
0001
1000
0000
0000
1000
0100
0010
0001
0000
,  // measure 11
0010
0000
0000
0000
0001
0000
0000
0001
1000
0000
0000
1000
0010
0100
0001
0000
,  // measure 12
0100
0000
0000
0000
0010
0000
0000
1000
0010
0000
0000
0010
0100
0001
1000
0000
,  // measure 13
0010
0000
0000
0000
1000
0000
0000
1000
0100
0000
0100
1000
0000
0001
0100
0001
,  // measure 14
0200
0000
0000
0000
0010
0000
0010
0000
0000
0320
0000
0000
1030
0000
0001
0000
,  // measure 15
0001
0000
0010
0000
1000
0000
0000
0000
0010
0000
0001
0100
0001
0000
0000
0000
,  // measure 16
2000
0001
3001
0000
2000
0010
3010
0000
,  // measure 17
1000
0000
1000
0000
0001
0000
0001
0000
0100
0001
0100
0001
0100
0000
0000
0000
,  // measure 18
1002
0000
0000
0000
1000
0000
1000
0000
0000
2003
0000
0000
3010
0000
0100
0000
,  // measure 19
0100
0000
0001
0000
0010
0000
0000
0010
0001
0000
1000
0100
1000
0000
0000
0000
,  // measure 20
0200
1000
1300
0000
2000
0001
3001
0000
,  // measure 21
0010
0000
0010
0000
0100
0000
0100
0000
1000
0001
1000
0001
0000
0000
0000
0000
,  // measure 22
1002
0000
0000
0000
0003
1000
0100
1000
0001
0000
0001
0000
1000
0000
0100
0000
,  // measure 23
1000
0000
1000
0000
0010
0000
0100
0000
0000
0100
0010
0000
1000
0000
0001
0100
,  // measure 24
0001
0000
0000
0001
0010
0000
0001
0000
1000
0000
1000
0000
0100
0000
1000
0010
,  // measure 25
1000
0000
0000
1000
0100
0000
1000
0000
0001
0000
0001
0000
0100
0001
0100
0001
,  // measure 26
0200
0000
0000
0000
0300
0001
1000
0010
0100
0000
0100
0000
0010
0000
1000
0000
,  // measure 27
0100
0000
0001
0000
0001
0000
0100
0000
0000
0100
1000
0000
0010
0000
1000
0001
,  // measure 28
1000
0000
0000
1000
0010
0000
0100
0000
0001
0000
0001
0000
1000
0000
0000
1000
,  // measure 29
0010
0100
0001
0010
0100
1000
1100
0000
,  // measure 30
0101
0000
0000
0000
0010
0000
0000
0000
1000
0000
0000
0001
0000
1000
0100
0010
,  // measure 31
0001
0000
0000
0000
1000
0000
0000
0000
0100
0000
0000
1000
0000
0001
1000
0010
,  // measure 32
0100
0000
0000
0000
0010
0000
0000
0000
0001
0000
0000
0010
0000
0100
0010
1000
,  // measure 33
0100
0000
1000
0100
0000
1000
0010
0000
0100
0001
0000
1000
0001
0000
0100
0000
,  // measure 34
0102
0000
1003
0010
0100
0001
0010
0100
,  // measure 35
1000
0100
0001
0100
1000
0010
1000
0001
,  // measure 36
0200
0010
0310
0100
0020
1000
1030
0010
,  // measure 37
2000
0001
3001
2000
0010
0010
3010
0000
,  // measure 38
2001
0000
3001
1000
0100
0010
0100
1000
,  // measure 39
0001
0010
0100
0010
0001
1000
0100
0000
,  // measure 40
2000
0100
3100
2000
0001
3001
0200
0010
,  // measure 41
0320
1000
0001
1030
,  // measure 42
2001
0000
0000
0000
0100
0000
0000
0010
0000
0010
0000
0000
3001
0000
0000
0000
,  // measure 43
1002
1000
0100
0013
,  // measure 44
0002
1000
2003
0000
3020
0100
0130
0000
,  // measure 45
1010
0000
0000
0000
0101
0000
0000
0000
1000
0001
1000
0001
2000
0000
0000
0000
,  // measure 46
3200
0000
0000
0000
0001
0000
0000
0010
0000
0010
0000
0000
1300
0000
0000
0000
,  // measure 47
1002
1000
0010
0103
,  // measure 48
0020
1000
2030
0000
3200
0010
0310
0000
,  // measure 49
0011
0000
0000
0000
1100
0000
0000
0000
1000
0001
1000
0001
0000
0000
0100
0000
,  // measure 50
1002
0000
0000
0103
0001
0000
0001
0010
0001
0000
1000
0000
0100
0000
0001
0000
,  // measure 51
2100
0000
0000
0000
0010
0000
0010
0000
0000
0000
0100
0000
3100
0000
1000
0001
,  // measure 52
0100
0000
0000
0100
0010
0000
1000
0000
0010
0000
0001
0000
0010
0000
0100
0001
,  // measure 53
0100
0000
0000
0100
0001
0000
1000
0000
0100
0000
0010
0000
0011
0000
0000
0000
,  // measure 54
1002
0000
0000
1003
0010
0000
0010
0100
0010
0000
1000
0000
0100
0000
0010
0000
,  // measure 55
1200
0000
0000
0000
0001
0000
0001
0000
0000
0000
1000
0000
1300
0000
0100
1000
,  // measure 56
0001
0000
0000
0001
0010
0000
0001
0000
1000
0000
0100
0000
0001
0000
0000
0001
,  // measure 57
0100
1000
0100
0010
0100
1000
0001
0000
,  // measure 58
1001
0000
0000
1000
0010
0000
0000
0010
1000
0000
1000
0010
0000
0010
0100
0000
,  // measure 59
0010
0000
1000
0000
0100
1000
0100
0010
,  // measure 60
1001
0000
0000
0000
0100
0000
0000
0100
0001
0000
0001
1000
0000
1000
0010
0000
,  // measure 61
0100
1000
0100
0010
0100
0001
1000
0100
,  // measure 62
0010
0000
0000
0000
0001
0000
0000
0000
1000
0000
0000
0001
0000
0001
0100
0000
0010
0000
0000
0000
1000
0000
0000
0000
0100
0000
0000
0000
0001
0000
0000
0000
,  // measure 63
0100
0000
1000
0000
1020
0000
0000
0000
0130
0000
0000
0100
0001
0000
0000
0001
,  // measure 64
1000
0000
1000
0010
0000
0010
0100
0000
0001
0000
1000
0000
0100
0000
0001
0000
,  // measure 65
1000
0010
0001
0000
2002
0000
0000
0000
,  // measure 66
0000
0000
0000
0000
,  // measure 67
0000
3003
0000
0000
0000
0000
0000
0000
;
