#TITLE:変じゃない!!;
#SUBTITLE:;
#ARTIST:good-cool ft. すわひでお;
#TITLETRANSLIT:Henjanai!!;
#SUBTITLETRANSLIT:;
#ARTISTTRANSLIT:good-cool ft. Hideo Suwa;
#GENRE:;
#CREDIT:YonabearCWY;
#BANNER:Henjanai!!.png;
#BACKGROUND:Henjanai!!-bg.png;
#LYRICSPATH:;
#CDTITLE:jubeat.png;
#MUSIC:Henjenai!!.mp3;
#OFFSET:-7.400000;
#SAMPLESTART:75.665855;
#SAMPLELENGTH:15.000000;
#SELECTABLE:YES;
#BPMS:0.000000=116.000000
;
#STOPS:
;
#BGCHANGES:4.000=lines4.mp4=1.000=1=0=1===CrossFade==,
20.000=rain1.mp4=1.000=0=0=1=====,
36.000=arrows2.mp4=1.000=0=0=1=====,
44.000=max3.mp4=1.000=0=0=1=====,
52.000=arrows2.mp4=1.000=0=0=1=====,
60.000=max3.mp4=1.000=0=0=1=====,
68.000=ring12.mp4=0.500=0=0=1=====,
76.000=rain1.mp4=1.000=0=0=1=====,
84.000=ring12.mp4=0.500=0=0=1=====,
88.000=arrows2.mp4=0.010=0=0=1=====,
88.500=lines4.mp4=0.010=0=0=1=====,
89.000=arrows2.mp4=0.010=0=0=1=====,
90.000=arrows2.mp4=1.000=0=0=1=====,
92.000=lines4.mp4=1.000=0=0=1=====,
96.000=lines4.mp4=0.010=0=0=1=====,
96.750=arrows2.mp4=0.010=0=0=1=====,
98.000=arrows2.mp4=2.000=0=0=1=====,
100.000=pills3.mp4=1.000=0=0=1=====,
116.000=light7.mp4=1.000=0=0=1=====,
132.000=cube5.mp4=1.000=0=0=1=====,
136.500=cross2.mp4=1.000=0=0=1=====,
140.000=cube5.mp4=1.000=0=0=1=====,
144.500=cross2.mp4=1.000=0=0=1=====,
148.000=cube5.mp4=1.000=0=0=1=====,
152.500=pills3.mp4=1.000=0=0=1=====,
156.000=cube5.mp4=1.000=0=0=1=====,
160.000=pills3.mp4=1.000=0=0=1=====,
164.000=kaliedoscope15.mp4=1.000=0=0=1=====,
170.000=cross2.mp4=1.000=0=0=1=====,
172.000=kaliedoscope15.mp4=1.000=0=0=1=====,
178.000=cross2.mp4=1.000=0=0=1=====,
180.000=lines4.mp4=1.000=0=0=1=====,
186.000=max3.mp4=1.000=0=0=1=====,
188.000=lines4.mp4=1.000=0=0=1=====,
193.750=max3.mp4=2.000=0=0=1=====,
195.750=Henjanai!!-bg.png=1.000=0=0=1=====,
99999=-nosongbg-=1.000=0=0=0 // don't automatically add -songbackground-
;
#KEYSOUNDS:;
#ATTACKS:;

//---------------dance-single - ----------------
#NOTES:
     dance-single:
     :
     Hard:
     12:
     0.523090,0.469310,0.331290,0.095900,0.318213,420.000000,382.000000,38.000000,11.000000,0.000000,0.000000,0.523090,0.469310,0.331290,0.095900,0.318213,420.000000,382.000000,38.000000,11.000000,0.000000,0.000000:
0000
0000
0000
0000
,
1000
0000
0010
0000
0001
0000
0000
0000
0010
0000
1000
0000
0001
0000
0100
0001
,
0100
0000
0001
0000
0010
0000
0000
0001
1000
0000
0100
0000
1001
0000
0000
0000
,
1000
0000
0100
0000
0001
0000
0000
0000
0100
0000
1000
0000
0010
0000
0100
0010
,
0100
0000
0010
0000
1000
0000
0000
1000
0100
0010
0001
0000
1010
0000
0000
0000
,
0001
0000
0100
0000
1000
0000
0000
0000
0100
0000
0010
0000
1000
0000
0001
1000
,
0001
0000
1000
0000
0100
0000
0000
1000
0100
0010
0100
0000
1001
0000
0000
0000
,
0001
0000
0010
0000
1000
0000
0000
0000
0010
0000
0001
0000
1000
0000
0100
1000
,
0100
0000
1000
0000
0010
1000
0000
0001
0100
0001
0100
0000
1010
0000
0000
0000
,
0001
0001
0101
0000
1000
1000
1010
0000
,
0010
0000
1000
0010
0000
1000
0001
0000
0100
0000
0001
0010
0001
0010
0000
0000
,
0001
0100
1000
0100
0001
0010
0010
0001
,
1000
0100
0010
0100
0001
0100
1100
1001
,
1000
0000
0010
0000
0110
0000
0000
0000
0100
0000
0001
0010
0000
0000
0001
0000
,
1000
0000
0010
0000
0100
0000
0001
0100
0000
0010
1000
0000
0101
0000
0000
0000
,
1000
1000
0101
0000
0001
0001
1010
0000
,
0110
1001
0110
0000
1000
0100
0001
1000
,
0010
0000
0001
0000
0100
0000
0001
0000
1000
0000
0010
0000
0100
0000
0010
2000
,
0000
0000
0100
0000
3100
0000
0000
0100
1000
0000
0001
0000
0101
0000
0000
0000
,
0001
0000
0010
0000
1000
0000
0010
0000
0001
0000
0100
0000
0010
0000
1000
0200
,
0000
0000
1000
0000
1300
0000
0000
1000
0010
0100
0010
0000
0101
0000
0000
0000
,
0001
0000
1000
0100
1000
0000
0010
0000
0100
0000
0001
0000
0010
0000
0000
0000
,
0011
1010
0021
0000
0100
0100
0130
0000
,
0001
0000
0010
0001
1000
0000
0100
0000
1000
0000
1000
0000
0010
0000
0100
0000
,
0101
0000
0001
1000
0000
0000
0000
0000
1100
0000
1000
0000
1001
0000
0000
0000
,
0010
0000
1000
0000
1000
0000
0100
0000
1000
0000
0010
0000
0100
0000
0001
0010
,
0000
0000
0001
0000
1000
0010
0000
0010
0100
0000
0001
0000
1000
0010
1000
0000
,
0100
0000
1000
0000
0100
0000
0001
0000
0100
0000
1000
0000
0010
0000
1000
0100
,
0000
0000
1100
0000
0000
1001
0000
0000
0110
0000
1000
0001
1000
0000
0000
0000
,
0001
0000
0100
0000
0010
0000
1000
0000
0001
0000
0010
0000
0001
0000
1000
0001
,
0000
0000
0001
0000
1000
0010
0000
0010
0001
0000
0010
0000
1000
0100
1000
0000
,
0100
0000
0010
0000
0001
0000
0010
0000
0100
0000
1000
0000
0001
1000
0001
1000
,
0000
0000
0110
0000
0000
1001
0000
0000
1100
0000
1000
0001
1000
0000
0010
0000
,
0100
0000
0001
0000
0100
0001
0000
0001
0200
0000
0000
0000
1000
0000
0000
0000
,
0310
0000
0000
0010
0000
0000
1000
0000
0001
0000
0100
0001
0000
0000
0001
0000
,
1000
0000
0010
0000
1000
0100
0000
0100
2000
0000
0000
0000
0010
0000
0000
0000
,
3100
0000
1000
0001
0000
0000
0010
0000
0011
0000
1001
0000
1000
0010
0000
0000
,
0010
0000
0100
0000
0001
0100
0000
0100
0020
0000
0000
0000
1000
0000
0000
0000
,
0130
0000
0000
0010
0000
0000
1000
0000
0001
0000
1000
0100
0000
1000
0010
0100
,
0001
0000
1000
0000
0010
0100
0000
0200
1000
0000
0000
0000
0001
0000
0000
0000
,
0310
0000
0100
0000
0010
1000
0000
1000
0001
0000
1001
0000
0100
0010
0000
0000
,
0010
0001
1000
0200
1000
1300
0100
1000
,
0010
0000
0100
0000
0101
0000
0000
0000
0002
0000
1000
0000
1003
0000
0001
0010
,
0001
0100
0010
2000
0001
3001
0100
0010
,
1000
0000
0100
0000
1100
0000
0000
1000
0100
0010
0002
0000
1000
0000
1003
0000
,
0001
0000
1000
0000
0010
1000
0000
1000
0010
0000
0100
0000
0001
0000
0010
0000
,
0001
0000
1000
0000
1100
0000
0000
0000
1000
0000
0100
0000
1000
0001
1000
0000
,
0010
0000
0100
0000
0001
0010
0000
0010
0001
0000
1000
0000
0100
0000
0001
0000
,
0100
0000
1100
0000
0101
0000
0000
0000
0100
1000
0100
1000
0001
0100
0000
1001
;

//---------------dance-single - ----------------
#NOTES:
     dance-single:
     :
     Challenge:
     14:
     0.683753,0.639968,0.418472,0.026155,0.762840,549.000000,501.000000,48.000000,3.000000,0.000000,0.000000,0.683753,0.639968,0.418472,0.026155,0.762840,549.000000,501.000000,48.000000,3.000000,0.000000,0.000000:
0000
0000
0000
0000
,
1000
0000
0010
1000
0010
1000
0000
0000
0001
0100
0001
0100
0000
0001
1000
0100
,
1000
0100
0000
0000
0010
0001
0010
1000
0010
0000
0001
0000
1001
0000
0000
0000
,
0001
0000
1000
0100
1000
0100
0000
0000
0010
0001
0010
0001
0000
1000
0010
0100
,
0010
0100
0000
0010
1000
0100
0010
0001
0100
1000
0100
0000
0001
0100
0000
0100
,
0001
0000
0100
0010
0100
0010
0000
0000
1000
0100
1000
0100
0000
0010
0001
0010
,
0001
1000
0000
0000
0001
1000
0100
1000
0001
0000
0100
0000
0110
0000
0010
1000
,
0000
0100
1000
0100
1000
0010
0000
0000
0100
0001
0100
0001
0000
1000
0001
1000
,
0001
0010
0000
0001
0100
1000
0100
0001
0010
0001
1000
0000
1001
0000
0000
0000
,
1000
0100
1000
0100
1000
0100
0000
0000
0010
0001
0010
0001
0010
0001
0000
0000
,
0001
1000
0001
0010
0000
0001
0100
1000
0100
0001
0010
0001
1000
0100
0000
0000
,
1000
0100
0010
0001
0010
0000
0100
1000
0100
0010
0100
0000
1001
0000
1000
0000
,
1000
0010
0100
0001
0010
0001
0000
0001
0010
0100
1000
0000
1001
0000
0110
0000
,
1000
0001
1000
0010
1000
0100
0000
0100
1000
0100
0010
0001
0000
0001
0100
0010
,
1000
0010
0100
0000
0001
0000
0001
1000
0000
1000
0100
0000
0010
0100
0000
0000
,
1000
0100
0001
0100
1000
1000
0000
0000
1000
0010
0001
0010
1000
1000
0001
0000
,
0101
0000
1001
0000
1010
0000
1000
0000
1000
0010
1000
0010
0100
0001
0100
0001
,
1000
0000
0010
0000
0100
0000
0001
0000
0010
0000
0001
0000
1000
0000
2000
0001
,
0000
0000
0010
0000
0010
0000
3010
1000
0000
0000
1100
0000
1000
0000
1001
0000
,
0001
0000
0100
0000
0010
0000
1000
0000
0100
0000
0001
0000
0100
0000
1000
0002
,
0000
0000
0010
0000
0013
0000
0000
0001
1000
0100
0010
0001
0010
0100
0000
0000
,
1100
0000
1000
0100
0001
0000
0100
0000
1000
0000
0010
0000
0100
0000
0001
0000
,
0011
1001
1200
0000
0010
0010
0310
0000
,
1010
0000
0010
0100
0001
0000
0010
0000
0001
0000
0001
0000
1000
0000
0010
0000
,
1010
0000
0000
0000
1000
0000
0001
0000
0000
0000
0000
0000
0000
0000
0000
0000
0001
0000
0100
0010
0100
0000
0001
0000
1000
0000
0010
0000
1000
0000
0000
0000
,
1100
0000
1000
0000
0010
0000
0100
0000
0001
0000
0100
0000
0010
1000
0010
1000
,
0000
0000
1100
0000
1000
0010
0000
0010
0100
0000
0101
0000
0001
1000
0001
0000
,
1000
0000
0010
0000
0100
0000
0001
0000
0010
0000
0001
0000
0100
0001
0100
0001
,
0000
0000
0011
0000
0001
1000
0000
1000
0100
0000
0100
0010
0001
0010
0100
0000
,
1000
0000
0010
0000
0001
0000
0010
0000
1000
0000
0100
0000
1000
0001
1000
0100
,
0000
0000
1010
0000
1000
0100
0000
0100
0001
0000
0100
0000
1000
0010
1000
0000
,
0010
0000
0100
0000
0001
0000
0010
0000
1000
0000
0010
0000
0001
0010
0001
1000
,
0000
0000
1001
0000
0001
0100
0000
0100
0010
0000
0010
1000
0010
1000
0001
0100
,
0001
0000
1001
0000
0010
0010
0000
0000
1000
0010
0001
0010
1000
0000
1001
0000
,
0000
0000
1000
0000
0001
0010
1000
0010
0001
0000
0010
0010
0000
0001
0100
0010
,
1000
0000
1001
0000
0100
0100
0000
0000
1000
0100
0001
0100
1000
0000
1001
0000
,
0010
0000
0100
0000
0001
0100
1000
0100
0001
0000
1001
0000
0110
0110
0000
0000
,
0110
0000
0001
0000
1000
1000
0000
0000
0001
0010
1000
0010
0001
0000
0110
0000
,
0000
0000
0010
0000
1000
0010
0001
0010
1000
0000
0001
0001
0000
1000
0010
0100
,
0001
0000
0110
0000
0001
0001
0000
0000
0001
0100
1000
0100
0001
0000
0110
0000
,
1000
0100
0001
0100
1000
0100
0010
0100
1000
0000
0110
0000
1001
1001
0000
0000
,
1000
0000
0010
0000
0100
0000
0001
0100
1000
0000
0101
0000
0001
0000
1001
0000
,
1000
0010
1000
0000
0001
0100
0001
0000
1000
0100
0010
0001
0010
0000
0100
1000
,
0001
0000
0010
0000
0001
0000
1000
0010
0001
0000
1010
0000
1000
0000
1001
0000
,
0001
0000
0100
0000
0110
0000
0000
0010
1000
0100
0001
0000
1100
0000
1000
0000
,
1001
0000
0001
0000
0100
0010
0000
0010
1000
0000
0100
0000
0001
0000
0100
0000
,
1000
0000
0010
1000
0000
0000
0001
0000
1000
0100
0010
0001
0010
0000
0001
0000
,
1001
0000
1000
0000
0010
1000
0000
1000
0100
0000
0010
0000
0100
0000
1000
0000
,
0001
0000
1001
0000
0011
0000
0001
0000
0001
1000
0010
1000
0100
0100
0000
1001
;

//---------------dance-single - ----------------
#NOTES:
     dance-single:
     :
     Medium:
     8:
     0.386090,0.405313,0.278981,0.034873,0.026155,310.000000,278.000000,32.000000,4.000000,0.000000,0.000000,0.386090,0.405313,0.278981,0.034873,0.026155,310.000000,278.000000,32.000000,4.000000,0.000000,0.000000:
0000
0000
0000
0000
,
1000
0000
0010
0000
1000
0100
0001
0000
,
0100
1000
0010
0100
0001
0001
1001
0000
,
0001
0000
0100
0000
0001
0010
1000
0000
,
0010
0001
0100
0000
0010
1000
1001
0000
,
1000
0000
0001
0000
1000
0001
0010
0000
,
0001
1000
0100
0001
0100
0100
0110
0000
,
0100
0000
1000
0000
0001
1000
0010
0000
,
0100
0001
0010
1000
0010
0001
0101
0000
,
0001
0011
1000
1010
,
0010
0100
0010
1000
0100
0010
0001
0000
,
0100
0101
0010
1010
,
0010
0100
0010
0000
1000
0100
1000
1001
,
0001
0000
0100
0000
0001
0010
1000
0001
,
0100
0000
1000
0000
0010
1000
1001
0000
,
1000
1010
0100
0101
,
0001
1000
0001
0000
1000
1000
0010
0010
,
2000
0000
0100
0000
0001
0000
3100
1000
,
0000
1000
0010
0000
0010
0100
0101
0000
,
0002
0000
1000
0000
0010
0000
0103
0001
,
0000
0001
1000
0000
0010
1000
1100
1000
,
0001
0000
0001
0000
0001
0100
0010
0000
,
1010
1001
1010
0000
0010
0010
0010
0000
,
0100
0001
0100
0010
1000
0010
1000
0001
,
0101
0000
0000
1001
0000
0000
0000
0000
2000
0000
0000
0000
3002
0000
0000
0000
,
0013
0001
0010
0000
0001
0100
0001
0000
,
1000
0100
0001
0100
1000
0010
0100
0000
,
0010
1000
0010
0000
0100
0001
0100
0000
,
0001
0000
1000
0000
0000
0010
0000
0000
1000
0000
0000
0000
1001
0000
0000
0000
,
1000
0010
0100
0000
0010
0100
0001
0000
,
0001
0010
1000
0001
0100
0010
0001
0000
,
1000
0000
0001
0000
1000
0000
0000
0000
0001
0000
0100
0000
0001
0000
0001
1000
,
0000
0000
1010
0000
0000
1001
0000
0000
0110
0000
0000
0000
1000
0000
0000
0000
,
0001
0000
0010
0000
0001
0010
1000
0000
,
0011
0000
1000
0000
0010
0000
0100
0001
,
1000
0000
1010
0000
0010
0100
0001
1000
,
0100
0000
1000
0010
0100
0100
1001
0000
,
0110
0000
0010
0000
1000
0100
0001
0000
,
1000
0000
0010
0000
0100
0001
0011
0000
,
0001
0000
0100
0000
0001
0010
1000
0000
,
1000
0010
0001
0100
0001
0001
1001
0000
,
1000
0100
0010
0000
0010
0100
1000
0000
,
0010
0000
0100
0000
0001
0100
0010
1000
,
0001
0100
0010
0000
0010
0100
0001
0000
,
0010
0000
0001
0000
1000
0100
0010
0100
,
1000
0100
0001
0000
0001
0100
1000
0000
,
0010
0000
0100
0000
0001
0010
0100
1000
,
0001
0010
1000
0000
1000
0010
0001
0000
,
0100
0000
0101
0000
1001
0000
0000
0000
0010
0000
0010
0000
0010
1000
0000
1001
;

//---------------dance-single - ----------------
#NOTES:
     dance-single:
     :
     Easy:
     5:
     0.251581,0.255987,0.209236,0.278981,0.004359,202.000000,178.000000,24.000000,32.000000,0.000000,0.000000,0.251581,0.255987,0.209236,0.278981,0.004359,202.000000,178.000000,24.000000,32.000000,0.000000,0.000000:
0000
0000
0000
0000
,
1000
1000
1000
0000
,
0010
0010
0010
1001
,
0100
0100
0100
0000
,
0001
0001
0001
1010
,
0001
0001
0100
0000
,
0010
0010
1000
1001
,
0100
0100
0001
0000
,
0010
0010
0001
1001
,
1000
0010
1000
0001
,
0100
0001
0010
1001
,
0100
0001
0100
1000
,
0100
0010
1000
1001
,
1000
0100
0010
0001
,
0010
0100
1000
1100
,
1000
0101
0001
1010
,
2000
3001
0020
0031
,
0002
1000
0000
1003
,
2000
0010
3010
1001
,
0200
0001
0000
0301
,
0002
0010
0013
1001
,
1000
0010
0100
0001
,
2000
0000
0000
0000
3010
1000
0010
0000
,
0100
0001
0010
0001
,
1002
0000
2003
3020
,
0130
0010
1000
0010
,
0200
0001
0301
1001
,
0001
0010
0100
1000
,
0020
1000
1030
1001
,
0001
0100
0010
1000
,
0002
1000
1003
1010
,
0010
0100
0001
0010
,
0002
0000
2003
3010
,
1002
0000
2003
3200
,
1300
0100
2002
3003
,
0210
0000
0302
0023
,
0032
0000
1003
1001
,
0120
0000
2030
3020
,
0130
0001
2002
3003
,
1020
0000
0230
0302
,
1003
1000
0001
0001
,
0100
0010
1000
0100
,
0001
0100
1000
0010
,
0100
0001
0010
1000
,
0010
0001
0100
1001
,
0010
1000
0010
0100
,
0001
0100
0010
1000
,
0100
0001
1000
0010
,
0001
0000
0000
0000
0100
0000
0000
0000
0001
0000
0000
0000
1000
0000
0000
1001
;

//---------------dance-single - ----------------
#NOTES:
     dance-single:
     :
     Beginner:
     1:
     0.107109,0.149326,0.017436,0.000000,0.004359,86.000000,84.000000,2.000000,0.000000,0.000000,0.000000,0.107109,0.149326,0.017436,0.000000,0.004359,86.000000,84.000000,2.000000,0.000000,0.000000,0.000000:
// measure 0
0000
0000
0000
0000
,  // measure 1
1000
0000
1000
0000
,  // measure 2
1000
0000
0000
0000
,  // measure 3
0001
0000
0001
0000
,  // measure 4
0001
0000
0000
0000
,  // measure 5
0010
0000
0010
0000
,  // measure 6
0010
0000
0000
0000
,  // measure 7
0100
0000
0100
0000
,  // measure 8
0100
0000
0000
0000
,  // measure 9
1000
0000
0100
0000
,  // measure 10
0010
0000
0001
0000
,  // measure 11
1000
0000
0001
0000
,  // measure 12
1000
0000
0000
0000
,  // measure 13
0001
0000
0010
0000
,  // measure 14
0001
0000
0000
0000
,  // measure 15
1000
0000
1000
0000
,  // measure 16
0010
0000
0010
0010
,  // measure 17
0010
0000
0000
0000
,  // measure 18
0100
0000
0000
0000
,  // measure 19
0001
0000
0000
0000
,  // measure 20
0010
0000
0000
0000
,  // measure 21
1000
0000
0000
0000
,  // measure 22
0001
0000
0100
0010
,  // measure 23
0001
0000
1000
0000
,  // measure 24
1001
0000
0000
0000
,  // measure 25
0010
0000
0010
0000
,  // measure 26
0010
0000
0000
0000
,  // measure 27
0100
0000
0100
0000
,  // measure 28
0100
0000
0000
0000
,  // measure 29
0001
0000
0001
0000
,  // measure 30
0001
0000
0000
0000
,  // measure 31
1000
0000
1000
0000
,  // measure 32
1000
0000
0000
0000
,  // measure 33
1000
1000
1000
0000
,  // measure 34
1000
1000
1000
0000
,  // measure 35
0010
0010
0010
0000
,  // measure 36
0010
0010
0010
0000
,  // measure 37
0100
0100
0100
0000
,  // measure 38
0100
0100
0100
0000
,  // measure 39
0001
0001
0001
0000
,  // measure 40
0001
0001
0001
0000
,  // measure 41
0001
0000
0000
0000
,  // measure 42
0100
0000
0000
0000
,  // measure 43
0010
0000
0000
0000
,  // measure 44
1000
0000
0000
0000
,  // measure 45
0100
0000
0000
0000
,  // measure 46
1000
0000
0000
0000
,  // measure 47
0010
0000
0000
0000
,  // measure 48
0100
0000
0000
0000
0000
0000
0000
0000
0001
0000
0000
0000
0000
0000
0000
1001
;
