#VERSION:0.83;
#TITLE:HYPNOTICA;
#SUBTITLE:;
#ARTIST:NAOKI MAEDA;
#TITLETRANSLIT:;
#SUBTITLETRANSLIT:;
#ARTISTTRANSLIT:;
#GENRE:;
#ORIGIN:;
#TAGS:;
#CREDIT:;
#BANNER:HYPNOTICA.png;
#BACKGROUND:HYPNOTICA-bg.png;
#PREVIEWVID:;
#JACKET:HYPNOTICA-jacket.png;
#CDIMAGE:;
#DISCIMAGE:;
#LYRICSPATH:;
#CDTITLE:GUITAR FREAKS & drummania.png;
#MUSIC:HYPNOTICA.ogg;
#OFFSET:-0.100000;
#SAMPLESTART:7.210000;
#SAMPLELENGTH:15.000000;
#SELECTABLE:YES;
#BPMS:0.000000=135.000000;
#STOPS:39.000000=0.220000,
78.000000=0.460000,
85.000000=0.440000,
100.500000=0.220000,
168.000000=0.220000,
171.500000=0.220000,
175.000000=0.220000;
#DELAYS:;
#WARPS:;
#TIMESIGNATURES:0.000000=4=4;
#TICKCOUNTS:0.000000=4;
#COMBOS:0.000000=1;
#SPEEDS:0.000000=1.000000=0.000000=0;
#SCROLLS:0.000000=1.000000;
#FAKES:;
#LABELS:0.000000=Song Start;
#BGCHANGES:0.500=HYPNOTICA.mp4=1.000=1=0=0=StretchNoLoop==CrossFade==,
178.500=HYPNOTICA-bg.png=1.000=1=0=1===CrossFade==,
99999=-nosongbg-=1.000=0=0=0 // don't automatically add -songbackground-
;
#KEYSOUNDS:;
#ATTACKS:
;

//---------------dance-single - ----------------
#NOTEDATA:;
#CHARTNAME:;
#STEPSTYPE:dance-single;
#BANNER:;
#DESCRIPTION:;
#CHARTSTYLE:;
#DIFFICULTY:Challenge;
#METER:15;
#METERF:0.000000;
#RADARVALUES:0.721344,0.757110,0.120511,0.096409,0.939986,419.000000,409.000000,10.000000,8.000000,0.000000,0.000000,0.000000,0.000000,0.000000,0.721344,0.757110,0.120511,0.096409,0.939986,419.000000,409.000000,10.000000,8.000000,0.000000,0.000000,0.000000,0.000000,0.000000;
#CREDIT:;
#NOTES:
0000
0000
0000
0000
,
0000
0000
0000
0000
,
0000
0000
0000
0000
,
0000
0000
0000
0000
,
1000
0000
0100
0000
0010
0000
0001
0010
0000
0010
0001
0000
0100
0000
0001
0000
,
1000
0001
0000
0001
1000
0000
1000
0010
0000
0100
0000
0010
1000
0000
0100
0000
,
1000
0000
0010
0000
0100
0000
0001
0100
0000
0100
0001
0000
1000
0000
0100
0000
,
1000
0010
0000
0010
0100
0000
0100
0001
0000
0010
0000
0001
0100
0000
0001
0000
,
0010
0000
0001
0000
1000
0000
0100
1000
0000
1000
0100
0000
1000
0000
0010
0000
,
0100
0000
0100
0000
0001
0000
0000
0001
0000
0001
0000
1000
0002
0000
0103
0000
,
0010
0000
0000
0000
0010
1000
0010
0000
1000
0000
0000
0000
1000
0001
1000
0000
,
0001
0000
0000
0000
0001
0000
0010
0000
0100
0000
1100
0000
1000
0100
0010
0000
,
0001
0000
0000
0000
0001
0100
0010
0000
0100
0010
0000
0010
1000
0010
1000
0000
,
0001
1000
0000
1000
0001
0000
0101
0000
0000
0000
1010
0000
0000
0000
0100
0000
,
0010
0000
0000
0000
0100
0001
0100
0000
0001
0010
0000
0001
1000
0100
1000
0000
,
0100
0000
0001
0000
0000
0000
0001
0000
0100
0000
1000
0000
0010
1000
0010
0000
,
1000
0100
0000
0000
1000
0001
0100
0000
0001
0010
0000
0001
0100
0010
1000
0010
,
0000
0010
1000
0000
0001
0000
0100
0000
0001
0000
1001
0000
0000
0000
0100
0000
,
0100
0000
0100
0000
0000
1000
0000
1000
0010
0000
1000
0000
0001
0000
0010
0000
,
0010
0000
0010
0000
0000
0001
0000
0001
0200
0000
0310
0000
0010
0000
0010
0000
,
0000
1000
0000
1000
0001
0000
0010
0001
0010
0000
0001
0000
0001
0000
0001
0000
,
0100
0001
0000
0001
2000
0000
3100
0000
1000
0000
0100
0000
1000
0001
0000
0001
,
0010
0000
0001
0000
0100
0000
0010
1000
0000
1000
0100
0000
0100
1000
0000
0100
,
0000
1000
0100
0000
1001
0000
0001
0000
0010
0000
0001
0000
0100
0001
0000
0001
,
0010
0000
0001
0000
1000
0000
0100
1000
0100
0000
1000
0010
1000
0001
0000
0010
,
0000
0001
2000
0000
3100
0000
1000
0000
0000
0000
1000
0010
1000
0000
0001
0100
,
0000
0001
0010
0001
0010
0000
0001
1000
0100
0000
1000
0000
0100
1000
0100
1000
,
0010
0100
0010
0100
0001
0000
0010
0000
0000
0000
0001
1000
0100
0000
0100
1000
,
0000
1000
0010
0100
0001
0000
1000
0100
0001
0100
1000
0000
1100
0000
0000
0000
,
1001
0000
0000
0000
0001
0000
0100
0000
0000
0000
0001
1000
0010
0000
0010
0100
,
0000
0100
0001
1000
0010
0000
1000
0100
1000
0000
0001
0100
0001
0000
1000
0100
,
0001
0100
1000
0100
0010
0000
0001
0000
0000
0000
0010
0001
0010
0000
0001
0100
,
0000
0001
0000
1000
0001
0000
1000
0000
0000
0000
0100
0000
1000
0100
1000
0000
,
0001
0010
0001
0000
1000
0010
1000
0001
0100
0001
0100
0000
0001
0010
0001
0010
,
0000
0001
0000
1000
0001
0000
1000
0001
1000
0100
1000
0000
0100
1000
0000
0100
,
0000
1000
0100
0010
0001
0000
0010
0001
0010
0001
0100
0000
0001
1000
0000
0100
,
0000
1000
0010
1000
0000
0000
0100
0000
1000
0001
1000
0000
0001
0010
0001
0000
,
0100
0010
0100
0000
0010
1000
0010
1000
0001
0100
0001
0000
1000
0100
1000
0010
,
0000
0100
0001
0010
0000
0001
0100
0000
0100
0010
0000
1000
0001
1000
0000
0100
,
0000
1000
0100
1000
0001
0000
0100
0000
0001
0100
0000
0000
0100
0010
0000
0100
,
0000
0010
1000
0100
0010
0000
0001
0000
0010
0001
0000
1000
0001
1000
0000
0001
,
1000
0100
1000
0100
1000
0100
0000
0100
1000
0000
1000
0010
0000
0010
1000
0000
,
1200
0000
1300
0001
1000
0001
1000
0000
0001
0010
0000
0010
0001
0000
0102
0000
,
0103
0010
0100
0010
0100
0000
0010
1000
0010
1000
0010
0000
1002
0000
1003
0100
,
0001
0100
1000
0000
0001
0010
1000
0010
0001
0000
0200
0000
0000
0000
0300
0000
;

//---------------dance-single - ----------------
#NOTEDATA:;
#CHARTNAME:;
#STEPSTYPE:dance-single;
#BANNER:;
#DESCRIPTION:;
#CHARTSTYLE:;
#DIFFICULTY:Hard;
#METER:12;
#METERF:0.000000;
#RADARVALUES:0.552629,0.648952,0.072307,0.265124,0.482044,321.000000,315.000000,6.000000,22.000000,0.000000,0.000000,0.000000,0.000000,0.000000,0.552629,0.648952,0.072307,0.265124,0.482044,321.000000,315.000000,6.000000,22.000000,0.000000,0.000000,0.000000,0.000000,0.000000;
#CREDIT:;
#NOTES:
0000
0000
0000
0000
,
0000
0000
0000
0000
,
0000
0000
0000
0000
,
0000
0000
0000
0000
,
1000
0100
0000
0000
0001
0100
0000
0000
1000
0000
0010
0000
0100
0000
0001
0000
,
0100
0000
0000
0001
0000
0000
1000
0000
0000
0100
0000
0100
1000
0000
0001
0000
,
0010
0001
0000
0000
0010
1000
0000
0000
0001
0000
0100
0000
1000
0000
0100
0000
,
0010
0000
0000
0100
0000
0000
0001
0000
0000
1000
0000
1000
0001
0000
0100
0000
,
0001
0010
0000
0000
1000
0010
0000
0000
0010
0000
0001
0000
0100
0000
0010
0000
,
1000
0000
0100
0000
0001
0000
0000
0100
0000
0100
0000
1000
0002
0000
0013
0000
,
0002
0000
0000
0103
0002
0000
1003
0100
,
1000
0000
0100
1000
0100
0001
0100
1000
,
0020
0000
0000
1030
0020
0000
0130
0010
,
0100
0000
0001
1000
0000
1000
0001
0000
0000
0000
0110
0000
0000
0000
0010
0000
,
2000
0000
0000
0000
0010
0000
3010
0000
0000
1000
0000
0001
1000
0100
0010
0000
,
0001
0000
0000
0010
0000
0000
0001
0000
0100
0000
1000
0000
0100
0000
0010
0000
,
0200
0000
0000
0000
0010
0000
0310
0000
0000
0100
0000
0001
1000
0100
1000
0000
,
0010
0000
0000
0000
1000
0000
0001
0100
0001
0000
1000
0010
1000
0000
0100
0000
,
0100
0000
0100
0000
0000
1000
0000
0000
0010
0000
1010
0000
0000
0000
0001
0000
,
0001
0000
0001
0000
1000
0002
0000
0000
0000
0000
0103
0000
0100
0000
0100
0000
,
0000
0001
0000
0000
0010
0000
0011
0000
0000
0000
0001
0000
0001
0000
0001
0000
,
0001
1000
0200
0000
0000
0000
1300
0100
0000
0000
0001
0100
0000
0000
1000
0000
,
0100
0000
0001
0000
0100
0000
0010
0001
0000
0010
0001
0000
1000
0001
0000
0100
,
0000
0001
1000
0000
0010
0000
1000
0010
0000
0000
0001
0010
0000
0000
0010
0000
,
0100
0000
1000
0000
0100
0000
0001
0000
0100
0000
0010
0000
0000
0100
0000
0100
,
0000
0001
2000
0000
3100
0000
2000
0000
0000
0000
0000
0000
3100
0000
2000
0000
,
0000
0010
3010
0000
1000
0000
0100
0001
,
0100
1000
0010
0200
0000
0000
0310
0200
,
0000
0000
0010
0000
0310
0000
0000
0000
0100
0000
0001
1000
0001
0000
0000
0000
,
0110
0000
0000
0000
1000
0000
0002
0000
0000
0000
1000
0000
1003
0000
0000
0001
,
0000
1000
0100
0010
0002
0000
0100
0000
0203
0000
0000
0000
0010
0000
0310
0000
,
1000
0000
0100
0000
1000
0000
0020
0000
0000
0000
1000
0000
1030
0000
0000
0010
,
0000
1000
0001
0100
0010
0000
0010
0000
0000
0000
0100
0000
0001
0000
1000
0000
,
1001
0000
0000
0000
0001
0010
0001
0000
0100
0000
1000
0000
0100
0000
0001
0000
,
0010
0000
0001
0000
1000
0100
1000
0000
0010
0000
0100
0000
0001
0000
0010
0000
,
0010
0000
0000
0000
0001
1000
0100
0000
1000
0000
0010
0000
1000
0000
1000
0000
,
0001
0000
0100
0000
0010
0100
1000
0000
0100
0000
0001
0000
0100
0001
0100
0000
,
1001
0000
0000
0000
1000
0100
1000
0100
1000
0000
0010
0000
0100
0000
0100
0000
,
1000
0000
0100
0000
0001
0010
0001
0010
0001
0000
0100
0000
0001
0000
0001
0000
,
1000
0000
0100
0000
0000
0000
1000
0000
1000
0010
0000
1000
0001
0000
0000
0100
,
0000
0000
0001
0000
0010
0000
0001
0000
1000
0001
0000
0100
0001
0000
0000
0010
,
0000
0000
0001
0000
1000
0100
0000
1000
0100
0000
1000
0100
0000
1000
0200
0000
,
0000
0000
1300
0001
0000
1000
0001
0000
1000
0001
0000
1000
0002
0000
0000
0000
,
0013
0001
0010
0001
0010
0000
0001
0010
0001
0010
0002
0000
0000
0000
1003
0001
,
1000
0001
1000
0000
0001
1000
0001
1000
0001
0000
0200
0000
0000
0000
0300
0000
;

//---------------dance-single - ----------------
#NOTEDATA:;
#CHARTNAME:;
#STEPSTYPE:dance-single;
#BANNER:;
#DESCRIPTION:;
#CHARTSTYLE:;
#DIFFICULTY:Medium;
#METER:8;
#METERF:0.000000;
#RADARVALUES:0.409737,0.432634,0.156664,0.192818,0.012051,238.000000,225.000000,13.000000,16.000000,0.000000,0.000000,0.000000,0.000000,0.000000,0.409737,0.432634,0.156664,0.192818,0.012051,238.000000,225.000000,13.000000,16.000000,0.000000,0.000000,0.000000,0.000000,0.000000;
#CREDIT:;
#NOTES:
0000
0000
0000
0000
,
0000
0000
0000
0000
,
0000
0000
0000
0000
,
0000
0000
0000
0000
,
1000
1000
0000
0010
1000
0000
0100
1000
,
0001
0000
0010
0001
0000
0001
0100
0010
,
1000
1000
0000
0001
1000
0000
1000
0100
,
0001
0000
0100
0100
0000
1000
0010
0100
,
0001
0001
0000
0010
0001
0000
0100
0001
,
1000
0000
1001
0000
0010
0010
1001
0100
,
1000
3000
0000
0100
1000
0000
0100
1000
,
0010
0000
0100
0010
0000
0100
0000
0001
,
0010
0000
0000
0001
0010
0000
0001
1000
,
0010
0000
1000
1001
0000
0110
0000
1000
,
0001
0000
0000
1000
0001
0000
1000
0001
,
0100
0000
0010
0010
1000
0100
1000
0001
,
0010
0000
0000
0001
0010
0000
0001
1000
,
1000
0000
1000
0010
0010
1000
0000
0200
,
0000
0001
0000
1000
1000
1300
0000
1000
,
0000
0010
0000
2002
3003
0020
0000
0001
,
0000
0100
0100
0130
0000
0001
0100
0010
,
1000
2002
3003
1000
1000
0000
0001
0100
,
0000
0000
0001
0000
1000
0000
0010
0000
0000
0100
0000
0000
0001
0000
0000
0010
,
0000
0001
0100
0001
0001
0000
1000
0010
,
0000
1000
0100
0001
0000
0100
0000
1000
,
1000
1001
0001
0010
0000
0000
0001
0010
,
0000
0001
1000
0100
0000
1000
0100
0100
,
1000
0010
0100
0010
0000
0000
0100
0010
,
0000
0100
0001
0010
0000
0001
0011
0000
,
1100
0000
1000
0010
0000
0000
1000
0010
,
0000
1000
0001
0100
0100
0001
0010
0010
,
0001
1000
0100
1000
0000
0000
0100
1000
,
0000
0100
1000
0001
0001
1000
0010
0010
,
0110
0200
0001
0010
,
0301
0001
0200
0000
1000
0000
0310
0010
,
2010
3200
1000
0001
,
1300
1000
0200
0000
0001
0000
1300
1000
,
1001
0000
0001
0010
0001
0100
0010
1000
,
0100
1000
0001
0001
0000
1000
0001
0001
,
0100
0010
1000
0100
0001
0100
1000
0010
,
1000
0100
0010
0010
0000
0001
0010
0010
,
0001
0100
0002
0000
0000
0100
0000
0000
,
0000
2003
0000
0000
0100
0000
0000
0000
,
3200
0000
0000
0001
0000
0000
0000
1300
,
0000
0000
1002
0000
0000
0203
0000
0300
;

//---------------dance-single - ----------------
#NOTEDATA:;
#CHARTNAME:;
#STEPSTYPE:dance-single;
#BANNER:;
#DESCRIPTION:;
#CHARTSTYLE:;
#DIFFICULTY:Easy;
#METER:5;
#METERF:0.000000;
#RADARVALUES:0.263403,0.297436,0.228971,0.156664,0.000000,153.000000,134.000000,19.000000,13.000000,0.000000,0.000000,0.000000,0.000000,0.000000,0.263403,0.297436,0.228971,0.156664,0.000000,153.000000,134.000000,19.000000,13.000000,0.000000,0.000000,0.000000,0.000000,0.000000;
#CREDIT:;
#NOTES:
0000
0000
0000
0000
,
0000
0000
0000
0000
,
0000
0000
0000
0000
,
0000
0000
0000
0000
,
1000
0100
1000
0010
,
0100
0100
0001
0001
,
0010
0001
0010
0100
,
0010
0010
0001
0001
,
1000
0100
0010
0100
,
2000
0000
0000
0000
0000
0000
3000
0100
,
0000
0000
0000
0100
0000
0000
0000
0100
,
0000
1001
0000
0010
0000
1001
0000
0100
,
0000
0000
0000
0100
0000
0000
0000
0100
,
0000
0010
0000
1010
0000
0101
0000
0001
,
0000
0000
0000
0001
0000
0000
0000
0001
,
0000
1010
0000
0100
0000
0101
0000
0001
,
0000
0000
0000
0001
0000
0000
0000
0001
,
0000
1000
0000
0100
0000
0001
0000
0200
,
0000
1000
0000
1300
0000
1001
0000
0020
,
0000
0001
0000
0031
0000
0002
0000
1000
,
0000
1003
0000
0110
0000
0020
0000
0100
,
0000
0130
0000
0100
0000
0001
0000
0100
,
0000
0010
0000
1000
0000
0100
0000
0001
,
0000
0100
0000
1000
0000
0010
0000
1000
,
0000
0001
0000
0200
0000
0000
0000
0000
,
0000
0300
0310
0000
0000
0000
0010
0000
,
0000
0010
1010
0010
,
0011
0100
0000
0100
,
0000
0100
0101
1001
,
1010
1000
0000
1000
,
0000
1000
1001
0001
,
0101
0100
0000
0100
,
0000
0100
0010
1000
,
0010
0001
0010
1000
,
0100
0010
0001
0010
,
0100
1000
0001
1000
,
0001
0100
0001
0100
,
0001
0010
0001
0010
,
0100
0010
0100
1000
,
0100
1000
0100
0001
,
0100
0001
0100
1000
,
1001
0220
0000
0000
,
0330
2002
0000
0000
0000
0000
0000
3003
,
0220
0000
0000
0000
0000
0000
0330
0001
,
0000
0000
1000
0000
0000
0200
0000
0300
,
0300
0000
0000
0000
;

//---------------dance-single - ----------------
#NOTEDATA:;
#CHARTNAME:;
#STEPSTYPE:dance-single;
#BANNER:;
#DESCRIPTION:;
#CHARTSTYLE:;
#DIFFICULTY:Beginner;
#METER:1;
#METERF:0.000000;
#RADARVALUES:0.106738,0.162238,0.072307,0.012051,0.000000,62.000000,56.000000,6.000000,1.000000,0.000000,0.000000,0.000000,0.000000,0.000000,0.106738,0.162238,0.072307,0.012051,0.000000,62.000000,56.000000,6.000000,1.000000,0.000000,0.000000,0.000000,0.000000,0.000000;
#CREDIT:;
#NOTES:
// measure 0
0000
0000
0000
0000
,  // measure 1
0000
0000
0000
0000
,  // measure 2
0000
0000
0000
0000
,  // measure 3
0000
0000
0000
0000
,  // measure 4
1000
0000
1000
0000
,  // measure 5
1000
0000
0000
0000
,  // measure 6
0010
0000
0010
0000
,  // measure 7
0010
0000
0000
0000
,  // measure 8
0100
0000
0100
0000
,  // measure 9
0100
0000
0000
0000
0000
0000
0000
0100
,  // measure 10
0000
0000
0000
0100
0000
0000
0000
0100
,  // measure 11
0000
0000
0000
0000
0000
0000
0000
0010
,  // measure 12
0000
0000
0000
0010
0000
0000
0000
0010
,  // measure 13
0000
0000
0000
0000
0000
0000
0000
1000
,  // measure 14
0000
0000
0000
1000
0000
0000
0000
1000
,  // measure 15
0000
0000
0000
0000
0000
0000
0000
0001
,  // measure 16
0000
0000
0000
0001
0000
0000
0000
0001
,  // measure 17
0000
0000
0000
0000
0000
0000
0000
1001
,  // measure 18
0000
0000
0000
0000
0000
0000
0000
0010
,  // measure 19
0000
0000
0000
0000
0000
0110
0000
0000
,  // measure 20
0000
0000
0000
0000
0000
0100
0000
0000
,  // measure 21
0000
0000
0000
0001
0000
0000
0000
0001
,  // measure 22
0000
0000
0000
0001
0000
0000
0000
0000
,  // measure 23
0000
1000
0000
0000
0000
1000
0000
0000
,  // measure 24
0000
1000
0000
0000
0000
0000
0000
0000
,  // measure 25
0000
0100
0000
0100
,  // measure 26
0000
0100
0000
0000
,  // measure 27
0000
1000
0000
1000
,  // measure 28
0000
1000
0000
0000
,  // measure 29
0000
0010
0000
0010
,  // measure 30
0000
0010
0000
0000
,  // measure 31
0000
0100
0000
0100
,  // measure 32
0000
0100
0000
0000
,  // measure 33
0000
0001
0000
0000
,  // measure 34
0000
0100
0000
0000
,  // measure 35
0000
0010
0000
0000
,  // measure 36
0000
1000
0000
0000
,  // measure 37
0000
0100
0000
0000
,  // measure 38
0000
1000
0000
0000
,  // measure 39
0000
0100
0000
0000
,  // measure 40
0000
1000
0000
0000
,  // measure 41
0000
1001
0000
0000
,  // measure 42
0000
0110
0000
0000
0000
0000
0000
0000
,  // measure 43
1001
0000
0000
0000
0000
0000
0000
0110
,  // measure 44
0000
0000
0000
0000
0000
0200
0000
0300
;
