#VERSION:0.83;
#TITLE:HOT SAKE DUDE;
#SUBTITLE:;
#ARTIST:MACHOMAN;
#TITLETRANSLIT:;
#SUBTITLETRANSLIT:;
#ARTISTTRANSLIT:;
#GENRE:;
#ORIGIN:;
#TAGS:;
#CREDIT:;
#BANNER:Hot Sake Dude.png;
#BACKGROUND:Hot Sake Dude-bg.png;
#PREVIEWVID:;
#JACKET:Hot Sake Dude-jacket.png;
#CDIMAGE:;
#DISCIMAGE:;
#LYRICSPATH:;
#CDTITLE:cdtitle.png;
#MUSIC:Hot Sake Dude.ogg;
#OFFSET:-5.600000;
#SAMPLESTART:50.180000;
#SAMPLELENGTH:15.000000;
#SELECTABLE:YES;
#BPMS:0.000000=134.000000
;
#STOPS:;
#DELAYS:;
#WARPS:;
#TIMESIGNATURES:0.000000=4=4
;
#TICKCOUNTS:0.000000=4
;
#COMBOS:0.000000=1
;
#SPEEDS:0.000000=1.000000=0.000000=0
;
#SCROLLS:0.000000=1.000000
;
#LABELS:0.000000=Song Start
;
#BGCHANGES:4.000=heart14.mp4=0.900=1=0=1===CrossFade==,
12.000=heart7.mp4=1.000=0=0=1=====,
20.000=heart14.mp4=0.900=0=0=1=====,
28.000=heart7.mp4=1.000=0=0=1=====,
32.000=ring13.mp4=1.000=0=0=1=====,
36.000=circle4.mp4=1.000=0=0=1=====,
44.000=circle8.mp4=1.000=0=0=1=====,
52.000=circle4.mp4=1.000=0=0=1=====,
60.000=circle8.mp4=1.000=0=0=1=====,
68.000=ring12a.mp4=0.700=0=0=1=====,
76.000=colors3.mp4=1.000=0=0=1=====,
84.000=heart1.mp4=1.000=0=0=1=====,
92.000=colors3.mp4=1.000=0=0=1=====,
95.500=ring12a.mp4=0.700=0=0=1=====,
97.000=ring12a.mp4=0.400=0=0=1=====,
100.000=heart14.mp4=0.900=0=1=1=StretchRewind====,
108.000=heart7.mp4=1.000=0=0=1=====,
116.000=heart14.mp4=0.900=0=0=1=====,
124.000=heart7.mp4=1.000=0=0=1=====,
132.000=ring13.mp4=1.000=0=1=1=StretchRewind====,
140.000=colors3.mp4=1.000=0=1=1=StretchRewind====,
148.000=circle4.mp4=1.000=0=0=1=====,
156.000=circle8.mp4=1.000=0=0=1=====,
164.000=spiral2.mp4=1.000=0=0=1=====,
172.000=square5.mp4=1.200=0=0=1=====,
180.000=spiral2.mp4=1.000=0=0=1=====,
188.000=square5.mp4=1.200=0=0=1=====,
192.000=ring13.mp4=1.000=0=1=1=StretchRewind====,
196.000=heart14.mp4=0.900=0=1=1=StretchRewind====,
204.000=heart7.mp4=1.000=0=0=1=====,
208.000=Hot Sake Dude-bg.png=1.000=0=0=1=====,
99999=-nosongbg-=1.000=0=0=0 // don't automatically add -songbackground-
;
#KEYSOUNDS:;
#ATTACKS:
;

//---------------dance-single - ----------------
#NOTEDATA:;
#CHARTNAME:;
#CHARTHASH:2420500300;
#STEPSTYPE:dance-single;
#BANNER:;
#DESCRIPTION:;
#CHARTSTYLE:;
#DIFFICULTY:Easy;
#METER:6;
#METERF:6.000000;
#LASTSECONDHINT:100.973129;
#RADARVALUES:0.228842,0.252370,0.151659,0.132701,0.000000,169.000000,153.000000,16.000000,14.000000,0.000000,0.000000,0.000000,0.000000,0.000000,0.228842,0.252370,0.151659,0.132701,0.000000,169.000000,153.000000,16.000000,14.000000,0.000000,0.000000,0.000000,0.000000,0.000000;
#CREDIT:;
#NOTES:
0000
0000
0000
0000
,
1000
0001
1000
0000
,
0001
0010
0100
1000
,
0001
0100
0001
0000
,
1000
0010
0001
0010
,
1000
0100
1000
0000
,
1000
0100
0010
0001
,
1000
0010
1000
0000
,
0110
0000
0000
0000
,
0000
1001
0000
0001
,
0001
0000
1000
1000
,
0100
0000
0010
0000
,
0001
0001
0010
0001
,
0000
1001
0100
0000
,
0010
0000
1000
0000
,
0010
0100
0001
0100
,
0110
0010
1000
1001
,
0000
0001
0000
0010
0000
0001
0000
1000
,
0000
0010
0000
1000
0000
0001
0000
0000
,
0000
1000
0000
0100
0000
1000
0000
0010
,
0000
0100
0000
0010
0000
1000
0000
0000
,
0000
0001
0000
0010
0000
0100
0000
1000
,
0000
0001
0000
1000
0000
0100
0000
0000
,
0000
0010
0000
0001
0000
1000
0000
0001
,
0000
0202
0000
0303
,
0001
0001
1000
0001
,
1001
0000
1000
0100
,
0001
0000
0001
0100
,
1000
0000
0010
0000
,
1000
1000
0001
1000
,
1001
0000
0001
0010
,
1000
0000
1000
0010
,
0001
0000
1000
0000
,
0002
0003
2000
3000
,
0002
0003
2000
3000
,
0020
0030
0200
0300
,
0020
0030
0200
0300
,
0010
0010
0010
0010
,
0010
1000
0001
1001
,
0100
0100
0100
0100
,
0100
0001
0010
0100
,
1001
0000
0100
0000
,
1000
0000
1000
0000
,
1001
0000
0010
0000
,
0001
0000
0001
0000
,
1001
0001
0001
0001
,
0001
0000
0100
0000
,
1001
1000
1000
1000
,
2002
0000
0000
3003
,
0010
0010
0100
0010
,
0110
0000
1000
0100
,
0001
0000
0001
0100
,
1000
0000
0000
2002
0000
0000
0000
0000
,
0000
3003
0000
0000
;

//---------------dance-single - ----------------
#NOTEDATA:;
#CHARTNAME:;
#CHARTHASH:352063843;
#STEPSTYPE:dance-single;
#BANNER:;
#DESCRIPTION:;
#CHARTSTYLE:;
#DIFFICULTY:Medium;
#METER:9;
#METERF:9.000000;
#LASTSECONDHINT:100.973129;
#RADARVALUES:0.357481,0.378555,0.218009,0.142180,0.018957,264.000000,241.000000,23.000000,15.000000,0.000000,0.000000,0.000000,0.000000,0.000000,0.357481,0.378555,0.218009,0.142180,0.018957,264.000000,241.000000,23.000000,15.000000,0.000000,0.000000,0.000000,0.000000,0.000000;
#CREDIT:;
#NOTES:
0000
0000
0000
0000
,
1000
0000
0000
0000
0001
0000
0000
0010
0000
0000
0100
0000
1000
0000
0000
0000
,
0001
0010
0001
0000
1000
0001
1000
0000
,
0010
0000
0000
0000
0100
0000
0000
0001
0000
0000
0010
0000
0001
0000
0000
0000
,
1000
0001
1000
0000
0010
0100
0010
0000
,
1000
0000
0100
0000
0010
0000
0000
0001
0000
0000
0010
0000
0100
0000
0000
0000
,
1000
0101
0001
1100
,
1000
0000
0001
0000
0010
0000
0000
0001
0000
0000
1000
0000
0100
0000
0000
0000
,
1001
0000
0000
0000
,
0000
0000
1100
0000
0000
1000
0001
0010
,
0100
0000
1000
0000
0001
0010
0001
0000
,
0000
0000
0101
0000
0000
0001
1000
0100
,
0010
0000
0001
0000
1000
0100
1000
0000
,
0010
0000
0110
0000
0100
0001
0100
0000
,
0001
1000
0100
0000
0100
1000
0001
0000
,
1000
0100
0010
0001
,
1000
0001
0010
0100
1000
0001
0200
0000
,
0301
0100
0000
0010
0000
1000
0000
0010
,
0000
1000
0000
0100
0000
1000
0001
1000
,
0000
0001
0000
0010
0000
0001
0000
0100
,
0001
0000
1100
0000
1001
0000
0010
0100
,
0010
0100
0000
0001
0000
0010
0000
0100
,
0000
1000
0000
0001
0000
1000
0000
0100
,
0010
0100
0000
0010
0000
0001
0000
1000
,
0001
0010
2200
0000
0000
0000
3300
0000
,
1000
0000
0001
0010
1000
0000
1000
0010
,
0001
0000
1000
0000
0001
0100
0001
0000
,
1001
0000
0100
0000
1000
0100
1000
0000
,
0101
0010
1000
1001
,
1000
0000
0001
0100
1000
0000
1000
0100
,
0001
0000
0010
0000
0001
1000
0001
0000
,
0110
0000
1000
0000
0010
0100
0010
0000
,
1000
0001
0000
0001
0010
0000
0100
0000
,
2100
0000
0002
0003
,
0200
0300
0002
3003
,
0012
0000
2000
3000
,
0200
0300
2000
3003
,
0010
0010
0010
0010
,
0001
0010
0100
0000
1000
0100
0010
0000
,
0100
0100
0100
0100
,
1000
0001
0010
0000
0001
1000
0110
0000
,
1001
0000
1000
0100
0010
0001
1000
0000
,
0001
0100
0010
1000
,
1001
0000
0001
0010
0100
1000
0001
0000
,
1000
0001
0010
0100
,
0011
0000
1000
0100
0001
0100
1000
0000
,
0010
0100
0001
1000
,
1010
0000
1000
0010
0001
0010
1000
0000
,
0220
0000
0000
0330
,
1000
0000
0001
1000
0100
0000
0100
1000
,
0001
0000
0010
0000
0001
0100
0001
0000
,
1001
0000
0100
0000
1000
0010
1000
0001
,
0100
0001
0000
2002
0000
0000
0000
0000
,
0000
3003
0000
0000
;

//---------------dance-single - ----------------
#NOTEDATA:;
#CHARTNAME:;
#CHARTHASH:2634262693;
#STEPSTYPE:dance-single;
#BANNER:;
#DESCRIPTION:;
#CHARTSTYLE:;
#DIFFICULTY:Hard;
#METER:11;
#METERF:11.000000;
#LASTSECONDHINT:100.973129;
#RADARVALUES:0.522681,0.479502,0.104265,0.265403,0.260664,386.000000,375.000000,11.000000,28.000000,0.000000,0.000000,0.000000,0.000000,0.000000,0.522681,0.479502,0.104265,0.265403,0.260664,386.000000,375.000000,11.000000,28.000000,0.000000,0.000000,0.000000,0.000000,0.000000;
#CREDIT:;
#NOTES:
0000
0000
0000
0000
,
0001
0000
0010
0000
0100
0000
1000
0001
0000
0000
0010
0000
0200
0000
0000
0000
,
1300
0000
0100
0000
1000
0000
0001
0100
0000
0010
0000
1000
0001
0000
0010
0000
,
0100
0000
1000
0000
0001
0000
0010
0001
0000
0000
1000
0000
0200
0000
0000
0000
,
1300
0000
0001
0000
0010
0000
0001
1000
0000
0100
0000
1000
0010
0000
0100
0000
,
0001
0000
1000
0000
0100
0000
0010
0001
0000
0000
0100
0000
0002
0000
0000
0000
,
1003
0000
0010
0000
0100
0000
0010
1000
0000
0100
0000
1000
0100
0000
1000
0000
,
0001
0000
0010
0000
0100
0000
1000
0001
0000
0100
0010
0000
2000
0000
0000
0000
,
3001
0000
0000
0000
,
1100
0000
0000
1000
0001
0000
0000
0000
0010
0000
0100
0000
1000
0000
0001
0000
,
1000
0200
0001
0000
0301
0100
1000
0100
,
0010
0000
0001
0200
0000
0310
1000
0010
,
1000
0020
0001
0000
0031
0010
1000
0000
,
0101
0000
0000
1000
0010
0000
0000
0000
0100
0000
0001
0000
0010
0000
0100
0000
,
1000
0020
0001
0000
0031
0010
1000
0100
,
0010
0000
0000
0001
1000
0000
0000
0000
0110
0000
0000
0000
1000
0000
0001
0000
,
0100
0010
1000
0010
0100
0001
2001
0000
,
3100
1000
0100
1000
0100
0001
0100
0001
,
0100
0000
1000
0000
0100
0000
0010
0000
0001
0000
0010
0000
0100
0000
1000
0001
,
0000
0010
0001
0010
0001
0010
0100
1000
,
0002
0000
0000
0000
2003
0000
0000
3200
0000
0000
0310
0000
0001
0000
1000
0001
,
1000
0000
0000
0001
0010
0000
0000
0001
1000
0000
0000
0100
0010
0000
0000
0001
,
1000
0000
0100
0000
0010
0000
0100
0000
1000
0000
0001
0000
0010
0000
0100
0010
,
0000
0001
1000
0100
0010
0100
1000
0001
,
0100
0010
2020
0000
0000
0000
3030
0000
,
1000
0000
1000
0000
0001
0000
0001
0000
0010
0000
0000
0100
1000
0000
0100
0000
,
0010
0001
0001
1000
0010
0010
0100
0001
,
1000
0000
0100
0000
0100
0000
0000
1000
0001
0000
0010
0000
0010
0000
0100
0000
,
1000
0000
0001
0000
0100
0000
1000
0000
0100
0000
0001
1000
0001
1000
0001
0000
,
0010
0000
0010
0000
0001
0000
0001
0000
0100
0000
0000
0010
1000
0000
0100
0000
,
0010
0001
0001
1000
0100
0100
1000
0010
,
0100
0001
0001
0000
1000
1000
0001
0010
,
0100
0000
1000
0000
0001
0000
0100
0020
0000
0000
1030
0000
0002
0000
0000
0000
,
0103
0001
0010
0100
1000
0100
0010
0000
,
0010
0001
0000
0000
1000
0001
0000
0000
1000
0200
0000
0000
0010
0000
0000
0000
,
2300
0000
3001
0020
1000
0000
1030
0010
,
0002
0000
1003
0200
0001
0000
0301
0100
,
1000
0001
0010
0100
1000
0010
0100
0000
,
0001
0001
1000
0000
0100
0100
0010
0000
,
0001
0010
0100
1000
0100
0010
0001
1000
,
0100
0100
1000
1000
0001
0100
1001
0000
,
0110
0000
0000
0010
1000
0000
1000
0100
0000
0000
1000
0000
0002
0000
0000
0000
,
0013
0000
0001
0000
0010
0000
0001
0100
0000
0010
0000
1000
0100
0000
0010
0000
,
0011
0000
0000
1000
0001
0000
0001
0010
0000
0000
0100
0000
2000
0000
0000
0000
,
3001
0000
1000
0000
0010
0000
0100
0001
0000
0010
0000
0001
1000
0000
0010
0000
,
0110
0000
0000
0010
1000
0000
1000
0100
0000
0000
0010
0000
0002
0000
0000
0000
,
1003
0000
0001
0000
0010
0000
0100
1000
0000
0001
0000
0010
0001
0000
0100
0000
,
0001
0000
1000
0000
0010
0000
0100
0010
0000
0100
0001
0000
0010
0000
0000
0000
,
2002
0000
0000
0000
3003
0000
0000
0000
0001
1000
0001
1000
0001
0000
0000
0000
,
1000
0000
1000
0000
0100
0000
0100
0000
0010
0000
0000
0001
0100
0000
0010
0000
,
1000
0100
0100
1000
0010
0010
0100
0001
,
0010
0000
0001
0000
0001
0000
0000
0001
1000
0000
0100
0000
0010
0000
0001
0000
,
1000
0100
0000
2002
0000
0000
0000
0000
,
0000
3003
0000
0000
;

//---------------dance-single - ----------------
#NOTEDATA:;
#CHARTNAME:;
#CHARTHASH:3959756602;
#STEPSTYPE:dance-single;
#BANNER:;
#DESCRIPTION:;
#CHARTSTYLE:;
#DIFFICULTY:Beginner;
#METER:3;
#METERF:3.000000;
#LASTSECONDHINT:5.600000;
#RADARVALUES:0.127285,0.201896,0.066351,0.009479,0.000000,94.000000,87.000000,7.000000,1.000000,0.000000,0.000000,0.000000,0.000000,0.000000,0.127285,0.201896,0.066351,0.009479,0.000000,94.000000,87.000000,7.000000,1.000000,0.000000,0.000000,0.000000,0.000000,0.000000;
#CREDIT:;
#NOTES:
// measure 0
0000
0000
0000
0000
,  // measure 1
1000
0000
1000
0000
,  // measure 2
1000
0000
0000
0000
,  // measure 3
1000
0000
1000
0000
,  // measure 4
1000
0000
0000
0000
,  // measure 5
0001
0000
0001
0000
,  // measure 6
0001
0000
0000
0000
,  // measure 7
0001
0000
0001
0000
,  // measure 8
1001
0000
0000
0000
,  // measure 9
0000
0100
0000
0100
,  // measure 10
0000
0100
0000
0000
,  // measure 11
0000
0010
0000
0010
,  // measure 12
0000
0010
0000
0000
,  // measure 13
0000
1000
0000
1000
,  // measure 14
0000
1000
0000
0000
,  // measure 15
0000
0001
0000
0001
,  // measure 16
0000
0001
0000
0000
,  // measure 17
1000
1000
1000
0000
,  // measure 18
1000
0000
0000
0000
,  // measure 19
1000
1000
1000
0000
,  // measure 20
1000
0000
0000
0000
,  // measure 21
0001
0001
0001
0000
,  // measure 22
0001
0000
0000
0000
,  // measure 23
0001
0001
0001
0000
,  // measure 24
0001
1001
0000
0000
,  // measure 25
1000
0000
1000
0000
,  // measure 26
1000
0000
0001
0000
,  // measure 27
1000
0000
0000
0000
,  // measure 28
0001
0000
0000
0000
,  // measure 29
0001
0000
0001
0000
,  // measure 30
0001
0000
1000
0000
,  // measure 31
0001
0000
0000
0000
,  // measure 32
1000
0000
0000
0000
,  // measure 33
0010
0000
0000
0000
,  // measure 34
0010
0000
0000
0000
,  // measure 35
1000
0000
0001
0000
,  // measure 36
1000
0000
0001
0000
,  // measure 37
1000
0000
0000
0000
,  // measure 38
1000
0000
0000
0000
,  // measure 39
0001
0000
0000
0000
,  // measure 40
0001
0000
0000
0000
,  // measure 41
1001
0000
0100
0000
,  // measure 42
0010
0010
0010
0000
,  // measure 43
1001
0000
0010
0000
,  // measure 44
0100
0100
0100
0000
,  // measure 45
1001
0000
0100
0000
,  // measure 46
0010
0010
0010
0000
,  // measure 47
1001
0000
0100
0000
,  // measure 48
1001
0000
0000
0000
,  // measure 49
0010
0000
0010
0000
,  // measure 50
0010
0000
0000
0000
,  // measure 51
0100
0000
0100
0000
,  // measure 52
0200
0000
0000
0000
,  // measure 53
0000
0300
0000
0000
;
