#VERSION:0.83;
#TITLE:HIHO;
#SUBTITLE:(RED MONSTER HYPER MIX);
#ARTIST:CAPTAIN JACK;
#TITLETRANSLIT:;
#SUBTITLETRANSLIT:;
#ARTISTTRANSLIT:;
#GENRE:;
#ORIGIN:;
#TAGS:;
#CREDIT:;
#BANNER:HIHO (RED MONSTER HYPER MIX).png;
#BACKGROUND:HIHO (RED MONSTER HYPER MIX)-bg.png;
#PREVIEWVID:;
#JACKET:HIHO (RED MONSTER HYPER MIX)-jacket.png;
#CDIMAGE:;
#DISCIMAGE:;
#LYRICSPATH:;
#CDTITLE:Dance Mania Speed 5.png;
#MUSIC:HIHO (RED MONSTER HYPER MIX).ogg;
#OFFSET:-0.260000;
#SAMPLESTART:5.624977;
#SAMPLELENGTH:15.000000;
#SELECTABLE:YES;
#BPMS:0.000000=173.000000
;
#STOPS:80.000000=1.045000
;
#DELAYS:;
#WARPS:;
#TIMESIGNATURES:0.000000=4=4
;
#TICKCOUNTS:0.000000=4
;
#COMBOS:0.000000=1
;
#SPEEDS:0.000000=1.000000=0.000000=0
;
#SCROLLS:0.000000=1.000000
;
#LABELS:0.000000=Song Start
;
#BGCHANGES:8.000=lines4.mp4=0.800=1=0=1===CrossFade==,
12.000=countdown1.mp4=2.000=0=0=0=StretchNoLoop====,
16.000=aliens2.mp4=1.000=0=0=1=====,
24.000=piston1.mp4=1.800=0=0=1=====,
32.000=aliens2.mp4=1.000=0=0=1=====,
40.000=piston1.mp4=1.800=0=0=1=====,
48.000=aliens1.mp4=1.400=0=0=1=====,
56.000=room2.mp4=1.000=0=0=1=====,
64.000=sun2.mp4=1.000=0=0=1=====,
72.000=sun3.mp4=1.000=0=0=1=====,
80.000=lines4.mp4=0.800=0=0=1=====,
81.000=aliens2.mp4=1.000=0=1=1=StretchRewind====,
89.000=beads1.mp4=1.000=0=0=1=====,
97.000=basket1.mp4=1.000=0=0=1=====,
105.000=pills2.mp4=1.000=0=0=1=====,
113.000=aliens2.mp4=1.000=0=0=1=====,
121.000=puzzle1.mp4=1.000=0=0=1=====,
129.000=snow1.mp4=1.000=0=0=1=====,
145.000=lines4.mp4=0.800=0=0=1=====,
147.000=box1.mp4=1.600=0=0=1=====,
149.000=lines4.mp4=0.800=0=0=1=====,
152.000=box1a.mp4=1.600=0=0=1=====,
153.000=lines4.mp4=0.800=0=0=1=====,
157.000=countdown1.mp4=2.000=0=0=0=StretchNoLoop====,
161.000=aliens2.mp4=1.000=0=1=1=StretchRewind====,
169.000=piston1.mp4=1.800=0=1=1=StretchRewind====,
177.000=aliens2.mp4=1.000=0=0=1=====,
185.000=piston1.mp4=1.800=0=0=1=====,
193.000=aliens1.mp4=1.400=0=1=1=StretchRewind====,
201.000=room2.mp4=1.000=0=1=1=StretchRewind====,
209.000=sun2.mp4=1.000=0=1=1=StretchRewind====,
217.000=sun3.mp4=1.000=0=1=1=StretchRewind====,
225.000=basket1.mp4=1.000=0=1=1=StretchRewind====,
237.000=HIHO (RED MONSTER HYPER MIX)-bg.png=1.000=0=0=1=====,
99999=-nosongbg-=1.000=0=0=0 // don't automatically add -songbackground-
;
#KEYSOUNDS:;
#ATTACKS:
;

//---------------dance-single - ----------------
#NOTEDATA:;
#CHARTNAME:;
#CHARTHASH:3330086719;
#STEPSTYPE:dance-single;
#BANNER:;
#DESCRIPTION:;
#CHARTSTYLE:;
#DIFFICULTY:Beginner;
#METER:4;
#METERF:4.000000;
#LASTSECONDHINT:83.501534;
#RADARVALUES:0.000000,0.000000,0.000000,0.000000,0.000000,0.000000,0.000000,0.000000,0.000000,0.000000,0.000000,0.000000,0.000000,0.000000,0.000000,0.000000,0.000000,0.000000,0.000000,0.000000,0.000000,0.000000,0.000000,0.000000,0.000000,0.000000,0.000000,0.000000;
#CREDIT:;
#NOTES:
0000
0000
0000
0000
,
0000
0000
0000
0000
,
0000
0000
0000
0000
,
0000
0000
0000
0000
,
1000
0000
1000
0000
,
1000
0000
0000
0000
,
0001
0000
0001
0000
,
0001
0000
0000
0000
,
1000
0000
1000
0000
,
1000
0000
0000
0000
,
0001
0000
0001
0000
,
0001
0000
0000
0000
,
1000
0000
0000
0000
,
1000
0000
0000
0000
,
0010
0010
0010
0010
,
0010
0000
0000
0000
,
1000
0000
0000
0000
,
1000
0000
0000
0000
,
0001
0001
0001
0001
,
0001
0000
0000
0000
,
1001
0100
0000
0100
,
0000
0100
0000
0000
,
0000
0010
0000
0010
,
0000
0010
0000
0000
,
0000
1000
0000
1000
,
0000
1000
0000
0000
,
0000
0001
0000
0001
,
0000
0001
0000
0000
,
0000
0100
0100
0100
,
0000
0100
0000
0000
,
0000
0010
0010
0010
,
0000
0010
0000
0000
,
0000
1000
1000
1000
,
0000
1000
0000
0000
,
0000
0001
0001
0001
,
0000
0001
0000
0000
,
0000
1001
0000
0000
,
0000
1001
0000
0000
,
0000
1001
0000
0100
,
0000
0100
0000
0010
,
0000
0010
0000
0010
,
0000
0010
0000
0000
,
0000
0100
0000
0100
,
0000
0100
0000
0000
,
0000
0001
0000
0001
,
0000
0001
0000
0000
,
0000
1000
0000
1000
,
0000
1000
0000
0000
,
0000
0001
0001
0001
,
0000
0001
0000
0000
,
0000
1000
1000
1000
,
0000
1000
0000
0000
,
0000
0010
0010
0010
,
0000
0010
0000
0000
,
0000
0100
0100
0100
,
0000
0100
0000
0000
,
0000
0010
0000
0010
,
0000
0100
0000
0100
,
0000
0001
0000
0001
,
0000
1001
0000
0000
;

//---------------dance-single - ----------------
#NOTEDATA:;
#CHARTNAME:;
#CHARTHASH:2049028379;
#STEPSTYPE:dance-single;
#BANNER:;
#DESCRIPTION:;
#CHARTSTYLE:;
#DIFFICULTY:Easy;
#METER:6;
#METERF:6.000000;
#LASTSECONDHINT:83.501534;
#RADARVALUES:0.000000,0.000000,0.000000,0.000000,0.000000,0.000000,0.000000,0.000000,0.000000,0.000000,0.000000,0.000000,0.000000,0.000000,0.000000,0.000000,0.000000,0.000000,0.000000,0.000000,0.000000,0.000000,0.000000,0.000000,0.000000,0.000000,0.000000,0.000000;
#CREDIT:;
#NOTES:
0000
0000
0000
0000
,
0000
0000
0000
0000
,
0000
0000
0000
0000
,
0000
0000
0000
0000
,
0000
1000
0000
1000
,
0001
0001
0001
0001
,
0001
0000
0100
0000
,
0001
0000
1000
0000
,
0000
0010
0000
0010
,
0100
0100
0100
0100
,
0100
0000
0010
0000
,
1000
0000
0001
0000
,
1000
0100
1000
0000
,
0100
1000
0100
0000
,
1000
0100
0010
0001
,
0010
0100
1000
1001
,
0001
0010
0001
0000
,
0010
0001
0010
0000
,
0001
0010
0100
1000
,
0100
0010
0001
1000
,
1001
0010
0000
0010
,
0000
0100
0100
0100
,
0000
0010
1000
0010
,
0100
0001
0010
0100
,
1000
0001
0000
0001
,
0000
1000
1000
1000
,
0000
0100
0010
0001
,
0010
0100
1000
0001
,
1000
0001
0000
0001
,
0000
0100
0100
0100
,
0000
0010
0010
0010
,
0000
1000
1000
1000
,
0100
1000
0000
1000
,
0000
0001
0001
0001
,
0000
0100
0010
1000
,
0100
0010
0001
0100
,
0001
1001
0000
0000
,
0010
1001
0000
0000
,
0100
1001
0000
0100
,
0000
0100
0100
0010
,
0010
1000
1000
0000
,
1000
0100
0100
0100
,
0100
0100
0000
1000
,
0000
0010
0000
0100
,
0000
0001
0001
0000
,
0001
0001
0001
0001
,
0001
1000
0000
0100
,
0000
0010
0000
0001
,
0000
0001
1000
0001
,
0000
1000
0010
1000
,
0000
0010
0010
0100
,
0100
0001
0010
0100
,
1000
0001
0010
0001
,
0000
0100
0001
0100
,
0000
0001
0100
0010
,
1000
0100
0010
0001
,
1000
0100
0000
0100
,
0000
1000
0000
1000
,
0000
0010
0000
0010
,
0000
1001
0000
0000
;

//---------------dance-single - ----------------
#NOTEDATA:;
#CHARTNAME:;
#CHARTHASH:4070437210;
#STEPSTYPE:dance-single;
#BANNER:;
#DESCRIPTION:;
#CHARTSTYLE:;
#DIFFICULTY:Medium;
#METER:10;
#METERF:10.000000;
#LASTSECONDHINT:83.501534;
#RADARVALUES:0.000000,0.000000,0.000000,0.000000,0.000000,0.000000,0.000000,0.000000,0.000000,0.000000,0.000000,0.000000,0.000000,0.000000,0.000000,0.000000,0.000000,0.000000,0.000000,0.000000,0.000000,0.000000,0.000000,0.000000,0.000000,0.000000,0.000000,0.000000;
#CREDIT:;
#NOTES:
0000
0000
0000
0000
,
0000
0000
0000
0000
,
0000
0000
0000
0000
,
0000
0000
0000
0000
0000
0000
0000
0100
,
1000
0000
0000
0100
0001
0000
0000
0100
,
1000
0000
0001
1000
0001
0000
1000
0000
,
0010
0100
0001
0010
,
1100
0010
0110
0100
,
1001
0000
0000
0001
0010
0000
0000
1000
,
0010
0001
1001
0010
,
0100
0010
0100
0000
0010
0000
1000
0000
,
0100
1000
0100
0000
1000
0001
1000
0001
,
0010
0000
0001
0000
1000
0100
0010
0001
,
0010
0000
0001
0000
0100
0001
0100
0010
,
0100
0000
0110
0000
0010
1000
0010
0000
,
1000
0000
1001
0000
0001
0001
0001
0000
,
1000
0100
0010
0100
1000
0001
1000
0000
,
0001
0100
0001
0010
0001
1000
0010
0000
,
0100
0000
1001
0000
0010
0100
0010
0000
,
1000
0000
1001
0000
0001
0100
0001
0000
,
1001
0000
1000
0000
0010
1000
0001
0000
,
0100
0000
0001
0000
0001
0000
0010
0001
,
0010
1000
0010
0000
0001
0000
0100
0000
,
0010
0000
1000
0000
0010
1000
0000
0001
,
0000
1001
0000
0000
1000
0100
0001
0000
,
0100
0000
1000
0000
0001
0010
1000
0000
,
0010
0001
0100
0010
,
1000
0000
0100
0000
0001
0100
0000
0010
,
0000
1001
0000
0000
0001
0000
0101
0000
,
0100
0000
0010
1000
0010
1000
0000
0001
,
0100
0001
0100
0000
0010
0000
1000
0000
,
0010
0000
1000
0000
0100
1000
0000
0100
,
0000
1001
0000
0000
1000
0100
0010
0000
,
0001
0000
0010
0100
1000
0001
0000
0100
,
0001
0010
0001
0000
1000
0000
0010
0000
,
0100
0000
0001
0000
0010
0001
0000
1000
,
0100
0010
0022
0000
0000
0000
0033
0000
,
0001
2002
0000
3003
,
0100
0120
1030
0210
,
0301
0110
1001
1100
,
0101
0000
1000
0000
0000
0001
0100
0000
,
0000
0010
0100
0000
0010
1000
0010
0000
,
0100
0001
1000
0100
,
0010
0000
0001
0000
0010
0001
0010
0000
,
0001
1000
0001
0000
0000
0100
0010
0000
,
0000
1000
0100
0000
1000
0001
1000
0000
,
0001
0010
0001
0100
,
0010
0000
1000
0100
1000
0000
0010
0100
,
0010
0100
0001
0000
1000
0000
0100
0010
,
0001
0000
0010
0000
0100
0000
1000
0100
,
0001
0100
1000
0000
0010
0000
0100
0001
,
0010
0001
1000
0000
0010
0000
0100
0100
,
0100
0000
0010
1000
0010
0100
0001
0100
,
0001
0000
1000
0010
1000
0010
0100
0001
,
0010
0000
0100
0000
1000
0000
0100
0100
,
0100
0000
1000
0000
0010
0010
0010
0000
,
0101
1001
0010
0100
,
0010
1001
0100
0010
,
0100
1001
1000
0100
,
0010
1001
0000
0000
;

//---------------dance-single - ----------------
#NOTEDATA:;
#CHARTNAME:;
#CHARTHASH:2093084064;
#STEPSTYPE:dance-single;
#BANNER:;
#DESCRIPTION:;
#CHARTSTYLE:;
#DIFFICULTY:Hard;
#METER:13;
#METERF:0.000000;
#LASTSECONDHINT:83.501534;
#RADARVALUES:0.678588,0.733292,0.353607,0.047148,0.324140,403.000000,373.000000,30.000000,4.000000,0.000000,0.000000,0.000000,0.000000,0.000000,0.678588,0.733292,0.353607,0.047148,0.324140,403.000000,373.000000,30.000000,4.000000,0.000000,0.000000,0.000000,0.000000,0.000000;
#CREDIT:;
#NOTES:
// measure 0
0000
0000
0000
0000
,  // measure 1
0000
0000
0000
0000
,  // measure 2
0000
0000
0000
0000
,  // measure 3
0000
0000
0000
0000
0000
0000
0000
1000
,  // measure 4
0100
0000
0010
0001
1000
0000
0001
0100
,  // measure 5
0010
0000
0000
0010
1000
0000
0001
0000
0100
0000
0000
0000
1001
0000
0000
0000
,  // measure 6
1000
0100
0010
0001
0100
0010
1000
0010
,  // measure 7
0001
0000
0010
0000
1000
0100
0010
0001
,  // measure 8
1000
0000
0001
0100
0010
0000
1000
0001
,  // measure 9
0100
0000
0000
0100
0001
0000
1000
0000
0100
0000
0000
0000
1001
0000
0000
0000
,  // measure 10
0010
1000
0100
0001
0100
0010
0100
1000
,  // measure 11
0001
0000
1001
0000
0001
1000
0100
0010
,  // measure 12
0001
0000
1000
0000
0001
0000
0000
1000
0000
0010
0000
1000
0010
0000
0100
0000
,  // measure 13
0001
0000
0010
0000
0001
0000
0000
1000
0000
0000
0010
0000
1000
0000
0100
0000
,  // measure 14
0010
0000
0000
0000
0001
0000
0000
0000
1000
0001
0000
0010
0000
0001
1000
0000
,  // measure 15
0100
0010
0100
1000
0001
0100
0010
0000
,  // measure 16
0100
0000
0001
0000
0100
0000
0000
0001
0000
1000
0000
0010
0100
0000
0010
0000
,  // measure 17
1000
0000
0100
0000
0010
0000
0000
0100
0000
0000
0010
0000
0001
0000
1000
0000
,  // measure 18
0010
0000
0001
0000
0010
0000
0000
0000
0100
0010
0000
1000
0000
0001
1000
0000
,  // measure 19
0100
0000
0000
0000
0010
0000
0000
0000
0001
1000
0001
0000
0010
0000
0100
0000
,  // measure 20
1001
0000
1100
0000
1000
0100
0010
0000
,  // measure 21
1001
0000
0010
0001
1000
0100
0001
0100
,  // measure 22
1000
0000
0001
0010
0100
1000
0100
0010
,  // measure 23
0100
1000
0010
0001
1000
0100
0000
0001
,  // measure 24
0000
1001
0000
1000
0001
0100
0010
0000
,  // measure 25
1000
0010
1000
0000
0001
0100
0010
1000
,  // measure 26
0100
0010
0001
0000
0100
0010
0100
0010
,  // measure 27
1000
0100
0001
0100
0010
0001
0000
1000
,  // measure 28
0000
1001
0000
0001
0100
0000
0110
0000
,  // measure 29
0100
0000
0010
1000
0100
0010
0000
0001
,  // measure 30
0100
1000
0100
0000
0001
0010
0001
0000
,  // measure 31
1000
0100
1000
0000
0001
0100
0000
0101
,  // measure 32
0000
1001
0000
1000
0100
0010
0001
0000
,  // measure 33
1001
0000
0001
0100
0010
1000
0000
0100
,  // measure 34
0010
0001
1000
0000
0001
0100
0001
0000
,  // measure 35
1000
0010
1000
0000
0001
0100
0010
1000
,  // measure 36
0100
0000
0010
0000
0022
0000
0000
0000
0000
0000
0000
0000
0033
0000
0000
1000
,  // measure 37
0100
0000
0000
0000
2020
0000
0000
0000
0000
0000
0000
0000
3030
0000
0000
0001
,  // measure 38
0100
0110
1000
0110
,  // measure 39
0001
1001
0110
1001
,  // measure 40
0110
0010
1000
0000
1000
0100
0001
0000
,  // measure 41
0001
0000
0100
0000
1000
0000
0000
1000
0010
0000
0100
0000
0001
0000
0000
0000
,  // measure 42
1001
0001
0100
0010
1000
0100
0010
0001
,  // measure 43
1000
0000
0010
0000
0100
0000
0000
0100
0001
0000
0000
0001
1000
0000
0001
0000
,  // measure 44
0100
0010
1000
0000
0001
0100
1000
0000
,  // measure 45
1000
0000
0100
0000
0001
0000
0000
0001
0010
0000
0001
0000
1000
0000
0000
0000
,  // measure 46
1001
1000
0010
0100
0001
0010
0100
1000
,  // measure 47
0001
0000
1000
0000
0100
0000
0000
0100
1000
0000
0000
1000
0001
0000
0010
0000
,  // measure 48
0001
0000
0100
0000
0010
0000
1000
0000
0010
0000
1000
0100
0000
1000
0000
0001
,  // measure 49
1000
0000
0010
0000
0100
0000
0001
0000
0010
0001
0000
1000
0000
0001
0000
1000
,  // measure 50
0001
0000
1000
0000
1001
0000
0000
0000
0101
0000
0000
0000
0001
1000
0000
0010
,  // measure 51
0000
0000
1000
0000
0010
0000
0000
1000
0000
0001
0100
0001
0100
0000
0010
0000
,  // measure 52
0010
0000
0000
0000
1000
0000
0100
0000
0001
0000
0100
1000
0000
0100
0000
1000
,  // measure 53
0010
0000
0100
0000
0001
0000
0010
0000
0001
1000
0000
0010
0000
1000
0000
0001
,  // measure 54
0100
0000
0010
0000
1010
0000
0000
0000
0101
0000
0000
0000
0001
1000
0000
0010
,  // measure 55
0000
1000
0010
1000
0010
0100
0000
0010
0000
1000
0010
0100
0001
0000
0000
0000
,  // measure 56
0100
0000
0001
0000
1001
0000
0000
0001
0100
0000
0000
0000
0010
0000
1000
0000
,  // measure 57
0100
0000
0010
0000
0001
0000
0000
1000
0100
0000
0000
0000
1000
0000
0001
0000
,  // measure 58
0011
0000
0000
0000
1001
0000
0000
0001
0100
0000
0000
0000
0010
0000
1000
0000
,  // measure 59
0100
0010
0110
0000
0000
0000
0000
0000
;
