#VERSION:0.83;
#TITLE:H@ppy Choice;
#SUBTITLE:;
#ARTIST:good-cool feat.すわひでお;
#TITLETRANSLIT:;
#SUBTITLETRANSLIT:;
#ARTISTTRANSLIT:good-cool feat. Hideo Suwa;
#GENRE:MELO CORE;
#ORIGIN:;
#TAGS:;
#CREDIT:;
#BANNER:H@ppy Choice.png;
#BACKGROUND:H@ppy Choice-bg.png;
#PREVIEWVID:;
#JACKET:H@ppy Choice-jacket.png;
#CDIMAGE:;
#DISCIMAGE:;
#LYRICSPATH:;
#CDTITLE:pop'n music.png;
#MUSIC:H@ppy Choice.mp3;
#OFFSET:-5.500000;
#SAMPLESTART:57.822002;
#SAMPLELENGTH:15.000000;
#SELECTABLE:YES;
#DISPLAYBPM:168.000000;
#BPMS:0.000000=167.998001;
#STOPS:;
#DELAYS:;
#WARPS:;
#TIMESIGNATURES:0.000000=4=4;
#TICKCOUNTS:0.000000=4;
#COMBOS:0.000000=1;
#SPEEDS:0.000000=1.000000=0.000000=0;
#SCROLLS:0.000000=1.000000;
#FAKES:;
#LABELS:0.000000=Song Start;
#BGCHANGES:4.000=text14.mp4=1.800=1=0=1===CrossFade==,
16.000=heart12.mp4=1.800=0=0=1=====,
20.000=smoke2.mp4=1.800=0=0=1=====,
36.000=text12.mp4=1.800=0=0=1=====,
48.000=heart12.mp4=1.800=0=0=1=====,
52.000=text7.mp4=1.800=0=0=1=====,
60.000=ring8.mp4=1.800=0=0=1=====,
68.000=text7.mp4=1.800=0=0=1=====,
76.000=ring8.mp4=1.800=0=0=1=====,
84.000=text16.mp4=1.800=0=0=1=====,
92.000=arrows1.mp4=1.800=0=0=1=====,
100.000=text16.mp4=1.800=0=0=1=====,
108.000=arrows1.mp4=1.800=0=0=1=====,
116.000=text12.mp4=1.400=0=0=1=====,
132.000=text14.mp4=1.400=0=0=1=====,
140.000=smoke2.mp4=1.000=0=0=1=====,
146.500=smoke2.mp4=1.800=0=0=1=====,
148.000=blackhole1.mp4=1.800=0=0=1=====,
152.000=basket1.mp4=1.800=0=0=1=====,
156.000=blackhole1.mp4=1.800=0=1=1=StretchRewind====,
160.000=basket1.mp4=1.800=0=1=1=StretchRewind====,
164.000=text16.mp4=1.800=0=0=1=====,
172.000=ring8.mp4=1.800=0=0=1=====,
180.000=blackhole1.mp4=1.800=0=1=1=StretchRewind====,
184.000=basket1.mp4=1.800=0=1=1=StretchRewind====,
188.000=blackhole1.mp4=1.800=0=1=1=StretchRewind====,
192.000=basket1.mp4=1.800=0=1=1=StretchRewind====,
196.000=text16.mp4=1.800=0=0=1=====,
204.000=ring8.mp4=1.800=0=0=1=====,
212.000=text14.mp4=1.800=0=1=1=StretchRewind====,
218.000=text12.mp4=1.800=0=0=1=====,
220.000=text14.mp4=1.800=0=0=1=====,
226.000=text12.mp4=1.800=0=0=1=====,
228.000=text14.mp4=1.800=0=0=1=====,
234.000=text12.mp4=1.800=0=0=1=====,
236.000=text14.mp4=1.800=0=0=1=====,
242.000=text12.mp4=1.800=0=0=1=====,
244.000=text14.mp4=1.800=0=0=1=====,
244.500=text12.mp4=1.800=0=0=1=====,
245.000=arrows1.mp4=1.800=0=0=1=====,
245.500=basket1.mp4=1.800=0=0=1=====,
246.000=heart12.mp4=1.800=0=0=1=====,
246.500=ring8.mp4=1.800=0=0=1=====,
247.000=smoke2.mp4=1.800=0=0=1=====,
247.500=text16.mp4=1.800=0=0=1=====,
248.000=H@ppy Choice-bg3.png=1.000=0=0=1=====,
99999=-nosongbg-=1.000=0=0=0 // don't automatically add -songbackground-
;
#KEYSOUNDS:;
#ATTACKS:
;

//---------------dance-single - ----------------
#NOTEDATA:;
#CHARTNAME:;
#STEPSTYPE:dance-single;
#BANNER:;
#DESCRIPTION:;
#CHARTSTYLE:;
#DIFFICULTY:Medium;
#METER:10;
#METERF:0.000000;
#RADARVALUES:0.456563,0.539065,0.509353,0.259670,0.000000,320.000000,269.000000,51.000000,26.000000,0.000000,0.000000,0.000000,0.000000,0.000000,0.456563,0.539065,0.509353,0.259670,0.000000,320.000000,269.000000,51.000000,26.000000,0.000000,0.000000,0.000000,0.000000,0.000000;
#CREDIT:;
#DISPLAYBPM:168.000000;
#NOTES:
0000
0000
0000
0000
,
1000
1000
0000
0010
0000
1000
0000
0001
,
0000
0100
0000
0001
0000
0001
0010
0100
,
1000
1000
0000
0010
0000
0100
0000
0001
,
0100
0100
0000
0010
1000
1000
0000
0001
,
2000
0000
0000
0010
0000
0020
0000
0000
,
0000
0000
0000
3030
,
0102
0000
0000
1000
0000
2000
0000
0000
,
0000
0000
0000
3003
,
0100
0100
0000
0010
0000
1000
0000
0001
,
0000
0100
0000
0001
0000
1000
0100
0010
,
0001
0001
0000
0100
0000
0001
0000
1000
,
0010
0010
0000
0100
0001
0001
0000
1000
,
0001
0000
0000
0101
0000
0000
0010
0000
,
1010
0000
0000
1000
0000
0000
0110
0000
,
1001
0000
0000
1100
0000
0000
0100
0000
,
0101
0000
0000
1000
0000
0001
0100
0010
,
1000
0000
0000
1001
0000
0000
0100
0000
,
0110
0000
0000
0010
0000
0000
1010
0000
,
1001
0000
0000
0101
0000
0000
0001
0000
,
1001
0000
0000
1000
0000
0010
1000
0100
,
0010
0001
0000
0100
0000
0001
1000
0000
,
1000
0010
0000
1000
0000
0001
1000
0000
,
1000
0100
0000
1000
0000
0010
0100
0000
,
0001
0100
0000
0001
0000
0001
1000
0100
,
0010
0000
0010
0001
0000
0001
0010
0000
,
0001
0000
1000
0001
0000
0001
0100
0000
,
0010
0000
0010
1000
0000
1000
0100
0000
,
1000
0000
1000
0010
0000
0100
0001
1000
,
0020
0000
0230
0000
,
0302
0000
0000
1000
2003
0000
0000
0010
,
3020
0000
0000
0000
2030
0000
0000
0001
,
3002
0000
0000
1003
0000
1001
0000
0010
,
0200
0000
0000
0000
0302
0000
0000
0010
,
0023
0000
0000
0001
0032
0000
0000
1000
,
2000
0000
0000
0000
,
0000
0000
0000
0000
3003
0010
0100
0001
,
0100
0100
0000
1010
0000
1001
0000
2100
,
0000
0010
0000
0010
0000
3010
0000
0010
,
0100
0101
0000
0110
0000
1010
0000
1002
,
0000
0100
0000
0100
0000
0103
0000
0000
,
0001
1000
0100
1000
0010
0100
0001
0000
,
0001
0010
0100
0000
1100
0000
1001
0000
,
0011
0000
0001
0100
0000
0010
1000
0000
,
1100
0000
1000
0010
0000
0100
0001
1000
,
0010
0110
0000
1010
0000
1100
0000
2001
,
0000
0100
0000
0100
0000
3100
0000
1000
,
0010
1010
0000
0110
0000
1001
0000
0102
,
0000
1000
0000
1000
0000
1003
0000
0000
,
0001
0100
0010
1000
0010
0100
0001
0000
,
1000
0100
0001
0000
0110
0000
1100
0000
,
1010
0000
1000
0010
0000
0010
0100
0000
,
0100
0001
0000
0001
1001
0000
1010
0000
,
0210
0010
0000
0001
0000
0001
0000
0301
,
0000
0001
1000
0000
1010
0000
0110
0000
,
0102
0100
0000
0010
0000
0010
0000
0013
,
0000
0001
1000
0010
0110
0000
1001
0000
,
1000
2100
0000
0010
0000
0010
0000
3010
,
0000
0010
1000
0100
1100
0000
1001
0000
,
0120
0100
0000
1000
0000
1000
0000
1030
,
0000
1000
0010
0100
0101
0000
1001
0000
,
0010
0010
1000
1000
0001
0001
1000
1000
,
2002
0000
0000
0000
,
0000
0000
3003
0000
;

//---------------dance-single - ----------------
#NOTEDATA:;
#CHARTNAME:;
#STEPSTYPE:dance-single;
#BANNER:;
#DESCRIPTION:;
#CHARTSTYLE:;
#DIFFICULTY:Hard;
#METER:12;
#METERF:0.000000;
#RADARVALUES:0.610653,0.602485,0.389505,0.209734,0.044943,428.000000,389.000000,39.000000,21.000000,0.000000,0.000000,0.000000,0.000000,0.000000,0.610653,0.602485,0.389505,0.209734,0.044943,428.000000,389.000000,39.000000,21.000000,0.000000,0.000000,0.000000,0.000000,0.000000;
#CREDIT:;
#DISPLAYBPM:168.000000;
#NOTES:
0000
0000
0000
0000
,
1000
0010
1000
0100
1000
0001
0100
0001
,
0010
1000
0010
0001
0100
0001
0000
0001
,
1000
0010
1000
0100
0010
0100
1000
0001
,
1000
1100
0000
0001
0100
0101
0000
0001
,
2000
0000
0010
3020
0000
1000
0000
0100
,
0000
1000
0000
0001
0000
1000
0000
0100
,
0230
0000
0001
0302
0000
0100
0000
0010
,
0000
1000
0000
0010
0000
0100
0000
0013
,
0001
0001
0100
0100
0010
0010
1000
1000
,
0100
0100
1000
0100
0001
0100
1000
0010
,
1000
1000
0001
0001
1000
1000
0010
0010
,
0100
0001
0000
0001
1000
0010
0000
1001
,
0000
1000
0100
0001
0000
0001
0100
1000
,
0000
1000
0010
0100
0000
0001
0100
0010
,
1000
0010
0001
0010
0000
0100
0010
0000
,
1010
0000
1000
0001
0000
0001
0100
0010
,
0000
1000
0010
0001
0000
0001
0010
1000
,
0000
1000
1000
0010
0100
0001
0010
0100
,
1000
0100
0010
0100
0000
0100
1000
0000
,
1000
0000
0001
0000
0100
0000
0001
0000
1000
0000
0010
0000
1000
0001
1000
0001
,
1000
1100
0000
1010
0000
0110
0000
1001
,
0000
0001
0100
1000
0000
1000
0100
0001
,
0100
0010
1000
0010
0000
1000
0100
0000
,
0100
1000
0000
1001
0000
0001
0100
0010
,
1000
0001
0010
1000
0000
1000
0010
0001
,
0000
0001
0100
0100
0010
1000
0010
0010
,
1000
0001
0100
0010
0000
0010
1000
0000
,
1000
0000
0010
0000
0100
0000
0001
0000
0010
0000
0100
0000
1000
0001
1000
0001
,
2000
0000
0010
0000
3020
0000
0000
0130
,
0000
0010
1000
0010
0110
0000
0101
0000
,
2001
0000
0001
0000
3001
0000
0001
1000
,
0000
1000
0010
0110
0000
1001
0000
1000
,
0200
0000
1000
0000
2300
0000
0000
3010
,
0000
0010
1000
0100
0010
0000
0011
0000
,
2002
0000
0000
0000
,
0000
0000
0000
0000
3000
0100
0100
0100
,
0103
0001
0100
0001
1000
0010
1000
0010
,
0100
0101
0000
0110
0000
1010
0000
1000
,
0001
0100
0001
0100
0010
1000
0010
1000
,
0100
1100
0000
1001
0000
0110
0000
1001
,
1000
0100
0001
0100
1000
0010
1000
0100
,
0010
0100
1000
0001
1000
0010
0100
0001
,
0100
0000
0000
0000
0001
0000
0010
0000
0000
0000
0001
0000
1000
0001
1000
0000
,
0010
0000
1000
0100
1000
0000
0010
0000
0000
0000
0100
0000
0100
0000
0100
0000
,
0100
0010
0100
1000
0100
0001
0100
0010
,
1000
1010
0000
1001
0000
0110
0000
0101
,
0001
1000
0010
1000
0100
0001
0100
1000
,
0010
0110
0000
1001
0000
0101
0000
0001
,
1000
0100
0010
0001
0010
0100
1000
0001
,
1000
0000
0010
0000
1000
0000
0100
0000
1000
0000
0001
0000
0100
0001
0100
0000
,
0001
0000
0010
0001
0010
0000
0001
0000
0000
0000
1000
0000
0001
1000
0001
0000
,
1000
1000
0010
0010
0100
0100
0001
0001
,
1000
0010
1000
0020
0000
0130
0001
0200
,
0000
0310
1000
0001
0101
0000
0011
0000
,
0001
0100
1000
0200
0000
0301
0010
0002
,
0000
1003
0010
0100
0101
0000
1001
0000
,
1000
0010
0100
0020
0000
1030
0010
0200
,
0000
0301
1000
0100
1100
0000
0110
0000
,
1000
0100
0001
0200
0000
1300
0010
2000
,
0000
3001
0100
0010
1010
0000
0110
0000
,
1000
1000
0001
0001
0010
0010
0100
0100
,
2002
0000
0000
0000
,
0000
0000
3003
0000
;

//---------------dance-single - ----------------
#NOTEDATA:;
#CHARTNAME:;
#STEPSTYPE:dance-single;
#BANNER:;
#DESCRIPTION:;
#CHARTSTYLE:;
#DIFFICULTY:Challenge;
#METER:14;
#METERF:0.000000;
#RADARVALUES:0.677711,0.824453,0.459417,0.329581,0.334575,475.000000,429.000000,46.000000,33.000000,0.000000,0.000000,0.000000,0.000000,0.000000,0.677711,0.824453,0.459417,0.329581,0.334575,475.000000,429.000000,46.000000,33.000000,0.000000,0.000000,0.000000,0.000000,0.000000;
#CREDIT:;
#DISPLAYBPM:168.000000;
#NOTES:
0000
0000
0000
0000
,
1000
0001
0010
1000
0010
0001
0100
0001
,
0100
0000
1000
0000
0100
0000
0010
0000
0100
0000
0010
1000
0000
1000
0100
0000
,
1000
0010
0001
0010
1000
0100
0010
0001
,
1000
1010
0000
0001
0100
0110
0000
0010
,
1000
1020
0000
2030
0000
3200
0000
2300
,
0000
0000
3020
0000
0000
0000
0230
0000
0000
0000
0301
1000
0000
1000
0001
0000
,
0100
0020
0000
2030
0000
3200
0000
0302
,
0000
0203
0000
2300
0000
3020
0000
1030
,
0010
0100
0001
0100
1000
0100
0010
0100
,
0001
0000
0010
0000
1000
0000
0010
0000
0001
0000
1000
0100
1000
0100
1000
0000
,
0010
0100
0001
0100
0010
1000
0010
0001
,
0010
0110
0000
1000
0001
0101
0000
0001
,
1000
0001
0000
0000
0001
0000
0001
1000
0000
0000
1000
0000
1000
0010
0000
0000
,
0010
1000
0000
0000
1000
0000
1000
0100
0000
0000
0100
0000
0100
1000
0000
0000
,
1000
0010
0000
0000
0010
0000
0010
1000
0000
0000
1000
0000
1000
0001
0000
0000
,
0001
0100
0000
0000
0100
0000
0100
0001
0000
0000
0001
0000
1000
0000
0010
0000
,
0100
0010
0000
0000
0010
0000
0010
0100
0000
0000
0100
0000
0100
0001
0000
0000
,
0001
1000
0000
0000
1000
0000
1000
0001
0000
0000
0001
0000
0001
0010
0000
0000
,
0010
0100
0000
0000
0100
0000
0100
0010
0000
0000
0010
0000
0010
0001
0000
0000
,
0001
0100
0000
0000
0100
0000
0100
0010
0000
0000
1000
0000
0010
0000
0100
0000
,
0001
0010
0000
0000
0010
0000
0010
0001
0000
0000
0001
0000
0001
0100
0000
0000
,
0100
0010
0000
0000
0010
0000
0010
0100
0000
0000
0100
0000
0100
0010
0000
0000
,
0010
1000
0000
0000
1000
0000
1000
0001
0000
0000
0001
0000
0001
0100
0000
0000
,
0100
0010
0000
0000
0010
0000
0010
1000
0000
0000
1000
0000
0100
0000
0001
0000
,
0100
1000
0000
0000
1000
0000
1000
0010
0000
0000
0010
0000
0010
0100
0000
0000
,
0100
0001
0000
0000
0001
0000
0001
0010
0000
0000
0010
0000
0010
0001
0000
0000
,
0001
1000
0000
0000
1000
0000
1000
0010
0000
0000
0010
0000
0010
0100
0000
0000
,
0100
0001
0000
0000
0001
0000
0001
1000
0000
1000
0100
1000
0100
1000
0100
1000
,
0020
0000
0000
0100
0100
0000
0000
0001
,
0001
0000
0000
1000
2030
0000
0000
0001
,
3002
0000
0000
0100
0100
0000
0000
0010
,
0023
0000
0030
1001
0000
0110
0000
0001
,
0200
0000
0000
0010
0010
0000
0000
1000
,
1000
0000
0000
0010
0010
0000
0000
0001
,
0002
0000
0000
0000
,
0000
0000
0000
0000
0300
0100
0100
0100
,
0103
0001
1000
0010
0001
0010
1000
0001
,
0100
0110
0000
1010
0000
0110
0000
0100
,
0001
0010
1000
0010
0001
0100
0010
1000
,
0100
1100
0000
1001
0000
1010
0000
0110
,
0010
1000
0010
0100
0010
0001
0010
0100
,
0010
0000
1000
0000
0100
1000
0100
0000
1000
0000
0010
0000
1000
0001
1000
0000
,
0101
0000
0000
0000
0001
0000
0010
0000
0000
0000
0001
0000
1000
0001
1000
0000
,
1010
0000
0010
0100
0000
0001
0001
0001
,
0001
0100
1000
0100
0001
0010
0001
0100
,
0010
1010
0000
1001
0000
0110
0000
0001
,
1000
0100
0001
0100
1000
0100
0010
0100
,
1000
1001
0000
0110
0000
0101
0000
0001
,
1000
0000
0010
0000
0100
0000
0001
0000
0010
0000
0001
0000
0100
0001
0100
0000
,
0001
0000
0010
0000
0001
1000
0001
0000
1100
0000
0000
0000
1010
0000
0000
0000
,
0110
0000
0000
0000
0010
0000
1000
0000
0000
0000
0001
0000
0100
0001
0100
0000
,
0011
0000
0001
1000
0100
1000
0100
1000
0100
0010
0001
0010
0001
0010
0001
1000
,
0002
0010
0013
0001
2000
0100
3100
1000
,
0020
0100
0100
0130
0101
0000
1001
0000
,
0120
0100
0130
0010
2000
0100
3100
0010
,
0200
1000
1300
0001
1001
0000
0110
0000
,
0012
0010
0013
0001
2000
0100
3100
0010
,
0200
1000
1000
1300
1001
0000
1010
0000
,
0201
0001
0301
0100
0020
1000
1030
0001
,
2000
0100
3100
1000
1010
0000
0110
0000
,
1001
1001
1001
1001
1001
1001
1001
1001
,
2002
0000
0000
0000
,
0000
0000
3003
0000
;

//---------------dance-single - ----------------
#NOTEDATA:;
#CHARTNAME:;
#STEPSTYPE:dance-single;
#BANNER:;
#DESCRIPTION:;
#CHARTSTYLE:;
#DIFFICULTY:Easy;
#METER:7;
#METERF:0.000000;
#RADARVALUES:0.319594,0.412226,0.349556,0.289632,0.000000,224.000000,189.000000,35.000000,29.000000,0.000000,0.000000,0.000000,0.000000,0.000000,0.319594,0.412226,0.349556,0.289632,0.000000,224.000000,189.000000,35.000000,29.000000,0.000000,0.000000,0.000000,0.000000,0.000000;
#CREDIT:;
#DISPLAYBPM:168.000000;
#NOTES:
0000
0000
0000
0000
,
1000
0000
0000
0010
0000
0000
0100
0000
,
0000
0001
0000
0000
0010
0000
0001
0000
,
1000
0000
0000
0100
0000
0000
1000
0000
,
1010
0000
0110
0000
,
1001
0000
0000
0100
0000
0200
0000
0000
,
0000
0000
0000
0300
,
1001
0000
0000
0010
0000
0020
0000
0000
,
0000
0000
0000
0030
,
0001
0000
0000
0010
0000
0000
0001
0000
,
0000
1000
0000
0000
0100
0000
1000
0000
,
0010
0000
0000
1000
0000
0000
0100
0000
,
1100
0000
0110
0000
,
0011
0001
1001
0001
,
0101
0001
1000
0100
,
1000
0010
0100
0001
,
1000
0000
0000
1000
0000
0000
0100
0000
,
1001
0010
1010
1000
,
1100
1000
0010
0001
,
0010
1000
0100
0010
,
0100
0000
0000
1000
0000
0000
0100
0000
,
1001
0010
0011
0001
,
0101
0001
1000
0100
,
1000
0010
0100
0001
,
0010
0000
0000
0001
0000
0000
1000
0000
,
1001
0001
0011
0100
,
0101
0001
1000
0100
,
1000
0010
0100
0001
,
0010
0100
1000
0100
,
2000
3000
0020
0030
,
2000
3000
0200
0300
,
2000
3000
0002
0003
,
2000
0000
0000
0010
0000
3010
0000
0000
,
0020
0030
0200
0300
,
0002
0003
2000
3000
,
2002
0000
0000
0000
,
0000
0000
0000
0000
0000
3003
0000
0000
,
1000
1000
0001
0001
,
0100
0101
0011
1001
,
0100
0100
0010
0010
,
1000
1100
0101
1100
,
1000
0100
0001
0100
,
1000
0010
1000
0001
,
0010
0001
0010
1000
,
0010
0001
0010
0001
,
1000
1000
0100
0100
,
1000
1010
1001
0110
,
0010
1000
0010
0100
,
0001
0011
1001
1100
,
1000
0010
0100
0001
,
0010
1000
0010
0001
,
0010
0001
0100
0001
,
1000
0100
0001
0100
,
2000
3000
0200
3300
,
2000
3000
0010
0010
,
1002
0003
0020
0030
,
0002
0003
0100
0100
,
2001
3000
0200
0300
,
0020
0030
0001
0001
,
2010
3000
0020
0030
,
0200
0300
0001
0001
,
2001
0000
0000
0000
,
0002
0000
0000
0000
,
0000
0000
3003
0000
;

//---------------dance-single - ----------------
#NOTEDATA:;
#CHARTNAME:;
#STEPSTYPE:dance-single;
#BANNER:;
#DESCRIPTION:;
#CHARTSTYLE:;
#DIFFICULTY:Beginner;
#METER:4;
#METERF:0.000000;
#RADARVALUES:0.159797,0.221968,0.059924,0.039949,0.000000,112.000000,106.000000,6.000000,4.000000,0.000000,0.000000,0.000000,0.000000,0.000000,0.159797,0.221968,0.059924,0.039949,0.000000,112.000000,106.000000,6.000000,4.000000,0.000000,0.000000,0.000000,0.000000,0.000000;
#CREDIT:;
#DISPLAYBPM:168.000000;
#NOTES:
// measure 0
0000
0000
0000
0000
,  // measure 1
1000
0000
0100
0000
,  // measure 2
0010
0000
0000
0000
,  // measure 3
0001
0000
0010
0000
,  // measure 4
0100
0000
0000
0000
,  // measure 5
1000
0000
1000
0000
,  // measure 6
1000
0000
0000
0000
,  // measure 7
0001
0000
0001
0000
,  // measure 8
0001
0000
0000
0000
,  // measure 9
1000
0000
0100
0000
,  // measure 10
0001
0000
0000
0000
,  // measure 11
0001
0000
0100
0000
,  // measure 12
1000
0000
0000
0000
,  // measure 13
1000
1000
1000
0000
,  // measure 14
1000
0000
0000
0000
,  // measure 15
0100
0100
0100
0000
,  // measure 16
0100
0000
0000
0000
,  // measure 17
0010
0010
0010
0000
,  // measure 18
0010
0000
0000
0000
,  // measure 19
0001
0001
0001
0000
,  // measure 20
0001
0000
0000
0000
,  // measure 21
0001
0001
0001
0000
,  // measure 22
0001
0000
0000
0000
,  // measure 23
0010
0010
0010
0000
,  // measure 24
0010
0000
0000
0000
,  // measure 25
0100
0100
0100
0000
,  // measure 26
0100
0000
0000
0000
,  // measure 27
1000
1000
1000
0000
,  // measure 28
1000
0000
0000
0000
,  // measure 29
0100
0000
1000
0000
,  // measure 30
0010
0000
0000
0000
,  // measure 31
1000
0000
0100
0000
,  // measure 32
0010
0000
0000
0000
,  // measure 33
0001
0000
0100
0000
,  // measure 34
0010
0000
0000
0000
,  // measure 35
2002
0000
0000
0000
,  // measure 36
0000
0000
3003
0000
,  // measure 37
1000
0000
1000
0000
,  // measure 38
1000
0000
0000
0000
,  // measure 39
0010
0000
0010
0000
,  // measure 40
0010
0000
0000
0000
,  // measure 41
0100
0000
0100
0000
,  // measure 42
0100
0000
0000
0000
,  // measure 43
0001
0000
0001
0000
,  // measure 44
0001
0000
0000
0000
,  // measure 45
1000
1000
1000
0000
,  // measure 46
1000
0000
0000
0000
,  // measure 47
0010
0010
0010
0000
,  // measure 48
0010
0000
0000
0000
,  // measure 49
0100
0100
0100
0000
,  // measure 50
0100
0000
0000
0000
,  // measure 51
0001
0001
0001
0000
,  // measure 52
0001
0000
0000
0000
,  // measure 53
0001
0000
0001
0000
,  // measure 54
0001
0000
1001
0000
,  // measure 55
1000
0000
1000
0000
,  // measure 56
1000
0000
1001
0000
,  // measure 57
0010
0000
0010
0000
,  // measure 58
0010
0000
0110
0000
,  // measure 59
0100
0000
0100
0000
,  // measure 60
0100
0000
0110
0000
,  // measure 61
1002
0000
0000
0000
,  // measure 62
2000
0000
0000
0000
,  // measure 63
0000
0000
3003
0000
;
