#VERSION:0.83;
#TITLE:Glockenpop;
#SUBTITLE:;
#ARTIST:Spiderbait;
#TITLETRANSLIT:;
#SUBTITLETRANSLIT:;
#ARTISTTRANSLIT:;
#GENRE:POP ROCK;
#ORIGIN:;
#TAGS:;
#CREDIT:YonabearCWY;
#BANNER:Glockenpop.png;
#BACKGROUND:Glockenpop-bg.png;
#PREVIEWVID:;
#JACKET:Glockenpop-jacket.png;
#CDIMAGE:;
#DISCIMAGE:Glockenpop-jacket2.png;
#LYRICSPATH:;
#CDTITLE:Grand Slam.png;
#MUSIC:Glockenpop.ogg;
#OFFSET:-0.120000;
#SAMPLESTART:39.970001;
#SAMPLELENGTH:15.000000;
#SELECTABLE:YES;
#DISPLAYBPM:119.000000;
#BPMS:0.000000=118.973999
,8.000000=118.678001
,48.000000=118.660004
,127.000000=121.127998
,129.000000=118.357002
,148.000000=118.660004
,239.000000=121.127998
,241.000000=118.357002
,260.000000=118.660004
,340.000000=118.362999
,348.000000=118.660004
;
#STOPS:;
#DELAYS:;
#WARPS:;
#TIMESIGNATURES:0.000000=4=4
;
#TICKCOUNTS:0.000000=4
;
#COMBOS:0.000000=1
;
#SPEEDS:0.000000=1.000000=0.000000=0
;
#SCROLLS:0.000000=1.000000
;
#LABELS:0.000000=Song Start
;
#BGCHANGES:-2.000=Glockenpop.avi=1.000=1=0=0=StretchNoLoop==CrossFade==,
374.000=Glockenpop-bg.png=1.000=1=0=1===CrossFade==,
99999.000=-nosongbg-=1.000=0=0=0=StretchNoLoop====,
99999=-nosongbg-=1.000=0=0=0 // don't automatically add -songbackground-
;
#KEYSOUNDS:;
#ATTACKS:
;

//---------------dance-single - ----------------
#NOTEDATA:;
#CHARTNAME:;
#CHARTHASH:2848324188;
#STEPSTYPE:dance-single;
#BANNER:;
#DESCRIPTION:;
#CHARTSTYLE:;
#DIFFICULTY:Easy;
#METER:5;
#METERF:5.000000;
#LASTSECONDHINT:189.236130;
#RADARVALUES:0.189239,0.239106,0.040917,0.158552,0.000000,259.000000,251.000000,8.000000,31.000000,0.000000,0.000000,0.000000,0.000000,0.000000,0.189239,0.239106,0.040917,0.158552,0.000000,259.000000,251.000000,8.000000,31.000000,0.000000,0.000000,0.000000,0.000000,0.000000;
#CREDIT:;
#DISPLAYBPM:119.000000;
#NOTES:
0000
0000
0000
0000
,
0000
0000
0000
0000
,
0000
0000
0000
0000
,
0000
0000
0000
0000
,
2000
0000
3000
0000
,
0002
0000
0003
0000
,
1000
1000
1000
0000
,
0001
0001
0001
0000
,
0200
0000
0300
0000
,
0020
0000
0030
0000
,
0100
0100
0100
0000
,
0010
0010
0010
0000
,
1001
0000
1000
0010
,
0101
0000
0001
0010
,
0100
0100
0100
0000
,
1000
1000
1000
0000
,
0110
0000
0100
0001
,
0011
0000
0001
1000
,
0100
0100
0100
0000
,
0010
0010
0010
0000
,
0001
0001
0001
0000
,
0001
0100
0001
0000
,
1000
1000
1000
0000
,
0010
1000
0010
0000
,
0100
0100
0100
0000
,
0010
0100
0010
0000
,
1000
1000
0001
0001
,
2000
0000
0000
3000
,
0001
0100
0100
0000
,
1000
0100
0100
0000
,
0001
0010
0010
0000
,
1000
0010
0010
0000
,
1001
0001
0001
0000
,
1000
1000
1000
0000
,
0010
0010
0010
0000
,
0100
0100
0100
0000
,
0001
0010
0010
0000
,
1000
0010
0010
0000
,
0001
0100
0100
0000
,
1000
0100
0100
0000
,
0002
0100
0103
0000
,
0200
0010
0310
0000
,
0020
1000
0031
0000
,
0200
0001
1300
0000
,
0020
1000
1030
0000
,
2000
0100
3100
0000
,
2000
0001
3001
0100
,
0001
0100
0010
1000
,
0001
0001
0001
0000
,
1000
0010
1000
0000
,
0010
0010
0010
0000
,
0100
0010
0100
0000
,
0001
0001
0001
0000
,
0010
0001
0010
0000
,
0100
0100
0100
0000
,
1000
0001
1000
0001
,
2002
0000
0000
0000
,
0000
0000
0000
0000
,
3003
0000
0000
0000
,
0000
0000
0000
0000
,
2000
0100
3010
0000
,
0010
0000
0100
0000
,
0002
0100
1003
0000
,
0100
0000
0001
0000
,
2000
0010
3001
0000
,
0010
0000
0100
0000
,
0002
1000
0103
0000
,
0001
0000
1000
0000
,
0020
1000
0130
0010
,
0100
0000
0010
1000
,
0002
1000
0103
0001
,
1000
0000
0100
1000
,
0020
0100
0031
0010
,
0100
0000
0001
1000
,
0200
0001
1300
0100
,
1000
0001
0010
0001
,
1000
1000
1000
0000
,
0001
0010
0001
0000
,
0100
0100
0100
0000
,
0010
0100
0010
0000
,
1000
1000
1000
0000
,
0001
1000
0001
0000
,
1000
1000
0001
0001
,
2000
0000
0000
3001
,
1001
0001
0010
0001
,
1000
0100
1000
0100
,
0010
0001
0010
0001
,
1000
0001
0100
0001
,
2000
3000
0200
0300
,
2000
3000
0020
0030
,
0200
0300
0002
0003
,
1000
0001
1000
0001
,
2002
0000
0000
0000
,
0000
0000
3003
0000
;

//---------------dance-single - ----------------
#NOTEDATA:;
#CHARTNAME:;
#CHARTHASH:773346661;
#STEPSTYPE:dance-single;
#BANNER:;
#DESCRIPTION:;
#CHARTSTYLE:;
#DIFFICULTY:Medium;
#METER:8;
#METERF:8.000000;
#LASTSECONDHINT:189.236130;
#RADARVALUES:0.314181,0.334748,0.127864,0.235270,0.000000,430.000000,405.000000,25.000000,46.000000,0.000000,0.000000,0.000000,0.000000,0.000000,0.314181,0.334748,0.127864,0.235270,0.000000,430.000000,405.000000,25.000000,46.000000,0.000000,0.000000,0.000000,0.000000,0.000000;
#CREDIT:;
#DISPLAYBPM:119.000000;
#NOTES:
0000
0000
0000
0000
,
0000
0000
0000
0000
,
0000
0000
0000
0000
,
0000
0000
0000
0000
,
2000
0000
3001
0010
0000
0000
0000
0000
,
0002
0000
1003
0100
0000
0000
0000
0000
,
1000
0000
0010
0100
0010
0000
0100
0000
,
0001
0000
0100
0010
0100
0000
0010
0000
,
0200
0000
0310
1000
0000
0000
0000
0000
,
0020
0000
0130
0001
0000
0000
0000
0000
,
1000
0000
0001
1000
0001
0000
1000
0000
,
0001
0000
1000
0001
1000
0000
0001
0000
,
1001
0000
0001
0020
0000
0000
0031
0000
,
1000
0000
0100
2000
0000
0000
3010
0000
,
0110
0000
0100
0001
0100
0000
0001
0000
,
0010
0000
0100
1000
0100
0000
0010
0000
,
0002
0000
1003
0100
0000
0000
0010
0001
,
0020
0000
0031
0100
0000
0000
0100
0010
,
0200
0000
0310
1000
0010
0000
0100
0000
,
0002
0000
1003
0001
1000
0000
0010
0000
,
2001
0000
0100
0100
0000
0000
3100
0000
,
1002
0000
0010
0010
0000
0000
0013
0000
,
2001
0100
0010
3100
,
1002
0010
0100
0013
,
0200
0000
0001
0001
0300
0000
0001
0000
,
2000
0000
0010
0010
3000
0000
0100
0000
,
1000
0100
0010
0001
,
2000
0000
0000
0000
0000
0000
0001
3001
,
0000
1000
0101
0001
,
1010
1000
0010
0100
,
0001
1001
0100
0110
,
0010
1000
0100
0010
,
0002
0000
1003
0010
0000
0000
0010
0100
,
0020
0000
0130
0001
0000
0001
1000
0001
,
1000
0000
0010
0000
0100
0000
0001
1000
,
0001
0000
1000
0000
0100
0000
0010
0001
,
0020
0000
0031
1000
0000
0000
0100
1000
,
0200
0000
1300
0001
0000
0010
0001
0010
,
0001
0000
1000
0100
1000
0000
0010
0000
,
0100
0000
0001
1000
0001
0000
1000
0000
,
1200
1000
0001
1000
,
0320
0001
1000
0001
,
0130
0000
0010
0001
0010
0000
0001
0000
,
1000
0000
0001
1000
0001
0000
1000
0000
,
0100
0000
1000
0100
0000
0100
1000
0100
,
0000
1000
0001
1000
0000
0001
0010
0001
,
0000
0100
0010
0100
0000
0010
0100
0000
,
0001
1001
1010
0010
,
0210
0000
0001
0001
0000
0000
0301
0000
,
0120
0000
1000
1000
0000
0000
1030
0000
,
2001
0000
0010
0010
0000
0000
3010
0000
,
1002
0000
0100
0100
0000
0100
0103
0000
,
0200
0000
0310
0100
0000
0000
0010
0000
,
2000
0000
3001
1000
0000
1000
0001
0000
,
0100
0010
1000
0100
,
0020
0000
0000
0031
,
2002
0000
0000
0000
,
0000
0000
0000
0000
,
3003
0000
0000
0000
,
0000
0000
0000
0000
0000
0000
1000
0001
,
1000
0000
0010
1000
0000
0010
0100
0000
,
0010
0000
0100
0001
0100
0000
0001
1000
,
0001
0000
1000
0100
0000
0010
0001
0000
,
0100
0000
0010
0100
0010
0000
1000
0001
,
1000
0000
0010
0100
0000
0010
1000
0000
,
0100
0000
1000
0001
1000
0000
0001
0010
,
0001
0000
0100
0010
0000
1000
0010
0000
,
0100
0001
0100
0001
0000
0001
0010
0100
,
1000
0000
0100
1000
0100
0000
1000
0000
,
0010
0100
0001
0100
0000
0001
1000
0100
,
0010
0000
0001
0010
0001
0000
1000
0000
,
0100
0010
0001
1000
0000
0010
0100
0000
,
0010
0000
1000
0100
1000
0000
0001
0000
,
0100
0001
0010
0001
0000
0001
0010
0100
,
1000
0000
0100
1000
0100
0000
1000
0000
,
1001
0000
0110
0000
0010
1000
0010
1000
,
0002
0000
1000
1000
0000
0000
1003
0000
,
0200
0000
0010
0010
0000
0310
1000
0001
,
0200
0000
0010
0010
0000
0000
0310
0000
,
2000
0000
0100
0100
0000
0001
3001
0000
,
1000
0010
0100
0001
0000
0001
0010
0000
,
0001
0010
0100
1000
0000
1000
0100
0000
,
1000
0001
1000
0001
0000
0010
0001
0010
,
0002
1000
0100
1003
,
2001
0000
0001
0000
0010
0010
3010
0000
,
1002
0000
0100
0000
0010
0010
0013
0000
,
0120
0000
0001
0000
1000
1000
1030
0000
,
0210
0000
1000
0000
0001
0001
0301
0000
,
0100
0001
0100
0002
0000
0000
0003
0000
,
1000
0010
1000
0020
0000
0000
0030
0000
,
0100
0010
0100
0020
0000
0000
0030
1000
,
0100
0010
0001
1000
0000
0001
1000
0000
,
2002
0000
0000
0000
,
0000
0000
3003
0000
;

//---------------dance-single - ----------------
#NOTEDATA:;
#CHARTNAME:;
#CHARTHASH:3594000006;
#STEPSTYPE:dance-single;
#BANNER:;
#DESCRIPTION:;
#CHARTSTYLE:;
#DIFFICULTY:Hard;
#METER:10;
#METERF:10.000000;
#LASTSECONDHINT:189.236130;
#RADARVALUES:0.397475,0.430391,0.143208,0.255728,0.000000,544.000000,516.000000,28.000000,50.000000,0.000000,0.000000,0.000000,0.000000,0.000000,0.397475,0.430391,0.143208,0.255728,0.000000,544.000000,516.000000,28.000000,50.000000,0.000000,0.000000,0.000000,0.000000,0.000000;
#CREDIT:;
#DISPLAYBPM:119.000000;
#NOTES:
0000
0000
0000
0000
,
0000
0000
0000
0000
,
0000
0000
0000
0000
,
0000
0000
0000
0000
,
2000
0000
3001
0100
0002
0000
0003
0000
,
0002
0000
1003
0100
2000
0000
3000
0000
,
0010
0000
0100
0010
0100
0000
1001
0000
,
0100
0000
0010
0100
0010
0000
1001
0000
,
2000
0000
3100
1000
0000
1000
0010
0000
,
0200
0000
0301
0100
0000
0100
0010
0000
,
0100
0000
0001
0100
0001
0000
0110
0000
,
0010
0000
1000
0010
1000
0000
0110
0000
,
0002
0000
1003
0100
0000
0010
0001
1000
,
0200
0000
1300
0001
0000
0001
1000
0000
,
0010
0000
0100
0001
0100
0001
1000
0000
,
0010
0000
1000
0100
1000
0100
0010
0000
,
0002
0000
1003
0001
0000
0001
0010
0100
,
2000
0000
3100
1000
0000
1000
0010
0100
,
0001
0000
1000
0010
1000
0010
0100
0000
,
0010
0110
0110
0000
0100
0001
0100
0001
,
2000
0000
0010
0010
0000
0001
0001
0000
,
3100
1000
0100
1000
0000
0100
0010
0001
,
0200
0000
0010
0010
0000
0001
0001
0000
,
0301
0100
0001
0100
0000
0001
1000
0100
,
0020
0000
0100
0100
0000
0001
0031
0000
,
0001
1000
0001
1000
0000
0010
0100
0010
,
0100
0001
1000
0100
0000
0010
0001
1000
,
0010
0100
0100
0100
0100
0100
0100
0000
,
1002
0000
1003
0100
0010
0001
1000
0000
,
2001
0000
3010
0100
0001
0010
0001
0000
,
0210
0000
0301
0100
1000
0100
0010
0000
,
0120
0000
1030
0010
0001
0010
0100
0000
,
1001
0001
1000
0200
0000
1300
0100
1000
,
0010
0000
0100
0001
0000
0001
1000
0010
,
0200
0000
0001
0001
0000
0010
0310
0000
,
0020
0000
1000
1000
0000
0100
0130
0000
,
0110
0100
0001
2000
0000
3001
0010
0001
,
1000
0000
0100
0010
0000
0010
0001
1000
,
0200
0000
1000
1000
0000
0010
0310
0000
,
2000
0000
0001
0001
0000
0010
3010
0000
,
0020
1000
0001
1000
,
0230
0001
1000
0001
,
0320
0000
1030
0100
0010
0001
1000
0001
,
0020
0000
0031
0010
0100
1000
0100
0010
,
0200
1000
0001
0010
,
1300
0001
1000
0002
0000
0013
0001
0020
,
0000
0031
1000
0001
1000
0100
0020
0000
,
0031
0101
0101
0000
1000
0010
1000
0001
,
0200
0000
1000
1000
0000
0001
0001
0000
,
0310
0100
0010
0100
0000
0001
1000
0100
,
0020
0000
1000
1000
0000
0001
0001
0000
,
0031
0010
0001
0010
0000
0001
1000
0100
,
2000
0000
0001
0001
0000
0010
3010
0000
,
1000
0100
0010
0001
0000
0001
0010
0100
,
1000
0000
0100
1000
0000
1000
0010
0100
,
0001
0100
0100
0100
0100
0100
0100
0000
,
2002
0000
0000
0000
,
0000
0000
0000
0000
,
3003
0000
0000
0000
,
0000
0000
0000
0000
0000
0000
1000
1000
,
1001
0000
0001
0010
0000
0001
1001
0000
,
0100
0100
0100
0100
0000
1000
0100
0010
,
0011
0000
0001
0100
0000
0010
1010
0010
,
0100
0100
0100
0100
0000
0001
0100
0010
,
1010
0000
1000
1001
0000
0001
0010
0000
,
0100
0100
0100
0100
0000
1000
0100
0010
,
0011
0000
0001
1000
0000
0100
0010
0001
,
0010
0010
0010
0010
0000
0001
0010
0100
,
1000
0100
1000
0010
0100
0100
0100
0000
,
0010
0010
0010
0010
0000
1000
0100
0010
,
0001
0010
0001
1000
0100
0100
0100
0000
,
1000
1000
1000
1000
0000
0010
1000
0100
,
0010
0001
0010
0001
0100
0100
0100
0000
,
0010
0010
0010
0010
0000
0100
0001
0100
,
0010
1000
0100
0001
0100
1000
0010
0100
,
0001
1000
1001
0000
1000
0001
1001
0010
,
0200
0000
0001
0001
0000
1000
1000
0000
,
1300
0100
0010
1000
0000
0001
1000
0001
,
0020
0000
0001
0001
0000
1000
1000
0000
,
0031
0010
0001
0100
0010
1000
0100
0010
,
0002
0000
1000
1000
0000
0100
0100
0000
,
1003
0001
0010
0100
0000
1000
0100
0010
,
0100
0000
1000
0001
0000
0001
0100
0010
,
1000
0001
0001
0001
0001
0001
0001
0001
,
0002
0000
1003
0100
0010
0001
2000
0000
,
3020
0000
0130
0010
0001
0010
0100
0010
,
2000
0000
3100
0010
0001
0010
0200
0000
,
2300
0000
3001
1000
0100
0010
0100
1000
,
1002
0000
1003
0100
0010
0001
0001
0001
,
2100
0000
3010
0100
0001
1000
1000
1000
,
0120
0000
0130
0001
0100
0010
0010
0010
,
1000
0100
0010
0001
0000
0001
1000
0000
,
2002
0000
0000
0000
,
0000
0000
3003
0000
;

//---------------dance-single - ----------------
#NOTEDATA:;
#CHARTNAME:;
#CHARTHASH:1285291783;
#STEPSTYPE:dance-single;
#BANNER:;
#DESCRIPTION:;
#CHARTSTYLE:;
#DIFFICULTY:Challenge;
#METER:12;
#METERF:0.000000;
#LASTSECONDHINT:189.236130;
#RADARVALUES:0.531915,0.597765,0.271072,0.092062,0.273629,728.000000,675.000000,53.000000,18.000000,0.000000,0.000000,0.000000,0.000000,0.000000,0.531915,0.597765,0.271072,0.092062,0.273629,728.000000,675.000000,53.000000,18.000000,0.000000,0.000000,0.000000,0.000000,0.000000;
#CREDIT:;
#DISPLAYBPM:119.000000;
#NOTES:
0000
0000
0000
0000
,
0000
0000
0000
0000
,
0000
0000
0000
0000
,
0000
0000
0000
0000
,
1000
0010
0100
0001
0000
0100
0001
0100
,
0000
0001
0100
0001
0000
1000
1000
1000
,
0000
0010
1000
0010
0000
0010
0010
0000
,
0100
0001
1000
0010
0000
0100
0100
0000
,
0010
1000
0010
0100
0000
0010
0100
0010
,
0000
0100
0001
0100
0000
0001
0001
0001
,
1000
0000
1000
0001
0000
0010
0010
0000
,
0001
0100
0010
1000
0000
0100
0100
0000
,
1001
0000
0000
1000
0010
0000
1000
0000
0000
0000
0010
0000
1000
0000
0001
0000
,
0100
0000
0000
0001
0100
0000
0001
0000
0000
0100
0001
0000
0010
0000
0001
0000
,
1000
0000
0000
1000
0001
0000
0100
0000
0000
0001
1000
0000
0010
0000
0100
0010
,
0100
0000
0000
0010
1000
0000
0100
0000
0000
1000
0100
0000
1000
0000
0001
1000
,
0001
0100
0010
0100
0000
0001
1000
0001
,
1000
0000
0000
1000
0010
0000
1000
0000
0000
0001
0100
0000
0001
0000
0010
0001
,
0010
0000
0001
0000
0100
0000
0010
0000
0000
0000
1000
0000
0010
0000
1000
0100
,
1000
0000
1001
0000
1001
0000
0000
0010
1000
0010
1000
0010
1000
0010
1000
0000
,
0010
0010
0100
0001
0000
0001
1000
1000
,
0001
0000
0100
0000
0001
0000
0001
0000
0000
0000
1000
0000
0100
0000
0010
0001
,
0010
0001
0001
0100
0000
0001
1000
1000
,
1000
0000
0010
0000
0010
0000
1000
0000
0000
0000
0100
0000
1000
0000
0001
1000
,
0001
0000
0100
0000
0001
0000
0001
0000
0000
0000
0010
0000
0001
0000
0100
0001
,
0100
0000
0001
0000
0001
0000
1000
0000
0000
0000
0010
0000
1000
0000
0100
1000
,
0100
1000
1000
1000
0000
0010
0100
0001
,
1000
1001
1001
1001
1001
1001
1001
1001
,
0110
0000
0010
1000
0000
1000
0100
0000
,
0100
1000
0001
0100
0000
0100
0001
0000
,
0001
0000
0001
0010
0000
0010
1000
0000
,
0100
0010
0001
0010
0000
0001
1000
0000
,
1001
0000
0000
1000
0010
0000
0100
0000
0000
0100
0001
0000
0010
0000
0100
0000
,
1000
0000
0000
1000
0010
0000
0100
0000
0000
0100
0001
0000
1000
0000
0100
0000
,
0010
0000
0001
0010
0001
0000
0100
0000
0000
0000
1001
0000
1001
0000
1000
0010
,
1000
0000
0100
0000
1000
0000
0010
0000
0000
0000
1001
0000
1001
0000
1000
0001
,
1000
0000
0000
0001
0100
0000
0001
0000
0000
0010
0001
0000
1000
0000
0100
0000
,
0010
0000
0000
0100
0010
0000
0100
0000
0000
1000
0010
0000
1000
0000
0001
0000
,
0100
0000
0001
0100
0010
0000
1000
0000
0000
0000
1010
0000
1010
0000
1000
0001
,
0100
0000
0000
0100
0001
0000
0010
0000
0000
0000
0011
0000
0011
0000
0001
1000
,
0010
1010
0000
1001
0000
1100
0000
1001
,
0000
0101
0000
0011
0000
1001
0000
0110
,
0010
0000
1000
0001
0100
0000
1100
0000
0000
0000
1001
0000
1001
0000
0001
0010
,
0100
0000
1000
0100
0010
0000
0011
0000
0000
0000
1001
0000
1001
0000
0001
0100
,
0010
1000
0100
1000
0100
0010
0001
0010
,
0001
1000
0010
2000
0000
3001
0100
0002
,
0000
0013
0001
0020
0001
0001
0031
0000
,
1001
0000
1001
0000
1000
0100
0000
0000
0010
0001
0010
0001
0010
0001
1000
0000
,
0001
0010
0010
0001
0000
1000
0001
0001
,
1000
0000
0100
0000
0100
0000
1000
0000
0000
0000
0010
0000
0100
0000
0001
0100
,
0001
1000
1000
0010
0000
0100
0010
0010
,
0100
0000
0001
0000
0001
0000
0010
0000
0000
0010
0001
0000
1000
0000
0001
1000
,
0001
0001
1000
0100
0000
0100
1000
1000
,
0010
0000
0100
0000
0100
0000
0001
0000
0000
0001
1000
0000
0010
0000
1000
0100
,
1000
0010
0100
0001
0000
0001
0010
0100
,
1000
1001
1001
1001
1001
1001
1001
0000
,
0220
0000
0000
0000
,
0000
0000
0000
0000
,
0330
0000
0000
0000
,
0000
0000
0000
0000
0000
0000
0100
0100
,
0101
0000
0000
1000
0001
0000
1000
0000
0000
0010
1000
0000
0100
0000
1000
0001
,
1000
0000
1000
0000
1000
0000
1000
0000
0000
1000
0010
0000
0100
0000
0001
0000
,
0011
0000
0000
0100
0001
0000
1000
0000
0000
1000
0100
0000
0010
0000
0100
1000
,
0100
0000
0100
0000
0100
0000
0100
0000
0000
0000
1000
0001
1000
0000
0010
0000
,
0110
0000
0000
0100
0001
0000
0010
0000
0000
0001
1000
0000
0100
0000
0010
0001
,
0010
0010
0010
0010
0000
0001
0010
0100
,
1100
0000
0000
1000
0001
0000
0010
0000
0000
0001
0100
0000
0010
0000
1000
0010
,
1000
0000
1000
0000
1000
0000
1000
0000
0000
0000
0001
0100
0001
0000
1000
0010
,
1000
0010
0100
0010
0100
0001
0100
0001
,
2000
0100
0100
3100
2000
0001
0001
3001
,
1000
0010
0001
0010
0100
0010
0100
0010
,
2000
0100
0100
3100
0020
0001
0001
0031
,
0100
0000
0001
0000
0100
0000
0001
1000
0100
0000
0010
0000
0100
0000
0010
0100
,
1000
0000
0000
1000
0001
0000
0010
0001
0010
0000
0002
0000
1000
0000
1000
0000
,
1003
0000
0001
0000
0010
0000
0100
0010
0001
0000
0010
0000
1000
0000
0100
1000
,
0100
0000
1100
0000
1000
0001
0000
0010
0001
0010
0001
0010
0001
0010
0001
0000
,
1000
0000
1000
0000
0100
0000
0010
0000
0000
0000
0001
0000
0010
0000
0001
1000
,
0001
0000
0100
0000
0100
0000
0010
0000
0000
0010
1000
0000
0001
0000
0100
0010
,
0100
0010
1000
1000
0000
0100
0010
0001
,
1000
0000
0010
0000
0010
0000
0100
0000
0000
0001
1000
0000
0100
0000
0010
0001
,
0010
0000
0100
0000
0100
0000
0001
0000
0000
0000
0100
0000
1000
0000
0100
1000
,
0001
0000
0001
0000
0010
0000
0100
0000
0000
0100
1000
0000
0100
0010
0100
0000
,
1000
1000
0001
0100
0001
0001
1000
0010
,
0100
0000
0110
0000
0110
0000
0110
0000
0110
0000
0100
0010
0100
0010
0100
0010
,
0100
0001
0000
0001
0100
0000
0001
0000
1000
0000
0100
0000
0010
0000
0000
0000
,
0001
0010
0000
0010
0001
0000
1000
0010
1000
0010
1000
0000
0001
0100
0000
0100
,
0010
0100
0000
0100
0010
0000
0100
0001
0100
0000
0010
0000
1000
0000
0000
0000
,
1000
0001
0000
0001
1000
0000
0001
0010
0001
0010
0001
0000
0100
0000
0010
1000
,
0002
0010
0010
0013
0200
1000
1000
1300
,
0200
0010
0010
0310
0002
1000
1000
1003
,
0200
0001
0001
0301
0020
1000
1000
1030
,
0010
0000
0100
0000
0001
0100
0000
0001
1000
0000
1000
0100
0010
0001
1000
0000
,
2002
0000
0000
0000
,
0000
0000
3003
0000
;

//---------------dance-single - ----------------
#NOTEDATA:;
#CHARTNAME:;
#CHARTHASH:4249086489;
#STEPSTYPE:dance-single;
#BANNER:;
#DESCRIPTION:;
#CHARTSTYLE:;
#DIFFICULTY:Beginner;
#METER:1;
#METERF:0.000000;
#LASTSECONDHINT:0.120000;
#RADARVALUES:0.106675,0.167374,0.015344,0.051146,0.000000,146.000000,143.000000,3.000000,10.000000,0.000000,0.000000,0.000000,0.000000,0.000000,0.106675,0.167374,0.015344,0.051146,0.000000,146.000000,143.000000,3.000000,10.000000,0.000000,0.000000,0.000000,0.000000,0.000000;
#CREDIT:;
#DISPLAYBPM:119.000000;
#NOTES:
// measure 0
0000
0000
0000
0000
,  // measure 1
0000
0000
0000
0000
,  // measure 2
0000
0000
0000
0000
,  // measure 3
0000
0000
0000
0000
,  // measure 4
1000
0000
0000
0000
,  // measure 5
1000
0000
0000
0000
,  // measure 6
0001
0000
0000
0000
,  // measure 7
0001
0000
0000
0000
,  // measure 8
0010
0000
0000
0000
,  // measure 9
0010
0000
0000
0000
,  // measure 10
0001
0000
0000
0000
,  // measure 11
0001
0000
0000
0000
,  // measure 12
0100
0100
0100
0000
,  // measure 13
0100
0000
0000
0000
,  // measure 14
0010
0010
0010
0000
,  // measure 15
0010
0000
0000
0000
,  // measure 16
0001
0001
0001
0000
,  // measure 17
0001
0000
0000
0000
,  // measure 18
1000
1000
1000
0000
,  // measure 19
1000
0000
0000
0000
,  // measure 20
1000
0000
0000
0000
,  // measure 21
1000
0000
0000
0000
,  // measure 22
0100
0000
0000
0000
,  // measure 23
0100
0000
0000
0000
,  // measure 24
0010
0000
0000
0000
,  // measure 25
0010
0000
0000
0000
,  // measure 26
0001
0000
0000
0000
,  // measure 27
0001
0000
0000
0000
,  // measure 28
1000
1000
1000
0000
,  // measure 29
1000
0000
0000
0000
,  // measure 30
0001
0001
0001
0000
,  // measure 31
0001
0000
0000
0000
,  // measure 32
0100
0000
0100
0100
,  // measure 33
0100
0000
0010
0010
,  // measure 34
0010
0000
1000
0001
,  // measure 35
0100
0000
0001
1000
,  // measure 36
0100
0000
0100
0100
,  // measure 37
0100
0000
1000
1000
,  // measure 38
1000
0000
0010
0100
,  // measure 39
0001
0000
0001
1000
,  // measure 40
0100
0000
0100
0000
,  // measure 41
0010
0000
0010
0000
,  // measure 42
0001
0001
0001
0000
,  // measure 43
1000
1000
1000
0000
,  // measure 44
0010
0000
0010
0000
,  // measure 45
0100
0000
0100
0000
,  // measure 46
0001
0000
0001
0000
,  // measure 47
1000
0000
1000
0000
,  // measure 48
0001
0000
0001
0000
,  // measure 49
0010
0000
0010
0000
,  // measure 50
0100
0000
0100
0000
,  // measure 51
1000
0000
1000
0000
,  // measure 52
0100
0000
0100
0000
,  // measure 53
0010
0000
0010
0000
,  // measure 54
0001
0000
0001
0000
,  // measure 55
1000
0000
0001
0000
,  // measure 56
2002
0000
0000
0000
,  // measure 57
0000
0000
0000
0000
,  // measure 58
3003
0000
0000
0000
,  // measure 59
0000
0000
0000
0000
,  // measure 60
1000
0000
0000
0000
,  // measure 61
1000
0000
0000
0000
,  // measure 62
0001
0000
0000
0000
,  // measure 63
0001
0000
0000
0000
,  // measure 64
0010
0000
0000
0000
,  // measure 65
0010
0000
0000
0000
,  // measure 66
0100
0000
0000
0000
,  // measure 67
0100
0000
0000
0000
,  // measure 68
1000
0000
0000
0000
,  // measure 69
1000
0000
0000
0000
,  // measure 70
0100
0000
0000
0000
,  // measure 71
0100
0000
0000
0000
,  // measure 72
0010
0000
0000
0000
,  // measure 73
0010
0000
0000
0000
,  // measure 74
0001
0000
0000
0000
,  // measure 75
0001
0000
0000
0000
,  // measure 76
1000
0000
1000
0000
,  // measure 77
0001
0000
0001
0000
,  // measure 78
0010
0000
0010
0000
,  // measure 79
1000
0000
1000
0000
,  // measure 80
0010
0000
0010
0000
,  // measure 81
0001
0000
0001
0000
,  // measure 82
1000
0000
1000
0000
,  // measure 83
0001
0000
0001
0000
,  // measure 84
2002
0000
0000
0000
,  // measure 85
0000
0000
3003
0000
,  // measure 86
1000
1000
1000
0000
,  // measure 87
1000
1000
1000
0000
,  // measure 88
0002
0000
0003
0000
,  // measure 89
0002
0000
0003
0000
,  // measure 90
2000
0000
3000
0000
,  // measure 91
2000
0000
3000
0000
,  // measure 92
2002
0000
0000
0000
,  // measure 93
0000
0000
3003
0000
;
