#TITLE:Give Me!;
#SUBTITLE:;
#ARTIST:F.K.;
#TITLETRANSLIT:;
#SUBTITLETRANSLIT:;
#ARTISTTRANSLIT:;
#GENRE:;
#CREDIT:YonabearCWY;
#BANNER:Give Me!.png;
#BACKGROUND:Give Me!-bg.png;
#LYRICSPATH:;
#CDTITLE:SHAKE II.png;
#MUSIC:Give Me!.ogg;
#OFFSET:-1.650000;
#SAMPLESTART:3.225000;
#SAMPLELENGTH:15.000000;
#SELECTABLE:YES;
#DISPLAYBPM:75.000000:149.000000;
#BPMS:0.000000=149.000000
,212.000000=74.500000
,224.000000=149.000000
;
#STOPS:
;
#BGCHANGES:;
#KEYSOUNDS:;
#ATTACKS:;

//---------------dance-single - ----------------
#NOTES:
     dance-single:
     :
     Easy:
     6:
     0.276236,0.369668,0.161137,0.151659,0.000000,204.000000,187.000000,17.000000,16.000000,0.000000,0.000000,0.276236,0.369668,0.161137,0.151659,0.000000,204.000000,187.000000,17.000000,16.000000,0.000000,0.000000:
0000
0000
0000
0000
,
1000
1000
0001
0000
,
0001
0001
1000
0000
,
0010
0100
0010
1001
,
0100
0000
0010
0010
,
0010
1000
1000
0000
,
0001
0100
0100
0000
,
0001
1000
1000
0110
,
2000
0000
3001
1001
,
0100
0000
0010
1000
,
0100
0000
0010
0001
,
1000
1000
0100
0100
,
0010
0010
0001
0010
,
0100
0000
1000
0000
,
0001
0001
0100
0100
,
0010
1000
0100
0010
,
1001
0000
0100
1001
,
0010
0000
0010
0000
,
1000
1000
0001
0001
,
0010
0000
0100
0000
,
1000
1000
0100
0100
,
0011
0001
0100
0000
,
0001
1000
0100
0010
,
0001
0000
0001
1000
,
0100
0000
1000
0010
,
0100
0000
0010
0000
,
1000
0000
0010
0000
,
0220
0000
0000
0000
,
0330
2002
0000
3003
,
1000
0000
1000
0000
1000
0000
0000
0001
,
0000
0001
0000
0001
0000
0001
0000
0000
,
1000
1000
1000
0000
,
0001
0010
0100
1000
,
0001
0000
0001
0000
0001
0000
0000
1000
,
0000
1000
0000
1000
0000
1000
0000
0000
,
0001
0001
1000
0000
,
0110
1001
0010
0100
,
1000
0000
1000
0000
1000
0000
0000
0010
,
0000
0010
0000
0010
0000
0010
0000
0000
,
0100
0001
1000
0000
,
0010
0100
0001
0010
,
0001
0000
0001
0000
0001
0000
0000
0100
,
0000
0100
0000
0100
0000
0100
0000
0000
,
0010
1000
0100
0010
,
0011
1001
0100
1000
,
0010
0000
0010
0100
,
0001
0000
1000
0001
,
0100
0000
0100
0010
,
1000
0000
0001
0000
,
1000
1000
0001
0001
,
1000
0000
0010
0000
,
0100
0100
0010
0010
,
1000
0000
0010
0100
,
2002
0000
0000
3003
0220
0000
0000
0330
,
2000
0000
3002
0000
2003
0000
0001
3001
,
2000
0000
3100
0010
0002
0000
1003
0001
,
0010
0001
1000
0100
,
1100
1001
0010
0001
,
2002
0000
0000
0000
,
0000
0000
0000
0000
,
3003
0000
0000
0000
;

//---------------dance-single - ----------------
#NOTES:
     dance-single:
     :
     Medium:
     9:
     0.448206,0.483412,0.341232,0.170616,0.018957,331.000000,295.000000,36.000000,18.000000,0.000000,0.000000,0.448206,0.483412,0.341232,0.170616,0.018957,331.000000,295.000000,36.000000,18.000000,0.000000,0.000000:
0000
0000
0000
0000
,
1000
0001
1000
0000
0001
1000
0001
0000
,
0110
0000
1001
0000
0100
0010
0100
0000
,
0010
1000
0010
0000
0100
0001
0100
0000
,
0001
0000
0010
0000
0100
0100
0100
0000
,
1000
0010
1000
0000
0010
0100
0010
0000
,
1100
0000
0101
0000
1000
0001
1000
0000
,
0001
0010
0001
0000
0100
0010
0100
0000
,
0001
0001
0001
0000
0110
0110
0110
0000
,
0010
1000
0010
1000
,
0001
0100
0000
0100
0010
0000
1000
0000
,
0100
0010
0001
0010
,
0100
0000
1000
0000
0001
1000
0001
1000
,
0100
1000
0010
0100
,
0001
0100
0000
0100
0010
0000
1000
0000
,
0100
0010
0001
1000
,
0001
1000
0000
1000
0010
0100
0100
0000
,
0010
1000
0010
0000
1000
0010
1000
0000
,
0101
0000
1001
0000
0100
0010
0100
0000
,
0001
0010
0001
0000
1000
0001
1000
0000
,
0010
0010
0010
0000
1001
0000
0110
0000
,
1010
0000
1000
0100
0010
0001
0010
0000
,
0100
0000
1000
0000
0001
1000
0001
0000
,
0010
0000
0001
1000
0000
1000
0100
0000
,
0010
0000
0001
1000
0000
1000
0010
0000
,
0100
0000
0001
0010
0100
0000
1000
0100
,
0010
0000
0001
1000
0001
0000
0110
0000
,
2002
0000
0000
0000
,
3003
0220
0000
0330
,
1001
0000
0001
0000
1000
0100
0010
0001
,
0000
1000
0000
0001
0000
1000
0000
0000
,
0010
0000
0010
0000
1000
0001
1000
0000
,
0011
1001
1100
0110
,
1001
0000
1000
0000
1000
0100
0010
0001
,
0000
1000
0000
0001
0000
1000
0000
0000
,
0010
0000
1000
0000
0010
0100
0010
0000
,
1001
0000
0110
0000
0001
0010
0100
1000
,
0100
0000
0011
0000
1000
0100
1000
0001
,
0000
0010
0000
0001
0000
1000
0000
0000
,
0010
0000
1000
0000
0001
0100
0001
0000
,
0011
0110
1001
0101
,
1000
0000
0110
0000
0001
0010
0100
0010
,
0000
0001
0000
1000
0000
0010
0000
0000
,
1000
0000
0100
0000
0010
0001
0010
0000
,
1001
0000
0110
0000
0010
1000
0100
0010
,
0002
0000
1003
0000
0001
0100
0001
0000
,
2000
0000
3010
0000
1000
0001
1000
0000
,
0020
0000
1030
0000
0010
0100
0001
0000
,
1001
0000
0110
0000
1000
1000
1000
0000
,
0001
0100
0020
0000
1030
0010
0100
0000
,
0001
1000
0020
0000
0130
0010
1000
0000
,
1000
0100
0020
0000
0031
0010
0100
0000
,
1000
0001
1000
0000
0010
0010
0010
0010
,
0210
0000
0001
0301
0200
0000
0010
0310
,
2000
0000
0000
0001
0001
0000
0000
0010
3020
0000
1000
0000
0001
0000
1000
0000
,
0230
0000
0000
0001
0301
0000
0100
0000
0020
0000
0000
1000
1030
0000
0010
0000
,
0100
0000
0001
0100
0001
0000
1000
0010
,
1000
0000
0110
0000
1000
0100
0010
0001
,
2002
0000
0000
0000
,
0000
0000
0000
0000
,
3003
0000
0000
0000
;

//---------------dance-single - ----------------
#NOTES:
     dance-single:
     :
     Hard:
     12:
     0.609343,0.938389,0.464455,0.056872,0.260664,450.000000,401.000000,49.000000,6.000000,0.000000,0.000000,0.609343,0.938389,0.464455,0.056872,0.260664,450.000000,401.000000,49.000000,6.000000,0.000000,0.000000:
0000
0000
0000
0000
,
1000
0001
0100
0000
0001
1000
0100
0000
,
0010
0010
0001
0001
1000
0100
0010
0000
,
0001
0010
0100
0000
1000
0100
0010
0000
,
0001
0001
1000
1000
0010
1001
1001
0000
,
0010
0001
1000
0000
0010
1000
0001
0000
,
0010
0010
0100
0100
1000
0100
0010
0000
,
0001
0100
0010
0000
1000
0010
0100
0000
,
0010
0100
0010
0100
0010
0000
1000
0000
1001
0000
1001
0000
1001
0000
0000
0000
,
0001
0000
0010
0100
1000
0100
0010
0000
,
0001
0000
0000
1000
0000
0000
0100
0000
1000
0000
0000
0010
0100
0000
0001
0000
,
0100
0000
0000
0001
0000
0000
0010
0000
0001
0000
0000
1000
0000
0000
0100
0000
,
1000
0000
0000
0010
0000
0000
0100
0000
0001
0000
1000
0000
0010
0000
1000
0000
,
0100
0000
1000
0100
0010
0001
0010
0000
,
0001
0100
0000
0001
1000
0100
0010
0000
,
0001
0000
0000
1000
0000
0000
0001
0000
0010
0000
0000
0001
0000
0000
0100
0000
,
0010
0000
0000
1000
0000
0000
0001
0000
0100
0000
0010
0000
0010
0000
0000
0000
,
1000
0100
0010
0001
0010
0100
0011
0000
,
0001
0001
1000
1000
0010
0100
0001
0000
,
1000
0100
0010
0100
1000
0001
0110
0000
,
1000
1000
1000
0000
0101
0000
0110
0000
,
1010
0000
0010
0100
0001
0100
0010
1000
,
0100
0000
0000
0000
1001
0000
0000
0001
0010
0000
0100
0000
1000
0000
0100
0000
,
0020
0000
0000
0001
0000
0000
0031
0000
0100
0000
0000
0000
0001
0000
1000
0000
,
0200
0000
0000
1000
0000
0000
1300
0000
0001
0000
0000
0001
1000
0000
0000
0000
,
0110
0000
0000
0010
0000
0000
1000
0000
0001
0000
0000
0100
0000
0000
0001
0000
,
0010
0000
0000
0100
0000
0000
1000
0000
1100
0000
0000
0000
0011
0000
0000
0000
,
1000
0001
0000
1000
0001
0000
0100
0010
0000
0100
0010
0000
1000
0000
0001
0000
,
0010
2002
0000
3003
,
0101
0000
0000
1000
0100
0000
0000
0000
0010
0000
0001
0000
1000
0000
0010
0000
,
0000
1001
0000
0100
0000
1000
1001
0000
,
0001
0010
0100
1000
0010
0100
0001
1000
,
0100
0000
0000
0000
1010
0000
0000
0000
0101
0000
0000
0100
0010
0000
0000
0000
,
1001
0000
0000
0001
0010
0000
0000
0001
1000
0000
0100
0000
0010
0000
0001
0000
,
0000
1100
0000
0001
0000
1000
1100
0000
,
0010
0001
1000
0010
0100
0001
0100
0000
,
0011
0000
0000
0000
1001
0000
0000
0100
0010
0000
1000
0000
0010
0000
0100
0000
,
0101
0000
0000
0000
1010
0000
0000
0001
0100
0000
0010
0000
1000
0000
0100
0000
,
0000
1001
0000
0010
0000
0001
1001
0000
,
1000
0100
0010
0100
0010
0001
0010
0001
,
1000
0000
0000
0000
0101
0000
0000
0000
0110
0000
0000
0010
1000
0000
0001
0000
,
0101
0000
0000
0000
1001
0000
0000
0100
0010
0000
0100
0000
0001
0000
1000
0000
,
0000
0110
0000
0001
0000
0100
0110
0000
,
0010
1000
0100
0010
0100
1000
0001
0100
,
0101
0000
0000
0000
1001
0000
0000
1000
0010
0000
0100
0000
0001
0000
0010
0000
,
0100
0000
1000
0000
0001
0000
1000
0000
0100
0000
0010
0000
0100
0000
0000
0100
,
1000
0001
0010
0100
0010
0001
1000
0000
,
0001
0000
0100
0000
0010
0000
1000
0100
1000
0000
0010
0000
0100
0000
0000
0000
,
0001
0001
0010
0010
0100
1001
1001
0000
,
1000
0000
0010
0000
0100
0000
0001
0000
0010
0000
0001
0000
1000
0000
0000
0001
,
0100
0000
0010
0000
1000
0000
0100
0000
0010
0000
0001
0000
1000
0000
0000
0010
,
0100
0000
0001
0000
1000
0000
0010
0100
0010
0000
1000
0000
0001
0000
0000
0000
,
0100
0010
0100
0010
0100
0000
0010
0000
1001
0000
1001
0000
1001
0000
1001
0000
,
1001
0001
0010
0100
1000
0010
0100
0000
0010
1000
0100
0010
0001
0100
0010
0000
,
1000
0001
0010
0100
1000
0001
0100
0000
0001
0001
1000
1000
0010
0110
0110
0000
,
0010
1000
0100
0000
1000
0001
0100
0000
0001
1000
0010
0000
0100
0100
0100
0100
,
0001
0100
0001
0100
0010
1000
0010
1000
,
1100
0000
0000
0000
0101
0000
0000
1000
0001
0000
0001
0000
0010
0000
0100
0000
,
2002
0000
0000
0000
,
0000
0000
0000
0000
,
3003
0000
0000
0000
;

//---------------dance-single - ----------------
#NOTES:
     dance-single:
     :
     Challenge:
     14:
     0.720379,1.109005,0.322275,0.085308,0.616114,532.000000,498.000000,34.000000,9.000000,0.000000,0.000000,0.720379,1.109005,0.322275,0.085308,0.616114,532.000000,498.000000,34.000000,9.000000,0.000000,0.000000:
0000
0000
0000
0000
,
1000
0000
0001
0000
0100
0000
0010
0100
0010
0000
0100
0000
0001
0000
0000
1000
,
0010
0001
0010
1000
0010
0100
0001
0000
,
0010
0000
0100
0000
1000
0000
0001
0100
0001
0000
1000
0000
0100
0000
0000
0000
,
1000
0001
1000
0001
1000
0000
0010
0000
0100
0000
0101
0000
0101
0000
0000
0000
,
0001
0000
0010
0000
0100
0000
1000
0100
1000
0000
0100
0000
0010
0000
0000
0001
,
0100
0000
1000
0000
0100
0000
0001
0000
0100
0000
0010
0000
1000
0000
0000
0010
,
0100
0000
0001
0000
0010
0000
0001
1000
0001
0000
0100
0000
0010
0000
0000
1000
,
0100
1000
0100
1000
0100
0000
1000
0000
1001
0000
1001
0000
1001
0000
0000
0000
,
0010
0000
1000
0001
0000
0000
0010
0000
0001
0000
0100
0000
0010
0000
0000
0000
,
1000
0000
0000
0001
0000
0000
0010
0000
0100
0000
1000
0000
0001
0100
0000
0001
,
0100
0000
0000
0001
0000
0000
0010
0000
0001
0000
0000
1000
0000
0000
0010
0000
,
0100
0000
0000
0010
0000
1000
0001
0000
0010
0000
0100
0000
1000
0000
0001
0000
,
0100
0000
0000
0001
1000
0000
0100
0000
0000
1000
0010
0000
0100
0000
0001
0000
,
0010
0000
0100
0000
1000
0000
0000
0100
0010
0000
0001
0000
1000
0010
1000
0010
,
1000
0000
0010
0100
0000
0000
0010
0000
1000
0000
0001
0000
0100
0000
1000
0000
,
0101
0000
0000
1000
0000
0000
0001
0000
1000
0000
0110
0000
0110
0000
0000
0000
,
0010
0000
1000
0000
0100
0000
0000
1000
0001
0000
0010
0000
0001
0000
0000
0100
,
0001
0000
0010
0000
0100
0000
1000
0001
1000
0000
0010
0000
0100
0000
0010
0000
,
0001
0000
0010
0000
0100
0000
0000
0010
1000
0000
0010
0000
0100
0000
0000
0100
,
0001
0100
0001
0100
0001
0000
1000
0000
1010
0000
0000
0000
0101
0000
0000
0000
,
1000
0001
0100
1000
0100
0001
1000
0001
,
0102
0000
0000
0000
1000
0000
0000
0103
0001
0000
0010
0000
0001
0000
1000
0000
,
0020
0000
0000
1000
0000
0000
0130
0000
0010
0000
0100
0000
0001
1000
0001
0000
,
2000
0000
0000
0001
0000
3001
1000
0000
0100
1000
0100
1000
0100
0000
1000
0000
,
0101
0000
0000
0001
1000
0000
0100
0000
0010
0000
0000
0001
0000
1000
0100
0000
,
1000
0000
0001
0100
0000
0000
0010
0000
0110
0000
0000
0000
1001
0000
0000
0000
,
0010
1000
0000
0010
1000
0000
0001
0100
0000
0001
0100
0000
0010
0000
1000
0000
,
0100
2002
0000
3003
,
1010
0000
0000
0001
0100
0000
0000
0010
1000
0000
0100
0000
0010
0000
0001
0000
,
0000
1000
0100
0000
0010
0000
0001
0000
0000
0001
0010
0000
0100
0000
0000
0000
,
1000
0010
0100
0001
0010
0100
1000
0001
,
1000
0001
0000
0000
0001
0010
0000
0000
0010
0100
0000
0000
0100
1000
0000
0000
,
1001
0000
0000
0001
0100
0000
0000
0010
0100
0000
0010
0000
1000
0000
0100
1000
,
0000
1000
0001
0000
0010
0000
0001
0100
0000
0100
0010
0000
1000
0000
0000
0000
,
0001
0010
0100
1000
0100
0010
0100
1000
,
1001
0000
0000
0000
0011
0000
0000
1000
0010
0000
0100
0000
0001
0000
0010
0000
,
1001
0000
0000
0100
0010
0000
0000
0001
1000
0000
0010
0000
0100
0000
0001
0100
,
0000
0000
0010
0000
1000
0000
0100
1000
0000
0000
0100
0000
0010
0000
0000
0000
,
0001
1000
0100
0001
0100
1000
0001
0010
,
0100
1000
0000
0000
1000
0100
0000
0000
0100
0010
0000
0000
0010
0001
0000
0000
,
1001
0000
0000
0001
0100
0000
0000
0010
1000
0000
0010
0000
0100
0000
0001
1000
,
0000
1000
0100
0000
1000
0000
0010
0100
0000
0100
0001
0000
0010
0000
0000
0000
,
0001
0010
0100
0010
0001
1000
0100
0010
,
1100
0000
0000
0000
0101
0000
0000
0001
1000
0000
0010
0000
0100
0000
0010
0000
,
1000
0000
0001
0010
0001
0000
0100
0000
0010
0000
1000
0100
1000
0000
0000
0001
,
0100
0000
0010
0000
1000
0000
0100
0000
0010
0000
0001
0000
1000
0001
0000
0001
,
0100
0000
0010
1000
0010
0000
0100
0000
0010
0000
1000
0001
1000
0000
0000
0001
,
0010
0010
0100
0100
1000
0101
0101
0000
,
1000
0000
0001
0010
0001
0000
0100
0000
0010
0000
1000
0100
1000
0000
0001
0000
,
0010
0000
0001
0100
0010
0000
1000
0000
0100
0010
0001
0000
0010
0000
0100
0000
,
1000
0000
0001
0100
0001
0000
1000
0000
0100
0000
0010
0001
0010
0000
0100
0000
,
1000
0001
1000
0001
1000
0000
0010
0000
1001
0000
1001
0000
1001
0000
1001
0000
,
1001
0000
0001
0000
0100
0000
0010
0000
1000
0000
0000
0001
0200
0000
0000
0000
0310
0000
1000
0000
0100
0000
0010
0000
0001
0000
0000
2100
0000
0000
0000
0000
,
3001
0000
0001
0000
1000
0000
1000
0000
0100
0010
0001
0010
0100
0000
1000
0000
0001
0000
0001
0000
0010
0000
0010
0000
0100
0000
1001
0000
1001
0000
0000
0000
,
0001
0000
0010
0001
0010
0000
0001
0000
1000
0000
0100
1000
0100
0000
1000
0000
0010
0000
0100
0001
0100
0000
0010
0000
1000
0000
1000
0000
1000
0000
1000
0000
,
1000
0100
1000
0100
1000
0100
1000
0100
0010
0001
0010
0001
0010
0001
0010
0001
,
1000
0000
0001
0000
0010
0000
0100
1000
0100
0000
1000
0000
0001
0000
0100
0000
,
2002
0000
0000
0000
,
0000
0000
0000
0000
,
3003
0000
0000
0000
;

//---------------dance-single - ----------------
#NOTES:
     dance-single:
     :
     Beginner:
     4:
     0.144888,0.170616,0.047393,0.018957,0.000000,107.000000,102.000000,5.000000,2.000000,0.000000,0.000000,0.144888,0.170616,0.047393,0.018957,0.000000,107.000000,102.000000,5.000000,2.000000,0.000000,0.000000:
// measure 0
0000
0000
0000
0000
,  // measure 1
1000
0000
1000
0000
,  // measure 2
0001
0001
0001
0000
,  // measure 3
1000
0000
1000
0000
,  // measure 4
0001
0000
1000
0000
,  // measure 5
0001
0000
0001
0000
,  // measure 6
1000
1000
1000
0000
,  // measure 7
0001
0000
1000
0000
,  // measure 8
0001
0000
1000
1000
,  // measure 9
0001
0000
0010
0000
,  // measure 10
0100
0000
0000
0000
,  // measure 11
1000
0000
0100
0000
,  // measure 12
0010
0000
0000
0000
,  // measure 13
0001
0000
1000
0000
,  // measure 14
0010
0000
0000
0000
,  // measure 15
1000
0000
0001
0000
,  // measure 16
0010
0000
0000
0000
,  // measure 17
0001
0001
0001
0000
,  // measure 18
1000
0000
1000
0000
,  // measure 19
0001
0001
0001
0000
,  // measure 20
1000
0000
1000
0000
,  // measure 21
0010
0000
0000
0000
,  // measure 22
0100
0100
0100
0000
,  // measure 23
0010
0000
0000
0000
,  // measure 24
0100
0100
0100
0000
,  // measure 25
0001
0000
1000
0000
,  // measure 26
0001
0000
1000
0000
,  // measure 27
1001
0000
0000
0000
,  // measure 28
0000
0110
0000
0000
,  // measure 29
0010
0000
0010
0000
,  // measure 30
1000
0000
1000
0000
,  // measure 31
0001
0000
0000
0000
,  // measure 32
1000
0000
0000
0000
,  // measure 33
0001
0000
0001
0000
,  // measure 34
0100
0000
0100
0000
,  // measure 35
0010
0000
0000
0000
,  // measure 36
1000
0000
0000
0000
,  // measure 37
0001
0000
0001
0000
,  // measure 38
0010
0000
0010
0000
,  // measure 39
0100
0000
0000
0000
,  // measure 40
1000
0000
0000
0000
,  // measure 41
0100
0000
0100
0000
,  // measure 42
0010
0000
0010
0000
,  // measure 43
0001
0000
0000
0000
,  // measure 44
1000
0000
0000
0000
,  // measure 45
1001
0000
0000
0000
,  // measure 46
0010
0010
0010
0000
,  // measure 47
1000
0000
0000
0000
,  // measure 48
0001
0000
0000
0000
,  // measure 49
1001
0000
0000
0000
,  // measure 50
0100
0100
0100
0000
,  // measure 51
0001
0000
0000
0000
,  // measure 52
1000
0000
0000
0000
,  // measure 53
0001
0000
1000
0000
,  // measure 54
0010
0000
0100
0000
,  // measure 55
0001
0000
0010
0000
,  // measure 56
0100
0000
0000
0000
,  // measure 57
1000
1000
1000
0000
,  // measure 58
2002
0000
0000
0000
,  // measure 59
0000
0000
0000
0000
,  // measure 60
3003
0000
0000
0000
;
