#TITLE:Give It Up!;
#SUBTITLE:;
#ARTIST:F.K.;
#TITLETRANSLIT:;
#SUBTITLETRANSLIT:;
#ARTISTTRANSLIT:;
#GENRE:VJ F.K.;
#CREDIT:YonabearCWY;
#BANNER:Give It Up!.png;
#BACKGROUND:Give It Up!-bg.png;
#LYRICSPATH:;
#CDTITLE:SHAKE II.png;
#MUSIC:Give It Up!.ogg;
#OFFSET:-6.960000;
#SAMPLESTART:20.670004;
#SAMPLELENGTH:15.000000;
#SELECTABLE:YES;
#BPMS:0.000000=139.990005
;
#STOPS:
;
#BGCHANGES:-16.500=GIU 1.mp4=1.000=1=0=0=StretchNoLoop==CrossFade==,
132.000=GIU 2.mp4=1.000=1=0=0=StretchNoLoop==CrossFade==,
213.500=Give It Up!-bg.png=1.000=1=0=1===CrossFade==,
99999.000=-nosongbg-=1.000=0=0=0=StretchNoLoop====,
99999=-nosongbg-=1.000=0=0=0 // don't automatically add -songbackground-
;
#KEYSOUNDS:;
#ATTACKS:;

//---------------dance-single - ----------------
#NOTES:
     dance-single:
     BASIC:
     Easy:
     6:
     0.000000,0.000000,0.000000,0.000000,0.000000,0.000000,0.000000,0.000000,0.000000,0.000000,0.000000,0.000000,0.000000,0.000000,0.000000,0.000000,0.000000,0.000000,0.000000,0.000000,0.000000,0.000000:
1000
0000
1000
0000
,
0001
0000
0001
0100
,
0010
0000
0010
0000
,
0100
0000
1001
1001
,
0010
0000
0010
0000
,
0100
0000
0100
0001
,
1000
0000
1000
0000
,
0001
0000
0110
0110
,
0100
0001
0100
0001
,
1000
0010
1000
0010
,
0100
0000
0100
0000
,
0010
0000
0010
0000
,
1000
0010
1000
0010
,
0100
0010
0100
0001
,
1000
0000
1000
0000
,
0001
0000
0001
0000
,
1001
1001
0010
0000
,
0100
0000
0010
1000
,
1100
1100
0001
0000
,
0100
0000
0001
0000
,
0110
0110
1000
0000
,
0001
0000
1000
0000
,
0101
0101
1000
0000
,
2002
0000
0000
3003
,
0100
0100
0100
0000
,
0010
0000
0010
0000
,
1000
1000
1000
0000
,
0100
0000
0100
0000
,
0010
0001
1000
0001
,
0100
0001
1000
0010
,
2020
0000
0000
3030
,
0202
0000
0000
0303
,
0220
0000
0000
0330
,
2002
0000
0000
3003
,
0100
0100
0010
0010
,
1000
0000
1000
0000
,
0001
0000
0001
0100
,
0010
0000
0010
0000
,
0100
0000
0110
0110
,
1000
0000
1000
0000
,
0001
0000
0001
0010
,
0100
0000
0100
0000
,
0010
0000
0110
0110
,
1000
0001
1000
0001
,
1000
0001
2000
3000
,
0001
0010
0001
0010
,
0001
0010
0002
0003
,
0100
0010
0100
0010
,
0100
0010
0200
0300
,
0010
1000
0010
1000
,
0010
1000
0020
0030
,
1000
0000
1000
0000
,
0001
0000
0000
0000
0000
1001
0000
0000
;

//---------------dance-single - ----------------
#NOTES:
     dance-single:
     DIFFICULT:
     Medium:
     9:
     0.000000,0.000000,0.000000,0.000000,0.000000,0.000000,0.000000,0.000000,0.000000,0.000000,0.000000,0.000000,0.000000,0.000000,0.000000,0.000000,0.000000,0.000000,0.000000,0.000000,0.000000,0.000000:
1000
0001
0001
0000
1000
0001
0011
0000
,
0001
1000
1000
0000
0010
0100
0001
0100
,
0010
0010
1000
0000
0100
0100
0101
0000
,
0010
0010
1001
1001
0000
0010
0100
1000
,
0001
0010
0010
0000
0100
1000
1010
0000
,
0100
0001
0001
0000
0100
0010
1000
0100
,
0010
0010
0001
0000
0100
0100
1010
0000
,
0001
0001
0110
0110
1001
0000
0100
0010
,
2000
0001
0100
3001
,
1000
0100
0010
0001
0000
0010
0100
0000
,
0002
0000
1000
0000
0010
0000
1003
0020
,
0000
0000
0000
0130
0000
1001
1001
0000
,
0020
1000
0001
1030
,
0100
0010
0001
1000
0000
0001
0100
0010
,
2000
0000
0100
0000
0001
0000
3100
2000
,
0000
0000
0000
3001
0000
1000
0010
0010
,
0010
0000
0100
0000
0001
1000
0100
0001
,
0100
0000
0010
0000
0100
1000
0001
0100
,
0001
1000
0010
0001
,
0010
0000
1000
0000
0001
1000
1000
0000
,
0110
0000
1001
0000
0010
0100
1000
0001
,
0010
0000
0101
0000
0001
1000
0100
0010
,
0001
0000
0100
0000
0010
0010
0010
0000
,
1000
0100
0010
0001
0000
0110
0110
0000
,
0102
0000
0000
1000
1000
0000
0000
0010
,
0010
0000
0100
0100
0100
0000
0013
0000
,
2100
0000
0000
0001
0001
0000
0000
0100
,
0100
0000
0010
0010
3010
0000
1000
0000
,
0001
0000
1000
0100
0001
0100
0010
0000
,
0001
0000
0010
0100
1000
0100
0001
0000
,
2100
0000
0000
0001
0000
0010
3010
0000
,
0102
0000
0000
1000
0000
0010
0013
0000
,
0120
0000
0000
0001
0000
1000
1030
0000
,
2002
0000
0000
3003
,
1100
0000
0011
0000
0100
0100
0010
0010
,
1000
0100
1000
0000
0100
1000
0100
0000
,
0010
0000
0001
0000
0100
0010
0001
0000
,
0010
0100
0010
0000
0100
0010
0100
0000
,
0001
0000
1000
0000
0100
0010
0100
1000
,
0001
0010
1000
0000
0001
0010
1000
0000
,
0110
0000
1001
0000
1000
0100
0010
0001
,
0100
0001
0010
0000
0100
0001
0010
0000
,
1100
0000
0101
0000
1000
0010
1000
0001
,
1000
0100
0001
0000
1000
0100
0001
0000
,
0110
0000
1001
0000
0010
0100
1000
0001
,
0100
0010
1000
0000
0100
0010
1000
0000
,
0101
0000
0011
0000
0001
1000
0100
0010
,
0100
0010
0001
0000
0100
0010
0001
0000
,
0110
0000
1100
0000
0001
0100
0010
1000
,
0100
1000
0001
0000
0100
1000
0001
0000
,
0110
0000
1001
0000
0010
0100
1000
0001
,
0100
0001
1000
0000
0110
0000
0001
2000
,
0000
0002
0000
0000
3000
1003
0000
0000
;

//---------------dance-single - ----------------
#NOTES:
     dance-single:
     EXPERT:
     Hard:
     13:
     0.000000,0.000000,0.000000,0.000000,0.000000,0.000000,0.000000,0.000000,0.000000,0.000000,0.000000,0.000000,0.000000,0.000000,0.000000,0.000000,0.000000,0.000000,0.000000,0.000000,0.000000,0.000000:
1000
0010
1000
0000
0010
0000
0100
0000
0001
0100
0001
0000
1000
0000
0100
0000
,
0010
0001
0010
0000
0100
0000
0001
0000
0100
0000
1000
0000
1000
0000
0001
0000
,
0010
0001
0010
0000
0001
0000
1000
0000
0100
0010
0100
0000
0010
0000
0001
0000
,
1000
0001
1000
0001
1000
0000
0020
0000
0000
0000
0130
0001
0011
0000
0001
0000
,
1000
0001
1000
0000
0001
0000
0010
0000
0100
1000
0100
0000
0010
0000
0100
0000
,
0010
0001
0010
0000
0100
0000
1000
0000
0001
0000
0010
0000
0010
0000
1000
0000
,
0010
0001
0010
0000
0100
0000
0001
0000
0100
1000
0100
0000
0010
0000
0100
0000
,
1000
0001
1000
0001
1000
0000
0200
0000
0000
0000
0310
0100
1100
0000
1000
0000
,
0001
0100
1000
0000
0001
0100
1000
0000
,
0120
1000
0000
0001
0000
1000
1030
0000
,
0100
0010
0001
0000
0100
0010
0001
0000
,
0010
0100
1000
0001
0000
0010
0100
1000
,
0001
0010
1000
0000
0001
0010
1000
0000
,
0210
0001
0000
1000
0000
0001
0301
0000
,
1000
0100
0010
0000
1000
0100
0010
0000
,
1000
0000
0001
0000
0010
0000
0100
0000
0000
0000
1000
0010
0100
0000
0100
0000
,
0100
0000
0000
1000
0001
0000
0010
0000
0001
0000
0100
0000
0000
0000
1000
0000
,
0100
0010
0001
0100
0001
0010
0010
0010
,
0010
0000
0000
0001
1000
0000
0000
0100
0010
0000
0001
0000
0010
0000
0100
0000
,
1000
0000
0001
0000
0100
0000
0001
1000
0000
0000
0110
0000
0110
0000
0000
0000
,
0001
1000
0100
0001
0100
1000
0010
0100
,
0010
0001
0010
0100
0010
1000
0100
0001
,
0100
0000
0000
1000
0010
0000
0000
0010
0100
0000
0000
0100
0001
0000
0000
0000
,
0010
0100
0010
0001
1000
1001
1001
0000
,
0120
0000
0000
1030
0200
0000
0000
0310
,
0002
0000
0000
0013
0200
0000
1300
0100
,
0002
0000
0103
1000
0001
0010
1000
0010
,
0002
0000
2003
0010
3020
0100
0130
0001
,
0010
0000
1000
0001
0100
0001
1000
0100
,
0000
0010
0010
0010
0010
1000
0100
0010
,
1002
0000
0000
0100
0000
0010
0013
0000
,
2001
0000
0000
0010
0000
0100
3100
0000
,
1001
0001
0010
0011
0001
1000
1100
0100
,
2002
0000
0000
3003
,
1000
0010
0000
0000
0100
0001
0000
0000
0010
0000
0010
0000
0100
0000
0100
0000
,
1000
0001
1000
0001
2000
0000
0000
0000
3001
0010
0001
0010
0002
0000
0000
0000
,
0103
0010
0100
0010
0200
0000
0000
0000
0301
0000
1000
0000
0100
0000
0001
0000
,
0100
0010
0100
0000
1000
0000
0001
0000
0010
0001
0010
0000
0100
0000
0010
0000
,
0001
1000
0001
1000
0010
0000
0200
0000
0000
0000
0301
1000
1100
0000
0100
0000
,
0010
0001
0010
0001
0200
0000
0000
0000
0301
1000
0001
1000
0020
0000
0000
0000
,
1030
0100
1000
0100
0002
0000
0000
0000
0103
0000
1000
0000
0001
0000
0010
0000
,
0100
1000
0100
1000
0001
0000
0010
0000
0001
1000
0100
1000
0100
0000
0001
0000
,
0100
1000
0100
1000
0010
0000
0100
0002
0000
0000
0013
0100
1100
0000
1000
0000
,
0001
0100
0001
0100
1000
0100
0001
0100
,
0001
0000
0100
0000
0010
0000
0100
0000
0010
0000
1000
0000
1000
0001
0010
0000
,
0100
1000
0100
0001
0100
0001
0100
1000
,
0100
0000
1000
0000
0010
0000
0100
0010
0000
1000
0010
1000
0001
0000
0101
0000
,
0001
0010
0001
0010
1000
0010
1000
0010
,
0001
0000
0010
0000
0001
0000
0010
0000
0100
0000
0010
0000
0010
0100
1000
0000
,
0001
1000
0010
1000
0010
0001
0010
0001
,
0010
0000
1000
0000
0010
0000
0100
0001
0000
0010
0100
1000
0100
0000
0110
0000
,
0001
1000
0100
0010
0001
0100
0010
2000
,
0000
0002
0000
0000
3000
1003
0000
0000
;

//---------------dance-single - ----------------
#NOTES:
     dance-single:
     BEGINNER:
     Beginner:
     3:
     0.124117,0.183937,0.029959,0.019973,0.000000,87.000000,84.000000,3.000000,2.000000,0.000000,0.000000,0.124117,0.183937,0.029959,0.019973,0.000000,87.000000,84.000000,3.000000,2.000000,0.000000,0.000000:
// measure 0
1000
0000
1000
0000
,  // measure 1
1000
0000
0000
0000
,  // measure 2
0001
0000
0001
0000
,  // measure 3
0001
0000
0000
0000
,  // measure 4
1000
0000
1000
0000
,  // measure 5
1000
0000
0000
0000
,  // measure 6
0001
0000
0001
0000
,  // measure 7
0001
0000
0000
0000
,  // measure 8
1000
1000
1000
0000
,  // measure 9
1000
0000
0000
0000
,  // measure 10
0001
0000
0001
0000
,  // measure 11
0001
0000
0000
0000
,  // measure 12
0100
0100
0100
0000
,  // measure 13
0100
0000
0000
0000
,  // measure 14
0010
0000
0010
0000
,  // measure 15
0010
0000
0000
0000
,  // measure 16
1000
0000
1000
0000
,  // measure 17
0100
0000
0000
0000
,  // measure 18
0010
0000
0010
0000
,  // measure 19
0001
0000
0000
0000
,  // measure 20
0001
0000
0001
0000
,  // measure 21
0100
0000
0000
0000
,  // measure 22
1000
0000
1000
0000
,  // measure 23
0110
0000
0000
0000
,  // measure 24
1000
1000
1000
0000
,  // measure 25
1000
0000
0000
0000
,  // measure 26
0001
0001
0001
0000
,  // measure 27
0001
0000
0000
0000
,  // measure 28
0100
0100
0100
0000
,  // measure 29
0100
0000
0000
0000
,  // measure 30
0010
0010
0010
0000
,  // measure 31
0010
0000
0000
0000
,  // measure 32
0000
0000
0000
0000
,  // measure 33
1001
0000
0000
0000
,  // measure 34
0010
0010
0010
0010
,  // measure 35
0010
0000
0010
0000
,  // measure 36
0010
0000
0000
0000
,  // measure 37
0100
0000
0100
0000
,  // measure 38
0100
0000
0000
0000
,  // measure 39
0001
0000
0001
0000
,  // measure 40
0001
0000
0000
0000
,  // measure 41
1000
0000
1000
0000
,  // measure 42
1000
0000
0000
0000
,  // measure 43
0001
0000
0001
0000
,  // measure 44
0010
0000
0000
0000
,  // measure 45
1000
0000
1000
0000
,  // measure 46
0100
0000
0000
0000
,  // measure 47
0010
0000
0010
0000
,  // measure 48
0100
0000
0000
0000
,  // measure 49
1000
0000
1000
0000
,  // measure 50
0001
0000
0000
0000
,  // measure 51
2002
0000
0000
0000
,  // measure 52
0000
0000
0000
0000
0000
3003
0000
0000
;
