#TITLE:GUILTY;
#SUBTITLE:;
#ARTIST:D.J.SETUP;
#TITLETRANSLIT:;
#SUBTITLETRANSLIT:;
#ARTISTTRANSLIT:;
#GENRE:TECHNO;
#CREDIT:YonabearCWY/KONAMI;
#BANNER:GUILTY.png;
#BACKGROUND:GUILTY-bg.png;
#LYRICSPATH:;
#CDTITLE:Beatmania.png;
#MUSIC:GUILTY.ogg;
#OFFSET:-6.500000;
#SAMPLESTART:52.141003;
#SAMPLELENGTH:15.000000;
#SELECTABLE:YES;
#DISPLAYBPM:148.000000;
#BPMS:0.000000=148.229996
,16.000000=152.000000
,17.000000=148.229996
;
#STOPS:
;
#BGCHANGES:17.000=amoeba3.mp4=1.000=1=0=1===CrossFade==,
29.000=blackhole2.mp4=1.000=0=0=1=====,
33.000=blackhole1.mp4=1.000=0=0=1=====,
41.000=amoeba1.mp4=1.000=0=0=1=====,
49.000=text15.mp4=1.000=0=0=1=====,
57.000=text16.mp4=1.000=0=0=1=====,
61.000=blackhole2.mp4=1.000=0=1=1=StretchRewind====,
65.000=tunnel2.mp4=1.000=0=0=1=====,
73.000=wave1.mp4=1.000=0=0=1=====,
81.000=wave2.mp4=1.400=0=0=1=====,
89.000=text16.mp4=1.000=0=1=1=StretchRewind====,
93.000=blackhole2.mp4=1.000=0=1=1=StretchRewind====,
97.000=amoeba1.mp4=0.700=0=1=1=StretchRewind====,
105.000=amoeba3.mp4=0.700=0=1=1=StretchRewind====,
109.000=blackhole2.mp4=1.000=0=1=1=StretchRewind====,
113.000=text6.mp4=1.000=0=0=1=====,
121.000=bubble2.mp4=1.000=0=0=1=====,
125.000=blackhole2.mp4=1.000=0=1=1=StretchRewind====,
129.000=timer1.mp4=1.000=0=0=1=====,
137.000=wheel4.mp4=1.000=0=0=1=====,
145.000=tunnel1.mp4=0.900=0=0=1=====,
161.000=blackhole2.mp4=1.000=0=1=1=StretchRewind====,
165.000=amoeba1.mp4=1.000=0=1=1=StretchRewind====,
173.000=text15.mp4=1.000=0=1=1=StretchRewind====,
181.000=amoeba3.mp4=1.000=0=1=1=StretchRewind====,
189.000=tunnel2.mp4=1.000=0=1=1=StretchRewind====,
193.000=GUILTY-bg.png=1.000=0=0=1=====,
99999.000=-nosongbg-=1.000=0=0=0=StretchNoLoop====,
99999=-nosongbg-=1.000=0=0=0 // don't automatically add -songbackground-
;
#KEYSOUNDS:;
#ATTACKS:;

//---------------dance-single - ----------------
#NOTES:
     dance-single:
     BASIC:
     Easy:
     7:
     0.328604,0.388727,0.338268,0.766742,0.000000,204.000000,174.000000,30.000000,68.000000,0.000000,0.000000,0.328604,0.388727,0.338268,0.766742,0.000000,204.000000,174.000000,30.000000,68.000000,0.000000,0.000000:
0000
0202
0000
0000
0000
0000
0303
0000
,
0000
2020
0000
0000
0000
0000
3030
0000
,
0000
0022
0000
0000
0000
0000
0033
0000
,
0000
2200
0000
0000
0000
0000
3300
0000
,
0000
1010
0001
0000
,
0001
0110
1000
0000
,
1000
1010
0100
0000
,
0010
2002
3003
0010
,
0001
1000
0010
1000
,
0010
0100
0001
0100
,
0001
0010
0100
0010
,
0100
1000
0001
1000
,
0001
0200
0301
0200
,
0301
2000
3001
2000
,
3001
0020
0031
0020
,
0031
2000
3100
2000
,
3100
0002
1003
0200
,
0310
0002
0103
0020
,
0130
0002
0013
0200
,
1300
0020
1030
0002
,
0103
0102
0013
0120
,
1030
1020
0031
1002
,
0103
0102
0013
0120
,
1030
0010
1000
0100
,
0010
0001
0200
0300
,
0100
0010
2000
3000
,
0001
0100
2000
3000
,
0100
0002
0000
0000
,
1003
1001
0010
1000
,
0010
0100
0001
0010
,
0001
1000
0100
0001
,
0100
1000
0010
0100
,
0010
1001
0010
0200
,
0301
0010
0100
2000
,
3001
0100
1000
0200
,
0301
0010
0001
2000
,
3010
0000
0002
0100
0000
0000
2003
0100
,
0000
0000
3001
0020
0000
0000
0130
2000
,
0000
3002
0203
0320
,
2030
3200
0320
0032
,
1003
0010
2000
0000
0000
0000
0100
0000
,
3100
0012
0103
0120
,
1030
1020
0031
1002
,
0103
0102
0013
0120
,
1030
1020
0130
0120
,
0031
0102
1003
1002
,
0013
1020
0130
0120
,
0031
1002
0103
1002
,
0103
0000
0010
0000
2000
0000
0000
3002
,
0000
0003
0000
0000
;

//---------------dance-single - ----------------
#NOTES:
     dance-single:
     DIFFICULT:
     Medium:
     9:
     0.412365,0.472025,0.248063,0.462300,0.016913,256.000000,234.000000,22.000000,41.000000,0.000000,0.000000,0.412365,0.472025,0.248063,0.462300,0.016913,256.000000,234.000000,22.000000,41.000000,0.000000,0.000000:
0000
1001
0000
0000
0200
0000
0320
0000
,
0030
0100
0000
0000
2000
0000
3002
0000
,
0003
1000
0000
0000
0020
0000
0230
0000
,
0300
0010
0000
0000
0002
0000
1003
0010
,
1000
0001
0101
0000
0100
0000
1001
0000
,
0010
1001
0100
1100
,
0001
0101
0010
1010
,
0100
0202
0303
0100
,
0010
1000
0001
1000
0001
0000
1000
0100
,
1000
0000
0001
0010
0001
0000
1000
0010
,
1000
0000
0001
0100
0001
0000
1000
0001
,
1000
0000
0010
0100
0010
0000
0100
0001
,
0100
0002
0103
0020
,
1030
0200
0310
0002
,
1003
0020
0130
0002
,
0103
0020
1030
0200
,
0310
0102
1003
0012
,
1003
1020
0130
0201
,
0310
2100
3001
2010
,
3001
0210
1300
0120
,
0031
0000
1002
0000
0103
0010
1000
0000
,
0100
0000
0002
0000
1003
0001
0100
0000
,
0100
0000
0020
0000
1030
0001
0010
0000
,
1000
0000
0020
0000
0130
1000
0100
0000
,
0001
1002
0100
0000
,
0103
0020
0001
0000
,
0031
0200
0010
0000
,
0310
1001
0000
0000
,
0010
0000
1001
0100
0010
0000
0010
0100
,
0001
0000
0100
0001
1000
0000
0010
0100
,
1000
0000
0100
1000
0010
0000
0001
0010
,
0100
0000
0010
0100
0001
0000
1000
0001
,
0100
0000
1001
0000
0010
0100
0001
0000
,
0100
0010
0010
0000
0001
1000
0010
0000
,
0001
1000
1000
0000
0010
0100
1000
0000
,
0001
0100
0100
0000
0010
0000
1000
0000
,
0010
0000
0001
0100
0000
0100
0010
1000
,
0000
1000
0001
0100
0000
0100
0010
0001
,
0000
0001
0010
1000
0100
0001
0100
1000
,
0010
0001
0010
1000
0010
0100
0010
0001
,
0010
0100
0002
0000
0000
0000
0013
0000
,
0010
0100
1001
0000
0100
0000
1000
0010
,
0200
0000
0301
0000
1000
0000
0001
0010
,
0100
0000
0000
2000
0000
0000
0000
0000
3010
0000
0000
0000
0100
0000
0010
0000
,
2000
0000
3001
0000
0010
0000
0100
0010
,
0100
0000
0000
2000
0000
0000
0000
0000
3001
0000
0000
0000
0100
0000
0001
0000
,
2000
0000
3001
0000
0100
0000
0010
0100
,
0001
0000
0000
2000
0000
0000
0000
0000
3010
0000
0000
0000
0100
0000
0001
0000
,
0010
0000
0100
0000
2000
0000
0000
3002
,
0000
0003
0000
0000
;

//---------------dance-single - ----------------
#NOTES:
     dance-single:
     EXPERT:
     Hard:
     12:
     0.507402,0.638622,0.135307,0.428473,0.366457,315.000000,303.000000,12.000000,38.000000,0.000000,0.000000,0.507402,0.638622,0.135307,0.428473,0.366457,315.000000,303.000000,12.000000,38.000000,0.000000,0.000000:
0000
0110
0000
0000
0200
0000
0302
0000
,
0003
0101
0000
0000
0200
0000
2300
0000
,
3000
1100
0000
0000
0020
0000
0230
0000
,
0300
0000
0110
0000
0000
0000
0000
0000
0002
0000
0000
0000
1003
0000
0000
0001
,
1000
0010
0100
0001
0100
0000
1000
0100
,
1000
0000
0001
0100
0001
0000
1000
0010
,
1000
0000
0001
0010
0001
0000
1000
0001
,
1000
0000
0000
0000
2002
0000
0000
0000
3003
0000
0000
0010
0100
0000
0000
0010
,
0100
0000
1000
0000
0001
0000
1000
0000
0001
0100
0000
0001
2000
0000
0000
0000
,
0000
0000
3200
0000
0000
0000
0000
0000
0310
0001
0000
1000
0200
0000
0000
0000
,
0000
0000
0320
0000
0000
0000
0000
0000
0031
1000
0000
0010
0200
0000
0000
0000
,
0000
0000
0302
0000
0000
0000
0000
0000
1003
0100
0000
0010
0002
0000
0000
0000
,
0003
0000
0100
0000
1000
0000
0001
0000
1000
0010
0000
1000
0002
0000
0000
0000
,
0000
0000
0013
0000
0100
0000
0001
0000
0100
1000
0000
0001
0020
0000
0000
0000
,
0000
0000
0130
0000
1000
0000
0010
0000
1000
0001
0000
0100
0020
0000
0000
0000
,
0000
0000
1030
0000
0001
0000
0100
0000
0001
0010
0000
0100
2000
0000
0000
0000
,
3000
0100
1001
0100
0010
0000
1000
0001
,
0100
0010
0000
0001
1000
0100
0010
0100
,
1000
0000
0001
1000
0010
0000
0010
1000
,
0001
0000
0010
0000
0000
0000
0001
0000
1000
0000
0000
0010
0100
0000
0000
0010
,
0100
0001
1001
1000
0010
0100
0001
1000
,
0100
0010
0000
1000
0001
0100
1000
0100
,
0001
0000
1000
0001
0010
1000
0010
0001
,
1000
0000
0010
0000
0000
0000
1000
0000
0010
0000
0000
0010
0100
0000
0000
0001
,
1000
0000
0001
1000
0001
0000
0000
0000
1000
0000
0000
1000
0200
0000
0000
0000
,
0301
0000
0000
0001
0200
0000
0000
0000
0300
0000
0000
0010
0200
0000
0000
0000
,
1300
0000
0000
0000
0002
0000
0000
0000
0003
0000
0000
0100
0020
0000
0000
0000
,
1030
0000
0000
1000
0200
0000
0000
0000
0000
0000
0000
0000
0300
0000
0000
1000
,
0001
0000
1000
0001
1000
0000
0000
0000
0001
0000
0000
0001
0200
0000
0000
0000
,
1300
0000
0000
1000
0200
0000
0000
0000
0300
0000
0000
0010
0200
0000
0000
0000
,
0301
0000
0000
0001
2000
0000
0000
0000
3000
0000
0000
0100
0020
0000
0000
0000
,
0031
0000
0000
0001
2000
0000
0000
0000
3000
0000
0000
0000
0010
0100
0000
0010
,
0100
0001
1001
0000
0001
1000
0100
0010
,
0001
0000
0000
0001
1000
0000
0000
0000
0010
0000
0100
0000
0001
0000
0010
0000
,
0100
0000
0000
1000
0001
0000
0000
0000
1000
0000
0001
0000
0100
0000
0010
0000
,
1000
0000
0000
0100
0010
0000
0000
0000
0001
0000
0100
0000
1000
0000
0100
0000
,
0010
0000
0000
0100
0001
1000
0001
0000
0000
0000
0100
0000
1000
0001
1000
0000
,
0000
0000
0010
0000
0100
0001
0100
0000
0000
0000
0001
0000
0010
0100
0010
0000
,
0000
0000
0001
0000
1000
0100
1000
0000
0001
0100
0001
0000
1000
0010
1000
0000
,
0001
0010
0001
0000
0010
0000
1000
0000
0010
0000
0100
0000
0010
0000
0001
0000
,
1000
0001
1000
0001
2000
0000
0000
0000
0000
0000
0000
0000
3010
0100
0000
0010
,
0100
0000
0001
0000
1001
0000
0000
0000
1000
0000
0001
0000
0100
0010
0000
0000
,
0110
0000
0000
0000
0100
0000
0000
0000
0001
0000
1000
0000
0100
0010
0000
0000
,
0100
0000
0010
0002
0000
0000
0000
0000
1003
0000
0000
0000
0010
0100
0000
0000
,
0110
0000
0000
0000
0010
0000
0000
0000
1000
0000
0001
0000
0010
0100
0000
0000
,
0010
0000
0100
2000
0000
0000
0000
0000
3001
0000
0000
0000
0010
0100
0000
0000
,
1000
0000
0000
0000
0001
0000
0000
0000
0100
0000
0000
0000
0010
1000
0000
0000
,
0001
0000
0000
0200
0000
0000
0000
0000
0310
0000
0000
0000
0100
0001
0000
0000
,
1000
0000
1001
0000
0020
0000
0000
0230
,
0000
0300
0000
0000
;

//---------------dance-single - ----------------
#NOTES:
     dance-single:
     CHALLENGE:
     Challenge:
     15:
     0.736136,0.841442,0.011276,0.338268,0.648348,457.000000,456.000000,1.000000,30.000000,0.000000,0.000000,0.736136,0.841442,0.011276,0.338268,0.648348,457.000000,456.000000,1.000000,30.000000,0.000000,0.000000:
0000
0000
1000
0000
1000
0000
1000
0000
0001
0010
0000
0010
0100
0000
0010
0000
,
0001
0000
1000
0000
1000
0000
1000
0000
0010
0100
0000
0100
0001
0000
0010
0000
,
0100
0000
0001
0000
0001
0000
0001
0000
0100
1000
0000
1000
0010
0000
1000
0000
,
0100
0000
0001
0000
0001
0000
0001
0000
0100
0010
0000
0010
0001
0000
0010
0100
,
1000
0000
0001
0000
0100
0010
0100
0000
0010
0000
1000
0000
0001
0200
0000
0000
,
0010
0000
0310
0000
1000
0010
1000
0000
0100
0000
0010
0000
0001
1000
0000
0100
,
0020
0000
0000
0000
0000
0000
0001
0000
0000
0000
0000
0000
0031
0000
0000
0100
0000
0000
0001
0000
0000
0000
0000
0000
0010
0000
0000
0000
0000
0000
0100
0000
0000
0000
0000
0000
1000
0000
0000
0000
1000
0000
0001
0000
0000
0000
1000
0000
,
0001
0000
0000
0000
0010
0000
0100
0000
0000
0000
0020
0000
0200
0000
0000
0000
0000
0000
0000
0000
0000
0000
0000
0000
0330
0000
0000
0000
0000
0000
0000
0000
0000
1000
0000
0000
0001
0000
0000
0000
0000
0000
0000
0000
0000
0010
0000
0000
,
0100
0000
1000
0001
1000
0000
0100
0000
0001
0000
0100
0000
1000
0200
0000
0000
,
0310
0000
0001
0000
1000
0000
0010
0000
0001
0000
0010
0000
1000
0001
1000
0001
,
2000
0000
0010
0000
3010
0000
0100
0000
0001
0000
0010
0000
1000
0020
0000
0000
,
0031
0000
0100
0000
0010
0000
1000
0000
0100
0000
0001
0000
1000
0001
1000
0000
,
0001
0000
0100
0000
1000
0000
0001
0000
0010
0000
0100
0000
1000
0002
0000
0000
,
0013
0000
0001
0000
1000
0000
0010
0000
0100
0000
0001
0000
0010
0100
0010
0100
,
0020
0000
0100
0000
0130
0000
1000
0000
0100
0000
0010
0000
0100
0002
0000
0000
,
0103
0000
1000
0000
0001
0000
1000
0000
0010
0000
0001
0000
1000
0001
1000
0000
,
0001
0000
0010
0000
1000
0000
0001
0000
0010
0000
0100
0000
0010
0100
0000
0100
,
2000
0000
0001
0000
3001
0000
1000
0000
0010
0000
0100
0000
0001
0010
0001
0000
,
2000
0000
0000
3100
0010
0000
0001
0000
1000
0000
0001
0000
0010
0100
0000
0100
,
0002
0000
0100
0000
0103
0000
1000
0000
0001
0000
0100
0000
0010
1000
0010
1000
,
0020
0000
0100
0000
0130
0000
0001
0000
0010
0000
0100
0000
1000
0001
1000
0002
,
0000
0000
0010
0000
0013
0000
0100
0000
0001
0000
0100
0000
0010
0001
0010
0001
,
2000
0000
0100
0000
3100
0000
1000
0000
0001
0000
1000
0000
0010
0100
0010
0200
,
0000
0000
0001
0000
0301
0000
0010
0000
0100
0000
1000
0000
0001
0010
0000
0010
,
0100
0000
1000
0001
0020
0000
0000
0001
0000
0000
0031
0000
2000
0000
0000
0100
,
0000
0000
3100
0000
0010
0001
0000
0001
1000
0000
0010
0000
0200
0000
0000
1000
,
0000
0000
0301
0000
0020
0000
0000
0100
0000
0000
0130
0000
2000
0000
0000
0001
,
0000
0000
3001
0000
1000
0001
0000
1000
0001
0000
0010
0000
0100
1000
0100
0000
,
0010
0000
0000
0000
0000
0000
0001
0000
0000
1000
0000
0000
0001
0000
0000
0000
0010
0000
0001
0000
0000
0000
0000
0000
0100
0000
0000
0000
0000
0000
0010
0000
0000
0000
0000
0000
1000
0000
0000
0100
0000
0000
1000
0000
0000
0000
0000
0000
,
0001
0000
0000
0000
0000
0000
0100
0000
0000
0000
0000
0000
0010
0000
0000
0000
1000
0000
0001
0000
0000
0000
0000
0000
0010
0000
0000
0000
0000
0000
0100
0000
0000
0000
0000
0000
1000
0000
0000
0010
0000
0000
1000
0000
0000
0000
0000
0000
,
0100
0000
0000
0000
0000
0000
0010
0000
0000
0000
0000
0000
0001
0000
0000
0000
0100
0000
0010
0000
0000
0000
0000
0000
0100
0000
0000
0000
0000
0000
0001
0000
0000
0000
0000
0000
0010
0000
0000
0001
0000
0000
0010
0000
0000
0000
0000
0000
,
0001
0000
0000
0000
0000
0000
1000
0000
0000
0000
0000
0000
0010
0000
0000
0000
1000
0000
0100
0000
0000
0000
0000
0000
1000
0000
0000
0000
0000
0000
0001
0000
0000
0000
0000
0000
0010
0000
0000
0100
0000
0000
0010
0000
0000
0100
0000
0000
,
0010
0000
0000
0001
1000
0000
0001
0000
0010
0000
0001
0100
0001
0100
0000
0010
,
1000
0000
0100
0000
0010
0000
0001
0000
1000
0000
0100
0010
0100
0010
0000
0001
,
0100
0000
0010
0000
1000
0000
0100
0000
0001
0000
0100
1000
0100
1000
0000
0001
,
0010
0000
1000
0000
0010
0000
0001
0000
1000
0000
0010
0100
0010
0100
0000
0001
,
1000
0000
0000
0000
0000
0000
0100
0000
0000
0010
0000
0000
0100
0000
0000
0000
1000
0000
0001
0000
0000
0000
0000
0000
0010
0000
0000
0000
0000
0000
0100
0000
0000
0000
0000
0000
1000
0000
0000
0000
0001
0000
0010
0000
0000
0000
0000
0000
,
0100
0000
0000
0010
0000
0000
0001
0000
1000
0010
0000
0000
0100
0000
0000
0001
0000
0000
0010
0000
0001
1000
0000
0000
,
0010
0000
0000
0100
0000
0000
0001
0000
0010
0001
0000
0000
0010
0000
0100
0010
0000
0000
0100
0000
1000
0010
0000
0000
,
1000
0000
0000
0000
0001
0000
0100
0000
0000
0000
0010
0000
0100
0000
0000
0000
0010
0000
0100
0000
0000
0000
0001
0000
1000
0000
0000
0000
0001
0000
1000
0000
0000
0000
0100
0000
0010
0000
0000
0001
0000
0000
1000
0000
0000
0001
0000
0000
,
0010
0100
1000
0002
2000
0000
0000
0000
0000
0000
0000
0000
0000
0000
0000
0000
,
3003
0000
0000
0000
0001
0010
0100
0000
1000
0000
0010
0000
1000
0100
0010
0000
,
0100
0002
0000
0000
0103
1000
0010
0000
0100
0000
0001
0000
0010
0001
1000
0000
,
0010
0100
0000
0100
0010
0100
0001
0000
0100
0000
0010
0000
1000
0010
0100
0000
,
0001
1000
0000
0100
0010
0001
0010
0000
0100
0000
1000
0000
0001
0100
0001
0100
,
0010
0000
0000
0001
0010
0000
1000
0000
0010
0000
0100
0000
0010
0000
0001
0000
,
0020
1000
1030
0100
0001
0100
0010
0100
,
2000
0001
3001
1000
0100
0001
1000
0010
,
0001
1000
0010
0000
0210
0000
2300
0002
,
0000
0000
0000
3003
;

//---------------dance-single - ----------------
#NOTES:
     dance-single:
     BEGINNER:
     Beginner:
     4:
     0.172356,0.272024,0.236788,0.000000,0.000000,107.000000,86.000000,21.000000,0.000000,0.000000,0.000000,0.172356,0.272024,0.236788,0.000000,0.000000,107.000000,86.000000,21.000000,0.000000,0.000000,0.000000:
0000
0000
0000
0000
,
0000
0000
0000
0000
,
0000
0000
0000
0000
,
0000
0000
0000
0000
,
0000
1001
0000
0000
,
0001
0000
1000
0000
,
1000
0000
0100
0000
,
0010
0000
0000
0010
,
0000
1000
0000
1000
,
0000
0100
0000
0100
,
0000
0010
0000
0010
,
0000
1000
0000
1000
,
0000
0100
0000
0100
,
0000
1000
0000
1000
,
0000
0010
0000
0010
,
0000
1000
0000
1000
,
0000
0001
0000
0100
,
0000
0001
0000
0010
,
0000
0001
0000
0100
,
0000
0010
0000
0001
,
0000
0110
0000
0110
,
0000
1001
0000
1001
,
0000
0110
0000
0110
,
0000
0010
0000
0100
,
0000
0001
0000
0000
,
0100
0000
1000
0000
,
0001
0000
1000
0000
,
0100
0000
0000
0000
,
1000
0000
0010
0000
,
0010
0000
0001
0000
,
0001
0000
0100
0000
,
0100
0000
0010
0000
,
0010
0000
0010
0000
,
0001
0000
0100
0000
,
0001
0000
1000
0000
,
0001
0000
0001
0000
,
0010
0000
0000
1000
,
0000
0001
0000
0100
,
0000
0001
0000
0010
,
0000
0100
0000
0001
,
0000
1000
0000
0100
,
0000
1001
0000
0110
,
0000
1001
0000
1001
,
0000
0110
0000
0110
,
0000
1001
0000
0110
,
0000
0110
0000
1001
,
0000
1001
0000
0110
,
0000
1001
0000
1001
,
0000
0010
0000
0000
;

//---------------dance-double - ----------------
#NOTES:
     dance-double:
     BASIC:
     Easy:
     8:
     0.328604,0.388727,0.338268,0.766742,0.000000,204.000000,174.000000,30.000000,68.000000,0.000000,0.000000,0.328604,0.388727,0.338268,0.766742,0.000000,204.000000,174.000000,30.000000,68.000000,0.000000,0.000000:
00000000
02020000
00000000
00000000
00000000
00000000
03030000
00000000
,
00000000
00022000
00000000
00000000
00000000
00000000
00033000
00000000
,
00000000
00002200
00000000
00000000
00000000
00000000
00003300
00000000
,
00000000
00000022
00000000
00000000
00000000
00000000
00000033
00000000
,
00000000
00001010
00000100
00000000
,
00001000
00011000
00100000
00000000
,
00010000
11000000
01000000
00000000
,
01000000
20020000
30030000
00100000
,
00010000
10000000
00010000
10000000
,
00010000
01000000
00001000
01000000
,
00001000
00100000
00001000
00100000
,
00001000
00010000
00000100
00010000
,
00000100
00020000
00030010
00020000
,
00030010
00002000
00003001
00002000
,
00003001
00000200
00000310
00000200
,
00000310
00020000
00031000
00020000
,
00031000
02000000
03010000
00200000
,
01300000
20000000
30100000
00200000
,
01300000
00020000
00130000
00002000
,
00013000
00000200
00000310
00000002
,
00000103
00000102
00000013
00001020
,
00000130
00102000
00013000
10020000
,
01030000
01020000
00130000
01200000
,
00310000
00001000
00000100
00000010
,
00001000
00000100
00000020
00000030
,
00000100
00000010
00000002
00000003
,
00000100
00001000
00020000
00030000
,
01000000
20000000
00000000
30000000
,
00010000
10010000
00100000
10000000
,
00100000
01000000
00010000
01000000
,
00010000
00100000
00001000
00100000
,
00001000
00010000
00000010
00010000
,
00000010
00001010
00000010
00000200
,
00000301
00000010
00000100
00002000
,
00003100
00010000
01000000
20000000
,
30010000
01000000
00100000
20000000
,
30100000
00000000
00020000
01000000
00000000
00030000
00002000
00010000
,
00000000
00003000
00000020
00001000
00000000
00000030
00000100
00000002
,
00000000
00000203
00002300
00023000
,
02030000
23000000
30200000
00320000
,
00031000
00000010
00000002
00000000
00000000
00000000
00000100
00000000
,
00000103
00000102
00000013
00001020
,
00000130
00102000
00013000
10020000
,
01030000
10200000
01300000
01020000
,
00130000
00010200
00001300
00001002
,
00000013
00000102
00000013
00001020
,
00000130
00102000
00013000
10020000
,
01030000
01020000
00130000
01200000
,
00310000
00000000
00100000
00000000
20000000
00000000
00000000
30020000
,
00000000
00030000
00000000
00000000
;

//---------------dance-double - ----------------
#NOTES:
     dance-double:
     DIFFICULT:
     Medium:
     10:
     0.405922,0.472025,0.236788,0.496127,0.016913,252.000000,231.000000,21.000000,44.000000,0.000000,0.000000,0.405922,0.472025,0.236788,0.496127,0.016913,252.000000,231.000000,21.000000,44.000000,0.000000,0.000000:
00000000
10010000
00000000
00000000
02000000
00000000
03200000
00000000
,
00300000
00010000
00000000
00000000
00002000
00000000
00003200
00000000
,
00000300
00000010
00000000
00000000
00002000
00000000
00003200
00000000
,
00000300
00010000
00000000
00000000
00002000
00000000
00013000
00000000
,
00001000
00100000
00110000
00000000
01000000
00000000
10010000
00000000
,
00100000
01010000
00010000
00101000
,
00001000
00010010
00010000
00011000
,
00001000
00022000
00033000
00010000
,
00100000
01000000
00010000
10000000
00100000
00000000
10000000
00010000
,
00100000
00000000
00010000
00100000
00001000
00000000
00100000
00001000
,
00010000
00000000
00001000
00010000
00000010
00000000
00010000
00000010
,
00001000
00000000
00000010
00001000
00000001
00000000
00001000
00000001
,
00000100
00000200
00001300
00020000
,
00130000
02000000
03100000
20000000
,
31000000
00020000
00031000
00000200
,
00000301
00000020
00000130
00020000
,
00031000
01020000
10030000
10020000
,
01030000
01002000
00013000
01020000
,
00031000
00102000
00013000
00012000
,
00103000
00010200
00001300
00012000
,
00003100
00000000
00001200
00000000
00000301
00000100
00000010
00000000
,
00001000
00000000
00000200
00000000
00000301
00000100
00001000
00000000
,
00000010
00000000
00020000
00000000
00031000
00010000
00100000
00000000
,
10000000
00000000
00200000
00000000
01300000
00010000
10000000
00000000
,
01000000
10020000
01000000
00000000
,
01030000
00200000
00001000
00000000
,
00301000
00020000
00000100
00000000
,
00030100
00001100
00000000
00000000
,
00000010
00000000
00001100
00001000
00000100
00000000
00010000
00001000
,
00100000
00000000
01000000
10000000
00010000
00000000
00100000
01000000
,
00010000
00000000
10000000
01000000
00010000
00000000
00001000
00000010
,
00000001
00000000
00001000
00000001
00000100
00000000
00001000
00010000
,
00100000
00000000
10010000
00000000
00100000
10000000
02000000
00000000
,
03100000
00010000
00010000
00000000
10000000
01000000
00200000
00000000
,
00310000
01000000
01000000
00000000
00100000
00010000
00002000
00000000
,
00013000
00000100
00000100
00000000
00001000
00000100
00000010
00000000
,
00000001
00000000
00000100
00001000
00000000
00010000
01000000
10000000
,
00000000
10000000
00010000
01000000
00000000
01000000
00100000
00010000
,
00000000
00001000
00000100
00000001
00000010
00001000
00000010
00000001
,
00000100
00001000
00000100
00000010
00000100
00000001
00001000
00000100
,
00010000
00001000
00020000
00000000
00000000
00000000
00031000
00000000
,
00010000
01000000
10000000
00000000
01000000
00000000
10000000
00100000
,
00020000
00000000
00031000
00000000
00010000
00000000
00001000
00000100
,
00000001
00000000
00000000
00002000
00000000
00000000
00000000
00000000
00003000
00000000
00000000
00000000
00000010
00000000
00000100
00000000
,
00002000
00000000
00003000
00000000
00010000
00000000
01000000
00100000
,
01000000
00000000
00000000
20000000
00000000
00000000
00000000
00000000
30010000
00000000
00000000
00000000
01000000
00000000
00010000
00000000
,
00200000
00000000
00301000
00000000
00010000
00000000
00001000
00000010
,
00000001
00000000
00000000
00000200
00000000
00000000
00000000
00000000
00000300
00000000
00000000
00000000
00010000
00000000
01000000
00000000
,
00100000
00000000
01000000
00000000
20000000
00000000
00000000
30020000
,
00000000
00030000
00000000
00000000
;

//---------------dance-double - ----------------
#NOTES:
     dance-double:
     EXPERT:
     Hard:
     13:
     0.520289,0.638622,0.112756,0.428473,0.377733,323.000000,313.000000,10.000000,38.000000,0.000000,0.000000,0.520289,0.638622,0.112756,0.428473,0.377733,323.000000,313.000000,10.000000,38.000000,0.000000,0.000000:
00000000
10010000
00000000
00000000
00200000
00000000
02300000
00000000
,
03000000
01100000
00000000
00000000
00020000
00000000
00032000
00000000
,
00003000
00000000
00011000
00000000
00000000
00000000
00000000
00000000
00000020
00000000
00000000
00000030
00000200
00000000
00000000
00000000
,
00000300
00000000
00000110
00000000
00000000
00000000
00000000
00000000
00002000
00000000
00000000
00000000
00013000
00000000
00000000
00001000
,
00010000
01000000
10000000
00100000
10000000
00000000
10000000
01000000
,
00010000
00000000
01000000
00010000
00001000
00000000
00010000
00001000
,
00000010
00000000
00001000
00000010
00000001
00000000
00001000
00000001
,
00001000
00000000
00000000
00000000
00002002
00000000
00000000
00000000
00003003
00000000
00000000
00000010
00000100
00000000
00000000
00000010
,
00000100
00000000
00000001
00000000
00001000
00000000
00000100
00000000
00010000
00001000
00000000
00100000
00020000
00000000
00000000
00000000
,
00000000
00000000
02030000
00000000
00000000
00000000
00000000
00000000
03100000
10000000
00000000
00010000
02000000
00000000
00000000
00000000
,
00000000
00000000
03200000
00000000
00000000
00000000
00000000
00000000
01300000
00001000
00000000
00010000
00002000
00000000
00000000
00000000
,
00000000
00000000
00023000
00000000
00000000
00000000
00000000
00000000
00030100
00001000
00000000
00000001
00000200
00000000
00000000
00000000
,
00000300
00000000
00001000
00000000
00010000
00000000
01000000
00000000
10000000
00100000
00000000
10000000
00020000
00000000
00000000
00000000
,
00000000
00000000
01030000
00000000
00100000
00000000
00010000
00000000
00001000
00010000
00000000
00000100
00002000
00000000
00000000
00000000
,
00000000
00000000
00003001
00000000
00000100
00000000
00000001
00000000
00001000
00000100
00000000
00000010
00000002
00000000
00000000
00000000
,
00000000
00000000
00000103
00000000
00000010
00000000
00001000
00000000
00000010
00000100
00000000
00001000
00020000
00000000
00000000
00000000
,
00130000
01000000
10000000
01000000
00010000
00001000
00000010
00000001
,
00000010
00001000
00010000
01000000
10000000
01000000
00100000
10000000
,
00100000
00010000
00001000
00000100
00000001
00000100
00000010
00000001
,
00000010
00000000
00001000
00000000
00010000
00000000
01000000
00000000
00100000
00000000
00000000
10000000
00010000
00000000
00000000
10000000
,
00010000
10000000
00100000
01000000
00100000
10000000
00010000
01000000
,
00100000
00010000
00001000
00000010
00000100
00001000
00000100
00000010
,
00001000
00010000
00100000
01000000
00010000
01000000
00100000
00010000
,
00001000
00000000
00010000
00000000
00000100
00000000
00001000
00000000
00000010
00000000
00000000
00000010
00000100
00000000
00000000
00000001
,
00001000
00000000
00000100
00010000
00000100
00000000
00000000
00000000
01000000
00000000
00000000
10000000
02000000
00000000
00000000
00000000
,
03010000
00000000
00000000
00010000
02000000
00000000
00000000
00000000
03000000
00000000
00000000
00100000
00020000
00000000
00000000
00000000
,
01030000
00000000
00000000
00001000
00020000
00000000
00000000
00000000
00030000
00000000
00000000
00000100
00000020
00000000
00000000
00000000
,
00000031
00000000
00000000
00000001
00002000
00000000
00000000
00000000
00000000
00000000
00000000
00000000
00003000
00000000
00000000
00001000
,
00000010
00000000
00010000
00001000
00010000
00000000
00000000
00000000
00010000
00000000
00000000
00010000
02000000
00000000
00000000
00000000
,
13000000
00000000
00000000
10000000
02000000
00000000
00000000
00000000
03000000
00000000
00000000
01000000
00020000
00000000
00000000
00000000
,
00031000
00000000
00000000
00000100
00000002
00000000
00000000
00000000
00000003
00000000
00000000
00000010
00002000
00000000
00000000
00000000
,
00013000
00000000
00000000
00010000
02000000
00000000
00000000
00000000
03000000
00000000
00000000
00000000
00100000
01000000
00000000
00100000
,
01000000
10000000
10010000
00000000
00010000
01000000
00100000
00010000
,
00001000
00000000
00000000
00010000
00001000
00000000
00000000
00000000
00010000
00000000
00001000
00000000
00000010
00000000
00000100
00000000
,
00001000
00000000
00000000
00000001
00000100
00000000
00000000
00000000
00000100
00000000
00001000
00000000
00010000
00000000
00100000
00000000
,
10000000
00000000
00000000
01000000
00100000
00000000
00000000
00000000
01000000
00000000
00010000
00000000
00001000
00000000
00000010
00000000
,
00000001
00000000
00000000
00000100
00000001
00001000
00000001
00000000
00000000
00000000
00000100
00000000
00001000
00010000
00001000
00000000
,
00000000
00000000
00100000
00000000
01000000
10000000
01000000
00000000
00000000
00000000
00100000
00000000
00001000
00010000
00001000
00000000
,
00000000
00000000
00010000
00000000
00000100
00001000
00000001
00000000
00000010
00000001
00001000
00000000
00000100
00010000
00001000
00000000
,
00010000
00001000
00100000
00000000
00010000
00000000
10000000
00000000
01000000
00000000
00010000
00000000
00001000
00000000
00010000
00000000
,
00001000
00010000
00001000
00010000
00002000
00000000
00000000
00000000
00000000
00000000
00000000
00000000
00103000
00010000
00000000
00100000
,
01000000
00000000
10000000
00000000
10010000
00000000
00000000
00000000
00010000
00000000
00100000
00000000
00001000
00010000
00000000
00000000
,
00011000
00000000
00000000
00000000
00000100
00000000
00000000
00000000
00001000
00000000
00000100
00000000
00000010
00000001
00000000
00000000
,
00001000
00000000
00000100
00000020
00000000
00000000
00000000
00000000
00001030
00000000
00000000
00000000
00010000
01000000
00000000
00000000
,
01100000
00000000
00000000
00000000
00100000
00000000
00000000
00000000
00010000
00000000
10000000
00000000
00100000
01000000
00000000
00000000
,
00100000
00000000
01000000
00020000
00000000
00000000
00000000
00000000
01030000
00000000
00000000
00000000
00001000
00010000
00000000
00000000
,
00000100
00000000
00000000
00000000
00000010
00000000
00000000
00000000
00001000
00000000
00000000
00000000
00100000
00010000
00000000
00000000
,
10000000
00000000
00000000
02000000
00000000
00000000
00000000
00000000
03100000
00000000
00000000
00000000
01000000
10000000
00000000
00000000
,
00010000
00000000
01010000
00000000
00002000
00000000
00000000
00003200
,
00000000
00000300
00000000
00000000
;

//---------------dance-double - ----------------
#NOTES:
     dance-double:
     CHALLENGE:
     Challenge:
     15:
     0.726471,0.817482,0.011276,0.349544,0.625796,451.000000,450.000000,1.000000,31.000000,0.000000,0.000000,0.726471,0.817482,0.011276,0.349544,0.625796,451.000000,450.000000,1.000000,31.000000,0.000000,0.000000:
// measure 0
00000000
00000000
10000000
00000000
10000000
00000000
00010000
00000000
00100000
01000000
00000000
01000000
00100000
00000000
00010000
00000000
,  // measure 1
01000000
00000000
00001000
00000000
00001000
00000000
00010000
00000000
00001000
00100000
00000000
00100000
00001000
00000000
00010000
00000000
,  // measure 2
00000100
00000000
00000010
00000000
00000010
00000000
00000100
00000000
00000010
00000001
00000000
00000001
00000010
00000000
00000100
00000000
,  // measure 3
00001000
00000000
00000001
00000000
00000001
00000000
00001000
00000000
00000010
00001000
00000000
00001000
00000010
00000000
00010000
00001000
,  // measure 4
00010000
00000000
00000100
00000000
00001000
00000000
00000100
00000000
00010000
00000000
00001000
00000000
00100000
01000000
00000000
01000000
,  // measure 5
20000000
00000000
00010000
00000000
30020000
00000000
01000000
00000000
00000000
00000000
00130000
00000000
00100000
00010000
00100000
00000000
,  // measure 6
00010000
00000000
00000000
10000000
00000000
00000000
01000000
00000000
00000000
00010000
00000000
00000000
00001000
00000000
00000000
00000100
00000000
00000000
00000001
00000000
00001000
00000100
00000000
00001000
,  // measure 7
00000100
00000000
00000000
00000000
00000010
00000000
00000100
00000000
00000000
00000000
00000020
00000000
00000200
00000000
00000000
00000000
00000000
00000000
00000000
00000000
00000000
00000000
00000000
00000000
00000330
00000000
00000000
00000000
00000000
00000000
00000000
00000000
00000000
00000001
00000000
00000000
00001000
00000000
00000000
00000000
00000000
00000000
00000000
00000000
00000000
00000100
00000000
00000000
,  // measure 8
00000010
00000000
00000001
00001000
00000001
00000000
00000010
00000000
00000100
00000000
00010000
00000000
00001000
00000200
00000000
00000000
,  // measure 9
00001300
00000000
00010000
00000000
01000000
00000000
10000000
00000000
00100000
00000000
01000000
00000000
00010000
20000000
00000000
00000000
,  // measure 10
31000000
00000000
00010000
00000000
00001000
00000000
00000100
00000000
00000010
00000000
00001000
00000000
00000001
00000200
00000000
00000000
,  // measure 11
00000310
00000000
00001000
00000000
00000100
00000000
00010000
00000000
01000000
00000000
00100000
00000000
00010000
20000000
00000000
00000000
,  // measure 12
31000000
00000000
00100000
00000000
00010000
00000000
10000000
00000000
00100000
00000000
01000000
00000000
00010000
00100000
00020000
00000000
,  // measure 13
01000000
00000000
01030000
00000000
00001000
00000000
00010000
00000000
00000100
00000000
00000010
00000000
00000001
00001000
00000002
00000000
,  // measure 14
00001000
00000000
00001003
00000000
00000001
00000000
00000010
00000000
00001000
00000000
00010000
00000000
01000000
00100000
02000000
00000000
,  // measure 15
00100000
00000000
03100000
00000000
00010000
00000000
10000000
00000000
00100000
00000000
01000000
00000000
00010000
00100000
00000000
00100000
,  // measure 16
01000000
00000000
00100000
00001000
00010000
00001000
00000000
00001000
00010000
00000000
00000010
00000000
00010000
00000200
00000000
00000000
,  // measure 17
00001300
00000000
01000000
00000000
00100000
00010000
00000000
00010000
00100000
00000000
01000000
10000000
00010000
20000000
00000000
00000000
,  // measure 18
30100000
00000000
01000000
00000000
00001000
00010000
00000000
00010000
00001000
00000000
00010000
00000000
00000010
00002000
00000000
00000000
,  // measure 19
00003100
00000000
00000010
00000000
00000001
00001000
00000000
00001000
00000001
00000000
00000010
00000100
00001000
00000200
00000000
00000000
,  // measure 20
00010300
00000000
00001000
00000000
00100000
00000000
01000000
00000000
10000000
00000000
00010000
00000000
00100000
01000000
00100000
01000000
,  // measure 21
00100000
00000000
10000000
00000000
00100000
00000000
00001000
00000000
00010000
00000000
00000100
00000000
00010000
00000100
00010000
00000100
,  // measure 22
00010000
00000000
00000010
00000000
00000100
00000000
00001000
00000000
00000100
00000000
00000001
00000000
00001000
00000001
00001000
00000001
,  // measure 23
00001000
00000000
00000010
00000000
00010000
00000000
00001000
00000000
00000010
00000000
00001000
00000000
00010000
00001000
00000000
00001000
,  // measure 24
00010000
00000000
00001000
00100000
02000000
00000000
00000000
10000000
00000000
00000000
13000000
00000000
00020000
00000000
00000000
00100000
,  // measure 25
00000000
00130000
00002000
00000000
00013000
00000010
00000200
00000000
,  // measure 26
00000301
00000000
00001000
00000000
00000200
00000000
00000000
00000001
00000000
00000000
00001300
00000000
00000020
00000000
00000000
00000100
,  // measure 27
00000000
00000000
00001030
00000000
00000001
00001000
00000000
00000001
00001000
00000000
00000010
00000000
00001000
00000001
00001000
00000000
,  // measure 28
00000010
00000000
00000000
00000000
00000000
00000000
00010000
00000000
00000000
00000100
00000000
00000000
00010000
00000000
00000000
00000000
00001000
00000000
00010000
00000000
00000000
00000000
00000000
00000000
00001000
00000000
00000000
00000000
00000000
00000000
00100000
00000000
00000000
00000000
00000000
00000000
01000000
00000000
00000000
00000000
00000000
00000000
00100000
00000000
00000000
00000000
00000000
00000000
,  // measure 29
00001000
00000000
00000000
00000000
00000000
00000000
00100000
00000000
00000000
00000000
00000000
00000000
00010000
00000000
00000000
00000000
10000000
00000000
00010000
00000000
00000000
00000000
00000000
00000000
00100000
00000000
00000000
01000000
00000000
00000000
00100000
00000000
00000000
00000000
00000000
00000000
01000000
00000000
00000000
00000000
00000000
00000000
10000000
00000000
00000000
00000000
00000000
00000000
,  // measure 30
01000000
00000000
00000000
00000000
00000000
00000000
00010000
00000000
00000000
00000000
00000000
00000000
01000000
00000000
00000000
00000000
00100000
00000000
00010000
00000000
00000000
00000000
00000000
00000000
00100000
00000000
00000000
00000000
00000000
00000000
00001000
00000000
00000000
00000000
00000000
00000000
00100000
00000000
00000000
00010000
00000000
00000000
00100000
00000000
00000000
00000000
00000000
00000000
,  // measure 31
00001000
00000000
00000000
00000000
00000000
00000000
00010000
00000000
00000000
00000000
00000000
00000000
00000100
00000000
00000000
00000000
00001000
00000000
00000001
00000000
00000000
00000000
00000000
00000000
00000010
00000000
00000000
00000100
00000000
00000000
00000010
00000000
00000000
00000000
00000000
00000000
00000001
00000000
00000000
00000010
00000000
00000000
00000000
00000000
00000000
00000100
00000000
00000000
,  // measure 32
00001000
00000000
00000000
00000000
00000000
00000000
00000001
00000000
00000000
00000100
00000000
00000000
00000010
00000000
00000000
00000000
00001000
00000000
00000001
00000000
00000000
00000000
00000000
00000000
00000100
00000000
00000000
00000000
00000000
00000000
00001000
00000000
00000000
00000000
00000000
00000000
00010000
00000000
00000000
00001000
00000000
00000000
00010000
00000000
00000000
00000000
00000000
00000000
,  // measure 33
00001000
00000000
00000000
00000000
00000000
00000000
00100000
00000000
00000000
00000000
00000000
00000000
00010000
00000000
00000000
00000000
10000000
00000000
01000000
00000000
00000000
00000000
00000000
00000000
10000000
00000000
00000000
00010000
00000000
00000000
10000000
00000000
00000000
00010000
00000000
00000000
00100000
00000000
00000000
00000000
00000000
00000000
01000000
00000000
00000000
00000000
00000000
00000000
,  // measure 34
10000000
00000000
00000000
00000000
00000000
00000000
00010000
00000000
00000000
00000000
00000000
00000000
01000000
00000000
00000000
00000000
00100000
00000000
10000000
00000000
00000000
00000000
00000000
00000000
01000000
00000000
00000000
00000000
00000000
00000000
00100000
00000000
00000000
00000000
00000000
00000000
00001000
00000000
00000000
00010000
00000000
00000000
00001000
00000000
00000000
00000000
00000000
00000000
,  // measure 35
00010000
00000000
00000000
00000000
00000000
00000000
00000100
00000000
00000000
00000000
00000000
00000000
00001000
00000000
00000000
00000000
00000001
00000000
00000010
00000000
00000000
00000000
00000000
00000000
00000100
00000000
00000000
00000010
00000000
00000000
00000100
00000000
00000000
00000000
00000000
00000000
00001000
00000000
00000000
00000010
00000000
00000000
00000000
00000000
00000000
00000100
00000000
00000000
,  // measure 36
00000001
00000000
00000000
00000000
00000000
00000000
00000010
00000000
00000000
00000100
00000000
00000000
00001000
00000000
00000000
00000000
00000100
00000000
00010000
00000000
00000000
00000000
00000000
00000000
00001000
00000000
00000000
00000000
00000000
00000000
00100000
00000000
00000000
00000000
00000000
00000000
00010000
00000000
00000000
00000000
10000000
00000000
00100000
00000000
00000000
00000000
00000000
00000000
,  // measure 37
01000000
00000000
00000000
00010000
00000000
00000000
00100000
00000000
00001000
00010000
00000000
00000000
00000100
00000000
00000000
00001000
00000000
00000000
00000010
00000000
00000100
00000001
00000000
00000000
,  // measure 38
00000010
00000000
00000000
00001000
00000000
00000000
00010000
00000000
00001000
00010000
00000000
00000000
00001000
00000000
00100000
00001000
00000000
00000000
00010000
00000000
00000100
00010000
00000000
00000000
,  // measure 39
00001000
00000000
00000000
00000000
00010000
00000000
00001000
00000000
00000000
00000000
00000000
00000000
00100000
00000000
00000000
00000000
00010000
00000000
10000000
00000000
00000000
00000000
00010000
00000000
10000000
00000000
00000000
00000000
01000000
00000000
00100000
00000000
00000000
00000000
01000000
00000000
00100000
00000000
00000000
00001000
00000000
00000000
00010000
00000000
00000000
00001000
00000000
00000000
,  // measure 40
00010000
00000100
00001000
00000200
00000020
00000000
00000000
00000000
00000000
00000000
00000000
00000000
00000000
00000000
00000000
00000000
,  // measure 41
00000330
00000000
00000000
00000000
00000001
00000010
00000001
00000000
00001000
00000000
00000100
00000000
00010000
00000200
00000000
00000000
,  // measure 42
00010300
00002000
00000000
00000000
00103000
01000000
00100000
00000000
01000000
00000000
10000000
00000000
00010000
01000000
00010000
00000000
,  // measure 43
10000000
00200000
00000000
00000000
01300000
00010000
01000000
00000000
00001000
00000000
00100000
00000000
00001000
00020000
00000000
00000000
,  // measure 44
00030010
00002000
00000000
00000000
00003100
00001000
00000100
00000000
00001000
00000000
00000001
00000000
00000010
00000100
00000000
00000100
,  // measure 45
00001000
00000000
00000100
00010000
00001000
00000000
00100000
00000000
00010000
00000000
01000000
00000000
10000000
00000000
01000000
00000000
,  // measure 46
00010000
10000000
10000000
01000000
00010000
00001000
00000010
00000100
,  // measure 47
00001000
00000001
00000001
00000010
00001000
00000010
00000001
00001000
,  // measure 48
00000100
00010000
00100000
00000000
01200000
00000000
20300000
00020000
,  // measure 49
00000000
00000000
00000000
00000000
,  // measure 50
30030000
00000000
00000000
00000000
;
