#TITLE:GUERRILLA RADIO;
#SUBTITLE:(Speedomix);
#ARTIST:TOMMY B.;
#TITLETRANSLIT:;
#SUBTITLETRANSLIT:;
#ARTISTTRANSLIT:;
#GENRE:;
#CREDIT:;
#BANNER:GUERRILLA RADIO (Speedomix).png;
#BACKGROUND:GUERRILLA RADIO (Speedomix)-bg.png;
#LYRICSPATH:;
#CDTITLE:SPEED BUYUDEN.png;
#MUSIC:GUERRILLA RADIO (Speedomix).ogg;
#OFFSET:-0.030000;
#SAMPLESTART:67.178001;
#SAMPLELENGTH:15.000000;
#SELECTABLE:YES;
#BPMS:0.000000=200.000000
;
#STOPS:
;
#BGCHANGES:32.000=ring10.mp4=1.000=1=0=1===CrossFade==,
48.000=bluey1.mp4=1.000=0=0=1=====,
64.000=tunnel11.mp4=1.000=0=0=1=====,
80.000=tunnel12.mp4=1.000=0=0=1=====,
88.000=bluey2.mp4=0.900=0=0=1=====,
91.000=blizzard4.mp4=1.000=0=0=1=====,
94.000=bluey2.mp4=1.600=0=0=1=====,
96.000=blackhole1.mp4=1.000=0=0=1=====,
112.000=blizzard4.mp4=1.000=0=1=1=StretchRewind====,
128.000=car1.mp4=1.000=0=0=1=====,
136.000=car2.mp4=1.000=0=0=1=====,
144.000=tunnel10.mp4=1.000=0=0=1=====,
152.000=tunnel11.mp4=1.000=0=1=1=StretchRewind====,
160.000=tunnel12.mp4=1.000=0=0=1=====,
176.000=blackhole1.mp4=1.000=0=1=1=StretchRewind====,
192.000=bubble1.mp4=1.000=0=0=1=====,
208.000=ring10.mp4=1.000=0=1=1=StretchRewind====,
216.000=bluey2.mp4=1.600=0=1=1=StretchRewind====,
220.000=blackhole2.mp4=2.000=0=0=1=====,
224.000=tunnel11.mp4=1.000=0=0=1=====,
232.000=tunnel12.mp4=1.000=0=0=1=====,
240.000=ring10.mp4=1.000=0=1=1=StretchRewind====,
248.000=bluey1.mp4=1.000=0=1=1=StretchRewind====,
256.000=car1.mp4=1.000=0=1=1=StretchRewind====,
264.000=car2.mp4=1.000=0=1=1=StretchRewind====,
272.000=car1.mp4=1.000=0=1=1=StretchRewind====,
280.000=bluey2.mp4=0.900=0=1=1=StretchRewind====,
283.000=blizzard4.mp4=1.000=0=1=1=StretchRewind====,
286.000=bluey2.mp4=1.600=0=0=1=====,
288.000=tunnel6.mp4=1.600=0=0=1=====,
304.000=tunnel7.mp4=1.400=0=0=1=====,
312.000=bluey1.mp4=1.000=0=1=1=StretchRewind====,
315.000=ring10.mp4=1.000=0=1=1=StretchRewind====,
318.000=bluey1.mp4=1.600=0=0=1=====,
319.000=GUERRILLA RADIO (Speedomix)-bg.png=1.000=0=0=1=====,
99999.000=-nosongbg-=1.000=0=0=0=StretchNoLoop====,
99999=-nosongbg-=1.000=0=0=0 // don't automatically add -songbackground-
;
#KEYSOUNDS:;
#ATTACKS:;

//---------------dance-single - ----------------
#NOTES:
     dance-single:
     :
     Beginner:
     5:
     0.187131,0.287440,0.071636,0.020467,0.000000,128.000000,121.000000,7.000000,2.000000,0.000000,0.000000,0.187131,0.287440,0.071636,0.020467,0.000000,128.000000,121.000000,7.000000,2.000000,0.000000,0.000000:
// measure 0
0000
0000
0000
0000
,  // measure 1
0000
0000
0000
0000
,  // measure 2
0000
0000
0000
0000
,  // measure 3
0000
0000
0000
0000
,  // measure 4
0000
0000
0000
0000
,  // measure 5
0000
0000
0000
0000
,  // measure 6
0000
0000
0000
0000
,  // measure 7
0000
0000
0000
0000
,  // measure 8
1000
0000
1000
0000
,  // measure 9
1000
0000
0000
0000
,  // measure 10
0001
0000
0001
0000
,  // measure 11
0001
0000
0000
0000
,  // measure 12
1000
0000
1000
0000
,  // measure 13
1000
0000
0000
0000
,  // measure 14
0001
0000
0001
0000
,  // measure 15
0001
0000
1000
0000
,  // measure 16
0010
0000
0010
0000
,  // measure 17
0010
0000
0000
0000
,  // measure 18
0100
0000
0100
0000
,  // measure 19
0100
0000
0000
0000
,  // measure 20
0010
0000
0010
0000
,  // measure 21
0010
0000
0000
0000
,  // measure 22
1001
0000
0000
0110
,  // measure 23
0000
0000
1000
0001
,  // measure 24
1000
0000
1000
0000
,  // measure 25
1000
0000
0000
0000
,  // measure 26
0001
0000
0001
0000
,  // measure 27
0001
0000
0000
0000
,  // measure 28
1000
0000
1000
0000
,  // measure 29
1000
0000
0000
0000
,  // measure 30
0001
0000
0001
0000
,  // measure 31
0001
0000
0000
0000
,  // measure 32
0100
0000
0100
0000
,  // measure 33
0100
0000
0000
0000
,  // measure 34
0010
0000
0010
0000
,  // measure 35
0010
0000
0000
0000
,  // measure 36
0100
0000
0100
0000
,  // measure 37
0100
0000
0000
0000
,  // measure 38
0010
0000
0010
0000
,  // measure 39
0010
0000
0000
0000
,  // measure 40
1000
1000
1000
0000
,  // measure 41
1000
0000
0000
0000
,  // measure 42
0001
0001
0001
0000
,  // measure 43
0001
0000
0000
0000
,  // measure 44
1000
1000
1000
0000
,  // measure 45
1000
0000
0000
0000
,  // measure 46
0001
0001
0001
0000
,  // measure 47
0001
0000
0000
0000
,  // measure 48
0100
0100
0100
0000
,  // measure 49
0100
0000
0000
0000
,  // measure 50
0010
0010
0010
0000
,  // measure 51
0010
0000
0000
0000
,  // measure 52
0100
0100
0100
0000
,  // measure 53
0100
0000
0000
0000
,  // measure 54
0010
0010
0010
0000
,  // measure 55
0010
0000
0000
0000
,  // measure 56
0100
0000
0100
0000
,  // measure 57
0100
0000
0000
0000
,  // measure 58
0100
0000
0100
0000
,  // measure 59
0100
0000
0000
0000
,  // measure 60
0010
0000
0010
0000
,  // measure 61
0010
0000
0000
0000
,  // measure 62
0010
0000
0010
0000
,  // measure 63
0010
0000
0000
0000
,  // measure 64
1000
0000
1000
0000
,  // measure 65
1000
0000
0000
0000
,  // measure 66
1000
0000
1000
0000
,  // measure 67
1000
0000
0000
0000
,  // measure 68
0001
0000
0001
0000
,  // measure 69
0001
0000
0000
0000
,  // measure 70
1001
0000
0000
0110
,  // measure 71
0000
0000
0001
1000
,  // measure 72
0001
0000
0001
0000
,  // measure 73
0001
0000
0000
0000
,  // measure 74
1000
0000
1000
0000
,  // measure 75
1000
0000
0000
0000
,  // measure 76
0010
0000
0010
0000
,  // measure 77
0100
0000
0100
0000
,  // measure 78
1001
0000
0000
0110
,  // measure 79
0000
0000
1000
2002
,  // measure 80
0000
3003
0000
0000
;

//---------------dance-single - ----------------
#NOTES:
     dance-single:
     :
     Easy:
     8:
     0.422507,0.574880,0.296778,0.102337,0.000000,289.000000,260.000000,29.000000,10.000000,0.000000,0.000000,0.422507,0.574880,0.296778,0.102337,0.000000,289.000000,260.000000,29.000000,10.000000,0.000000,0.000000:
0000
0000
0000
0000
,
0000
0000
0000
0000
,
0000
0000
0000
0000
,
0000
0000
0000
0000
,
0000
0000
0000
0000
,
0000
0000
0000
0000
,
0000
0000
0000
0000
,
0000
0000
0000
0000
,
1000
0000
0010
0000
1000
0000
0000
0010
,
0000
1000
0001
0100
,
0001
0000
1000
0000
0001
0000
0000
0100
,
0000
0010
1000
0010
,
0100
0000
0010
0000
0100
0000
0000
0010
,
0000
1000
0100
0010
,
0001
1000
0001
1000
,
0100
0100
1000
1000
,
0001
0000
1000
0000
0001
0000
0000
1000
,
0000
0010
1000
0000
0100
0000
1000
0000
,
0001
0000
0100
0000
0001
0000
0000
0010
,
0000
0001
1000
0000
0100
0000
0010
0000
,
0100
0000
1000
0000
0100
0000
0000
1000
,
0000
0001
0100
0000
0010
0000
1000
0000
,
1001
0010
1000
1010
,
0100
0001
0101
1001
,
0110
0000
0010
0000
,
1000
1000
0100
0000
,
1001
0001
0100
0010
,
1000
0100
1001
0000
,
1000
0100
1000
0100
,
0001
0100
0001
0100
,
1000
0000
0100
0000
1001
0000
0000
0001
,
0000
0000
0000
1000
0000
0000
0010
0000
,
1000
0010
1000
1010
,
0000
0001
0100
0001
,
1000
0010
0100
0001
,
0010
0000
0000
0001
0000
0000
1000
0000
,
0010
0000
0000
1000
0000
0000
0010
0000
,
0100
0000
0000
0001
0000
0000
1000
0000
,
0100
1000
0010
0100
,
0001
0010
0001
1000
,
0010
0000
0000
1000
0010
0000
1000
0000
,
0001
0000
0000
0100
0001
0000
1000
0000
,
0010
0000
0000
0010
0100
0000
0010
0000
,
1000
0000
0000
0001
1000
0000
0100
0000
,
0001
0100
1000
0000
,
1000
0100
0001
0000
,
0100
1000
0010
0100
,
0001
0010
0001
1000
,
0100
0000
1000
0100
0000
0000
1000
0000
,
0001
0000
0010
0001
0000
0000
0001
0000
,
1000
0000
0001
0100
0000
0000
0100
0000
,
0010
1000
0010
0100
,
2001
0000
3100
1000
,
1002
0000
0013
0001
,
1001
0000
0110
0000
,
1001
0100
1001
0010
,
2001
0000
0100
0000
,
0100
3100
1000
1000
,
0010
0100
0001
0010
,
0001
1000
0001
0010
,
1002
0000
0010
0000
,
0100
0103
0001
0001
,
1000
0010
0001
0010
,
1000
0100
0010
0100
,
1200
0000
0010
0000
,
1000
1300
0100
0100
,
1000
0010
0100
0001
,
0010
0001
1000
0001
,
0012
0000
1000
0000
,
0010
0013
0001
0001
,
1001
0100
0010
1010
,
0100
0010
1010
1001
,
0201
0000
0301
0000
,
1000
0010
0100
0001
,
0012
0000
1003
0000
,
0010
0100
0010
1000
,
1100
0000
1000
0010
0000
0000
1000
0010
,
0000
0000
1000
0000
0001
1000
0001
0000
,
1010
0000
1000
0001
1000
0000
0001
0000
,
0100
0001
0100
0000
0011
0000
2002
0000
,
0000
3003
0000
0000
;

//---------------dance-single - ----------------
#NOTES:
     dance-single:
     :
     Medium:
     10:
     0.521921,0.615943,0.255843,0.061402,0.000000,357.000000,332.000000,25.000000,6.000000,0.000000,0.000000,0.521921,0.615943,0.255843,0.061402,0.000000,357.000000,332.000000,25.000000,6.000000,0.000000,0.000000:
0000
0000
0000
0000
,
0000
0000
0000
0000
,
0000
0000
0000
0000
,
0000
0000
0000
0000
,
0000
0000
0000
0000
,
0000
0000
0000
0000
,
0000
0000
0000
0000
,
0000
0000
0000
0000
,
1000
0000
0010
0000
1000
0000
0000
0001
,
0000
0100
0001
0000
0010
0001
0010
0000
,
0001
0000
1000
0000
0001
0000
0000
1000
,
0000
0010
1000
0000
0100
0000
1001
0000
,
0100
0000
1000
0000
0100
0000
0000
1000
,
0000
0001
1000
0000
0010
0100
0010
0000
,
0100
0000
0001
0100
0001
0000
1000
0001
,
1000
0000
0010
0100
0001
0000
1001
0000
,
0010
0000
0100
0000
0010
0000
0000
1000
,
0000
0001
0100
0000
0010
1000
0010
0000
,
1000
0000
0100
0000
1000
0000
0000
0001
,
0000
1000
0100
0000
1000
0000
1001
0000
,
0001
0000
0010
0000
0001
0000
0000
1000
,
0000
0001
0100
0000
0010
1000
0010
0000
,
1001
0000
1000
0100
1000
0000
1001
0000
,
0001
0010
0001
0000
0110
0000
1001
0000
,
0100
0000
0000
1000
0100
0000
0000
0001
,
0100
1000
0100
0010
,
0100
0000
0000
1000
0010
0000
0000
0001
,
0010
1000
0010
0100
,
0110
0000
0000
0100
0001
0000
0000
1000
,
0001
0000
0010
0001
0010
0000
0001
0000
,
1000
0000
0000
0001
1000
0000
0000
0100
,
1000
0000
0010
0100
0010
0000
1000
0000
,
1001
0000
0000
1000
0010
0000
1000
0000
,
0001
0000
0000
0001
0100
0000
0001
0000
,
1000
0001
1000
0000
0010
0000
1000
0000
,
0010
0000
0100
0010
0000
0010
1000
0000
,
0010
0000
1000
0100
1000
0000
0001
0000
,
0100
0000
0001
0010
0001
0000
1000
0000
,
0001
0000
0000
1000
0000
0000
0100
0000
,
1000
0000
0000
0010
0000
0100
0001
0000
,
0010
0000
0001
1000
0001
0000
1000
0000
,
0010
0000
0000
1000
0000
0010
1000
0000
,
0100
0000
1000
0001
1000
0000
0010
0000
,
0100
0000
0000
0001
0000
0010
0001
0000
,
1000
0000
0000
0100
1000
0000
0010
0000
,
0100
0000
0000
0100
0001
0000
0100
0000
,
0010
0000
0000
0010
1000
0000
0010
0000
,
0001
0000
0000
0010
0100
0000
0010
0000
,
1000
0000
0001
1000
0001
0000
1000
0000
,
0010
0000
0000
1000
0010
0000
0100
0000
,
0001
0000
0010
0001
0010
0000
0001
0000
,
1000
0000
0000
0001
1000
0000
0100
0000
,
1000
0010
1000
0010
1000
0000
0010
0000
,
0100
0000
0000
0001
0100
0000
0001
0000
,
0010
0001
0010
0001
0010
0000
0001
0000
,
1000
0001
1000
0001
0100
0000
0110
0000
,
2001
0000
0000
0100
0100
0000
0000
0010
,
3010
1000
0010
0001
,
0010
0000
1000
0010
1000
0000
0010
0100
,
0010
0000
0100
0001
0100
0000
1001
0000
,
0201
0000
0000
1000
1000
0000
0000
0010
,
0310
0100
0001
0100
,
0010
0000
1000
0010
1000
0000
0010
0100
,
0010
0000
1000
0001
1000
0000
0110
0000
,
1002
0000
0000
1000
1000
0000
0000
0100
,
0103
0001
0100
1000
,
0100
0000
0001
0100
0010
0000
1000
0010
,
0100
0000
0010
1000
0001
0000
1001
0000
,
0120
0000
0000
0001
0001
0000
0000
1000
,
1030
0010
0001
0010
,
0110
0000
0010
1000
0010
0000
1001
0000
,
1000
0100
1000
0000
1001
0000
0110
0000
,
0010
1000
0010
0100
,
0001
0000
0010
0000
0001
0100
1000
0000
,
0100
0001
0100
1000
,
0100
0000
0010
0000
0100
0010
0001
0000
,
0010
1000
0010
1000
0000
0010
1000
0010
,
0000
1000
0001
1000
0001
1000
0001
0000
,
1010
0000
1000
0100
0001
0000
1100
0000
,
1000
0010
0001
0000
0110
0000
2002
0000
,
0000
3003
0000
0000
;

//---------------dance-single - ----------------
#NOTES:
     dance-single:
     :
     Hard:
     12:
     0.640340,0.780195,0.644726,0.255843,0.000000,438.000000,375.000000,63.000000,25.000000,0.000000,0.000000,0.640340,0.780195,0.644726,0.255843,0.000000,438.000000,375.000000,63.000000,25.000000,0.000000,0.000000:
0000
0000
0000
0000
,
0000
0000
0000
0000
,
0000
0000
0000
0000
,
0000
0000
0000
0000
,
0000
0000
0000
0000
,
0000
0000
0000
0000
,
0000
0000
0000
0000
,
0000
0000
0000
0000
,
1001
0000
1000
0000
0010
0000
0100
0001
,
0000
1000
0010
0000
1001
0000
0110
0000
,
1010
0000
0100
0000
0001
0010
0001
1000
,
0000
0100
1000
0100
0001
0000
1100
0000
,
1001
0000
0010
0000
0100
0000
0001
0010
,
0000
1000
0010
0000
0011
0000
1001
0000
,
0110
0000
0010
1000
0010
0000
0100
0001
,
0100
0000
0001
1000
0001
1000
0010
0000
,
1001
0000
0100
0000
0010
0000
0100
1000
,
0000
0001
0100
0010
1000
0000
1001
0000
,
0101
0000
1000
0000
0010
1000
0100
0010
,
0000
0010
0001
1000
0100
0000
1001
0000
,
0101
0000
0001
0000
1000
0000
0010
0100
,
0000
0001
1000
0100
0010
0000
0010
0001
,
1001
0000
1000
0100
1000
0000
1001
0000
,
0001
0010
0011
0000
1001
0000
1100
0000
,
0120
0000
0000
1000
1000
0000
0000
0001
,
0031
0000
1010
0000
0110
0000
0000
0100
,
0001
1000
0100
0000
1000
0100
1000
0010
,
0100
0000
0001
0010
0001
0000
1001
0000
,
1200
0000
0000
0010
0010
0000
1300
0000
,
0200
0000
0000
0001
0001
0000
1300
0000
,
1020
0000
0000
0001
0001
0000
0100
0130
,
0000
0010
1000
0001
0000
1000
0001
0000
,
2001
0000
0000
0100
3100
0000
1000
0000
,
1002
0000
0000
0010
0010
0000
0000
0100
,
0103
0000
0001
0010
0001
0000
1000
0100
,
1000
0000
0010
0100
0000
0001
0010
0100
,
1000
0000
1000
0020
0000
1000
1030
0000
,
0010
0000
0100
0002
0000
1000
1003
0000
,
2000
3010
0020
0130
,
0200
0000
0301
0000
1001
0000
0100
0001
,
0100
0000
0001
0010
0001
0000
1010
0000
,
2001
0000
0000
0010
0010
0000
0000
0100
,
3100
0000
1000
0010
1000
0000
0110
0000
,
0102
0000
0000
1000
1000
0000
0000
0010
,
0013
0000
0001
0010
1000
0000
0010
0000
,
0001
0000
1000
0100
0001
0000
0100
0000
,
1000
0000
0001
0100
0000
0010
1000
0001
,
1000
0000
0100
1000
0000
0001
0100
0001
,
2000
0000
0000
0010
0010
0000
0100
0000
,
3002
0000
0000
1000
1000
0000
0010
0000
,
0203
0310
0020
1030
,
2000
0000
3001
0100
0000
0001
1000
0100
,
1000
0000
0001
0010
1000
0000
0010
0000
,
0001
0000
1000
0100
0001
0000
0100
0000
,
1000
0001
0100
0010
2000
0000
0000
0001
,
3001
0100
0010
1000
0100
0010
0001
0000
,
0201
0000
1000
0000
0010
0000
1000
1300
,
0000
0100
0001
0001
1000
0010
0100
0001
,
1000
0000
1000
0100
0001
0000
0001
0100
,
1100
1100
0101
0101
,
1200
0000
0010
0000
1000
0000
0010
0310
,
0000
0100
1000
1000
0100
0001
1000
0010
,
0100
0000
1000
0010
0001
0000
0001
0010
,
1010
1010
0011
0011
,
0120
0000
1000
0000
0001
0000
1000
1030
,
0000
0010
0100
0100
0001
0100
1000
0100
,
0010
0000
0100
0010
0001
0010
1000
0000
,
1100
1100
0101
0101
,
2001
0000
0010
0000
0100
0000
0010
3010
,
0000
1000
0100
0100
1000
0010
0001
1000
,
0100
0000
0100
0001
0101
0000
1001
0000
,
0010
1000
0010
0000
1100
0000
1001
0000
,
0110
0000
1000
0000
0010
0000
1000
0010
,
0000
0100
0001
1000
0010
0000
0110
0000
,
0101
0000
1000
0000
0010
0000
1000
0100
,
1000
0010
0100
0000
0101
0000
1001
0000
,
1010
0010
0100
0100
0010
0100
0100
0010
,
0100
0100
0010
1000
0001
0100
0001
1000
,
1100
0000
1000
0001
1001
0000
0110
0000
,
0010
1000
0010
0000
1100
0000
2002
0000
,
0000
3003
0000
0000
;
