#TITLE:GIANT SLUG;
#SUBTITLE:;
#ARTIST:Aaron G.;
#TITLETRANSLIT:;
#SUBTITLETRANSLIT:;
#ARTISTTRANSLIT:;
#GENRE:ROCK RAP;
#CREDIT:YonabearCWY;
#BANNER:GIANT SLUG.png;
#BACKGROUND:GIANT SLUG-bg.png;
#LYRICSPATH:;
#CDTITLE:GUITAR FREAKS & drummania.png;
#MUSIC:GIANT SLUG.ogg;
#OFFSET:-0.100000;
#SAMPLESTART:37.367130;
#SAMPLELENGTH:15.000000;
#SELECTABLE:YES;
#BPMS:0.000000=115.000000
;
#STOPS:4.000000=1.580000
;
#BGCHANGES:5.000=bottle1.mp4=1.000=1=0=1===CrossFade==,
13.000=candy2.mp4=1.000=0=0=1=====,
21.000=fan1.mp4=1.000=0=0=1=====,
29.000=egg5.mp4=1.000=0=0=1=====,
33.000=fire1.mp4=1.000=0=0=1=====,
37.000=dots3.mp4=1.000=0=0=1=====,
45.000=fire4.mp4=1.400=0=0=1=====,
53.000=fabric1.mp4=0.500=0=0=1=====,
61.000=floor1.mp4=1.000=0=0=1=====,
65.000=fire1.mp4=1.000=0=1=1=StretchRewind====,
69.000=dog3.mp4=1.400=0=0=1=====,
77.000=dance12.mp4=1.400=0=0=1=====,
85.000=darts1.mp4=1.000=0=0=1=====,
93.000=roulette1.mp4=1.000=0=0=1=====,
101.000=dots3.mp4=1.000=0=1=1=StretchRewind====,
109.000=egg5.mp4=1.000=0=1=1=StretchRewind====,
117.000=fire4.mp4=1.400=0=1=1=StretchRewind====,
125.000=fire1.mp4=1.000=0=1=1=StretchRewind====,
129.000=fabric1.mp4=0.500=0=1=1=StretchRewind====,
133.000=bottle1.mp4=1.000=0=1=1=StretchRewind====,
141.000=candy2.mp4=1.000=0=1=1=StretchRewind====,
149.000=floor2.mp4=1.000=0=0=1=====,
157.000=fire1.mp4=1.000=0=0=1=====,
165.000=GIANT SLUG-bg.png=1.000=0=0=1=====,
99999.000=-nosongbg-=1.000=0=0=0=StretchNoLoop====,
99999=-nosongbg-=1.000=0=0=0 // don't automatically add -songbackground-
;
#KEYSOUNDS:;
#ATTACKS:;

//---------------dance-single - ----------------
#NOTES:
     dance-single:
     BEGINNER:
     Beginner:
     1:
     0.108564,0.161349,0.022351,0.000000,0.000000,68.000000,66.000000,2.000000,0.000000,0.000000,0.000000,0.108564,0.161349,0.022351,0.000000,0.000000,68.000000,66.000000,2.000000,0.000000,0.000000,0.000000:
// measure 0
0000
0000
0000
0000
,  // measure 1
0000
1000
0000
0000
,  // measure 2
0000
1000
0000
0000
,  // measure 3
0000
1000
0000
0000
,  // measure 4
0000
1000
0000
0000
,  // measure 5
0000
0001
0000
0000
,  // measure 6
0000
0001
0000
0000
,  // measure 7
0000
0001
0000
0000
,  // measure 8
0000
0001
0000
0000
,  // measure 9
0000
1000
1000
1000
,  // measure 10
0000
1000
0000
1000
,  // measure 11
1000
1000
0000
0001
,  // measure 12
0000
0001
0001
0001
,  // measure 13
0000
0001
0000
0000
,  // measure 14
0000
0001
0000
0000
,  // measure 15
0000
1000
0000
0000
,  // measure 16
0000
1000
0000
0000
,  // measure 17
0000
0010
0000
0000
,  // measure 18
0000
0010
0000
0000
,  // measure 19
0000
0100
0000
0000
,  // measure 20
0000
0100
0000
0000
,  // measure 21
0000
0010
0000
0000
,  // measure 22
0000
0010
0000
0000
,  // measure 23
0000
0100
0000
0000
,  // measure 24
0000
0100
0000
0000
,  // measure 25
0000
0001
0000
0000
,  // measure 26
0001
0001
0000
0000
,  // measure 27
1000
1000
0000
0000
,  // measure 28
0010
0010
0000
0000
,  // measure 29
0100
0100
0000
0000
,  // measure 30
0010
0010
0000
0000
,  // measure 31
1000
1000
0000
0000
,  // measure 32
1001
0000
0000
0000
,  // measure 33
0000
0010
0010
0010
,  // measure 34
0000
0100
0000
0100
,  // measure 35
0000
0010
0010
0010
,  // measure 36
0000
0100
0000
0100
,  // measure 37
0000
0001
0001
0001
,  // measure 38
0000
1000
0000
1000
,  // measure 39
0000
0001
0001
0001
,  // measure 40
0000
1000
0000
1000
,  // measure 41
0000
1001
0000
0000
;

//---------------dance-single - ----------------
#NOTES:
     dance-single:
     BASIC:
     Easy:
     4:
     0.191583,0.276598,0.167635,0.189987,0.000000,120.000000,105.000000,15.000000,17.000000,0.000000,0.000000,0.191583,0.276598,0.167635,0.189987,0.000000,120.000000,105.000000,15.000000,17.000000,0.000000,0.000000:
0000
0000
0000
0000
,
0000
1000
0000
0000
,
0000
0001
0000
0000
,
0000
1000
0000
0000
,
0000
0001
0001
0001
,
0001
0001
0000
0000
,
0000
1000
0000
0000
,
0000
0001
0000
0000
,
0000
1001
0100
1001
,
0010
1001
0000
1000
,
0000
0001
0001
0100
,
0100
0010
0000
0010
,
0000
0100
0100
0001
,
0001
1000
0000
0010
,
0010
0100
0000
0100
,
0100
0001
0000
0001
,
0001
1001
0010
1001
,
0100
1001
0000
0100
,
1001
0010
0000
1000
,
1100
0001
0000
0001
,
0101
1000
0000
1000
,
1010
0010
0000
0010
,
0110
0100
0000
0001
,
1001
0010
0000
0100
,
1001
1000
0010
0100
,
0001
0020
0000
0030
,
0001
2000
0000
3000
,
0100
0020
0000
0030
,
0001
2000
0000
3000
,
0002
1003
2000
3010
,
0020
0230
0000
0300
,
0001
2000
0000
3000
,
0110
0000
0000
0000
,
0000
1000
1000
0002
,
0003
1000
1000
0002
,
0003
0001
0001
2000
,
3000
0001
0001
2000
,
3000
0010
0010
0200
,
0300
0100
0100
0020
,
0030
1000
0100
0002
,
0003
0001
0100
2000
,
3000
1001
0000
0000
;

//---------------dance-single - ----------------
#NOTES:
     dance-single:
     DIFFICULT:
     Medium:
     8:
     0.379973,0.391847,0.212338,0.100581,0.050291,238.000000,219.000000,19.000000,9.000000,0.000000,0.000000,0.379973,0.391847,0.212338,0.100581,0.050291,238.000000,219.000000,19.000000,9.000000,0.000000,0.000000:
0000
0000
0000
0000
,
0000
0000
1000
0000
0001
0000
0100
0010
,
1000
0100
0001
0000
0100
0000
0010
0001
,
1000
0100
0010
0000
0100
0000
1000
0001
,
0100
0010
1000
0000
1100
0000
0001
0100
,
0001
0000
0010
0000
0011
0000
1000
0001
,
1000
0000
0010
0000
0110
0000
0100
0001
,
0100
0010
1000
0000
1100
0000
1000
0100
,
0010
0000
0001
0000
1000
0000
0000
0001
0000
0000
1000
0000
0001
0000
0000
0000
,
0110
0000
0001
0000
0000
0000
0001
0001
,
0100
0000
0010
0000
0100
0000
0010
1000
,
1001
1000
0100
0010
,
0001
0000
0100
0001
0100
0000
0001
0010
,
0001
0000
1000
0000
0010
0000
0010
0100
,
0101
0000
0001
0000
0010
0000
0100
1000
,
1001
0100
0010
1000
,
0001
0000
0100
0000
0010
0000
0000
0100
0000
0000
0010
0000
0000
1000
0000
0000
,
0001
0000
0100
0000
0010
0000
0000
0010
0000
0000
0010
0000
1000
0000
1000
0000
,
1000
0000
0000
0000
0100
0000
0000
1000
0000
0000
0001
0000
0010
0000
0100
0000
,
1000
0000
0001
0000
0100
0000
0000
0100
0000
0000
0100
0000
0001
0000
0001
0000
,
0001
0000
0100
0010
0001
0000
0001
0010
,
0100
0000
0000
0000
1000
0000
0000
0100
0000
0000
0010
0000
0001
0000
0001
0000
,
0001
0000
0000
0000
0100
0000
0000
0010
0000
0000
1000
0000
0100
0000
0100
0000
,
0100
0000
0000
0000
1000
0000
0000
0001
0000
0000
0100
0000
0010
0000
0010
0000
,
0010
0100
0001
0000
1001
0000
0100
0000
,
0110
0000
2000
0000
0000
0000
3010
1000
,
1001
0000
0020
0000
0000
0000
0031
0010
,
0100
1000
0002
0000
0000
0000
1003
0001
,
1001
0000
0200
0000
0000
0000
0310
0100
,
0001
1000
0100
0100
1000
1000
0010
0100
,
0001
0000
2000
0000
0000
0000
3010
1000
,
1001
0000
0020
0000
0000
0000
0031
0010
,
0110
0000
0000
0000
,
0000
0000
1000
0100
0010
0100
1000
0001
,
0000
0010
0001
0010
0001
1000
0100
1000
,
0000
0010
0100
0001
0100
1000
0100
0010
,
0000
0100
0001
1000
0001
0000
1000
0001
,
1000
0000
0001
0001
0010
0010
0100
0200
,
0000
1300
0100
0100
1000
1000
0010
0020
,
0000
0130
0001
0001
1000
1000
0010
0020
,
0000
0130
0101
0000
1100
0000
0110
0000
,
1001
0110
0000
0000
;

//---------------dance-single - ----------------
#NOTES:
     dance-single:
     EXPERT:
     Hard:
     12:
     0.587522,0.645396,0.737595,0.000000,0.201162,368.000000,302.000000,66.000000,0.000000,0.000000,0.000000,0.587522,0.645396,0.737595,0.000000,0.201162,368.000000,302.000000,66.000000,0.000000,0.000000,0.000000:
0000
0000
0000
0000
,
0000
0000
0000
0000
1000
0000
0001
0000
0010
0000
0100
1000
0100
0000
0010
0000
,
0001
0000
1001
0000
0100
0000
0010
0000
1000
0000
0001
0100
0001
0100
0001
0000
,
1000
0000
0010
0000
0100
0000
0001
0000
0010
0000
0100
0010
0100
0000
1000
0000
,
0100
0110
0010
0001
1000
0000
0001
0100
,
0010
0000
1000
0001
1000
0000
0001
0000
0010
0000
0000
0100
0000
1000
0100
0000
,
0010
0000
0001
0000
1000
0000
0001
0000
0010
0000
0000
0100
0000
1000
0100
1000
,
0100
0000
1000
0000
0001
0000
0100
0000
0010
0000
0000
1000
0000
0001
0100
0000
,
0010
0000
0100
0000
0001
1000
0000
0001
1000
0000
0010
0000
1001
0000
0000
0000
,
0100
0000
0010
1000
0100
0000
0010
0001
,
1000
0000
0001
0001
1000
1000
0010
0110
,
1001
0000
0100
0010
0001
0000
0010
0100
,
1000
0000
0000
0000
0001
0100
0001
0000
1000
0000
1000
0000
0010
0000
0000
0100
,
0000
0001
1000
0000
0100
0000
0010
0000
0001
0000
1000
0000
0100
0000
0001
0000
,
0100
0000
1000
0001
0010
0100
1000
0101
,
1100
0000
0011
0001
1001
0000
1100
1000
,
1010
0000
0000
0000
0010
0100
0000
0010
0100
0000
0001
1000
0100
0000
0100
0000
,
1001
0000
0010
0010
0010
0000
0001
0110
,
1010
0000
0100
0100
0100
0000
1000
0101
,
1001
0000
0010
0010
0010
0000
1000
0110
,
1001
0000
0000
0000
0110
0000
0000
1000
0001
0000
0000
0010
0100
0000
1000
0000
,
0100
0010
0100
0000
0010
0000
0001
0000
1000
0000
0000
0000
0110
0000
1100
0000
,
0101
0000
0001
0010
0100
0000
1010
0011
,
0110
0000
1000
0001
0010
0000
1100
0110
,
1001
0000
0000
0000
0110
0000
0000
1000
0001
0000
0000
0010
0100
0000
1000
0000
,
0100
0010
0100
0000
0010
0000
0001
0000
1000
0000
0001
0000
0010
0000
0000
0000
,
1100
0000
0001
0100
0010
1000
0100
0010
,
0001
0000
0100
0000
1000
0000
0000
0100
0010
0000
0100
0000
0001
0000
0010
0000
,
0100
0000
1000
0000
0001
0000
0000
0010
1000
0000
0010
0000
0001
0000
0010
0000
,
0100
1000
0100
0000
0010
0000
0010
0000
0001
0000
0001
0000
1000
0000
0100
0000
,
1001
0000
0000
0000
0010
0000
0100
0000
1000
0000
0001
0000
1000
0100
0000
1000
,
0010
0000
0010
0000
0100
0000
0001
0000
0010
0000
0000
0000
0100
1000
0000
0001
,
1000
0010
0110
0000
0000
0000
0001
1000
,
0100
1000
0100
0000
1010
0000
1000
0000
1001
0000
1000
0000
1010
0000
1010
0000
,
1001
0000
0011
0001
0101
0001
1001
1001
,
0010
0100
1100
0100
0101
0100
0110
0110
,
1001
0000
0110
0010
0011
0010
1010
0000
,
0110
0000
1001
0001
0011
0001
0101
0101
,
1001
0010
1100
1000
1001
1000
1010
1010
,
0110
0001
0110
0010
1010
0010
0011
0011
,
0110
0000
0000
1000
0001
0000
0001
0000
0010
0000
0010
0000
0100
0000
0100
0000
,
1000
0001
1000
0000
0110
0000
0000
0000
0000
0000
0000
0000
0000
0000
0000
0000
;

//---------------dance-single - ----------------
#NOTES:
     dance-single:
     CHALLENGE:
     Challenge:
     15:
     0.764736,0.668445,0.458203,0.000000,0.877291,479.000000,438.000000,41.000000,0.000000,0.000000,0.000000,0.764736,0.668445,0.458203,0.000000,0.877291,479.000000,438.000000,41.000000,0.000000,0.000000,0.000000:
0000
0000
0000
0000
,
0000
0000
0000
0000
1000
0001
0000
1000
0001
0000
0100
0010
0000
0100
0010
0000
,
1000
0000
0100
0000
0010
0001
0000
0010
0001
0000
1000
0100
0000
1000
0100
0000
,
0001
0000
0100
0000
1000
0001
0000
1000
0001
0000
0010
0100
0000
0010
0100
0000
,
1000
0000
0001
0000
0010
0001
0000
0010
0001
0000
1000
0010
0100
0000
0010
0100
,
0001
0000
1001
0000
0001
0010
0000
0001
0100
0000
0010
1000
0100
1000
0010
0000
,
0100
0000
0001
0000
0010
0001
0000
1000
0100
0000
0010
0001
0010
1000
0010
0000
,
0001
0000
0100
0000
0010
0100
0000
0001
1000
0000
0100
0010
0001
0010
0100
0000
,
1000
0000
1001
0000
0010
0100
0000
0010
0100
0000
0010
0000
1001
0000
0001
0010
,
0100
0000
0000
1000
0001
1000
0000
0001
0000
0010
0001
0010
0000
0001
0100
0000
,
0010
0000
0010
0000
1000
0000
0010
0000
0001
0000
0010
0000
1000
0100
1000
0000
,
0101
0000
0001
0000
1100
0000
0000
0000
1000
0001
0000
0010
0001
0000
0010
0100
,
0010
0000
0001
1000
0100
0010
0001
0010
0100
1000
0001
0000
0100
0000
0010
1000
,
0100
0000
0010
0000
0001
0000
0010
0001
0010
0000
0001
0000
1000
0000
0010
0100
,
1000
0100
0010
0000
0100
0000
0001
0010
0001
0100
0001
0000
1010
0000
0100
0000
,
0110
0000
0000
0000
1001
0000
0010
0001
0010
0000
0000
1000
0010
0000
0001
0010
,
0001
0000
1000
0000
0001
1000
0000
0001
1000
0000
0010
0100
0010
0001
0010
0000
,
1000
0100
1000
0000
0001
0010
0000
0010
0100
1000
0100
0010
0011
0000
1001
0000
,
1100
0000
0010
0000
0100
0001
0000
0100
0001
0000
0010
0100
1000
0000
1001
0000
,
0110
0000
1000
0000
0010
0100
0000
0010
1000
0010
0100
0001
0101
0000
0011
0000
,
1001
0000
1000
0100
0010
0001
0000
0001
0100
0000
0010
1000
0100
0000
0011
0000
,
0001
1000
0100
0000
1000
0010
0000
0100
0001
0010
0100
1000
1100
0000
0101
0000
,
0110
0000
0001
1000
0010
1000
0000
0100
0010
0000
0001
0010
0100
0000
1100
0000
,
1000
0001
0010
0000
0001
0100
0000
0001
0010
1000
0010
0001
0101
0000
0110
0000
,
1001
0000
1000
0100
0110
0000
0000
0001
0100
0000
0000
0010
1000
0000
0100
0000
,
0010
0000
0001
1000
1001
0000
0000
0001
0010
0100
1000
0100
0010
0000
0000
0000
,
1001
0000
0000
0000
1000
0100
1000
0100
0001
0100
0001
0000
0100
0000
1000
0100
,
0000
0010
0100
0000
1000
0010
1000
0010
0001
0010
0001
0000
0010
1000
0010
0100
,
0001
0000
0100
0000
0001
0100
0001
0100
1000
0100
1000
0000
0100
0000
0001
0010
,
0001
0000
1000
0100
0010
0000
0001
0010
0100
0000
1000
0100
1000
0100
0001
0100
,
0001
0000
0100
0000
1000
0010
1000
0000
0001
0100
0001
0000
1000
0010
1000
0010
,
0001
0010
0001
0000
0010
0000
1000
0100
0000
0100
0010
0000
0001
0010
0100
1000
,
0100
0000
0001
0000
0100
0000
1000
0000
0001
0000
0000
0000
0000
0000
0000
0000
0000
0000
0000
0000
0000
0000
1000
0001
1000
0000
0100
0000
0010
0000
0001
0000
,
0010
0100
1000
0000
1100
0000
0100
0000
0101
0000
0100
0000
0100
1000
0100
1000
,
0010
1000
0001
0000
0011
0000
0010
0000
1010
0000
0010
0000
0010
0001
0100
0001
,
0100
1000
0100
0010
0100
0000
0101
0000
0001
0000
1001
0000
0001
0010
0001
0100
,
0010
0100
0010
0000
1000
0000
1001
0000
1000
0000
1100
0000
1000
0010
1000
0001
,
0100
0001
0100
0001
1000
0000
0001
0010
1000
0000
1000
0010
0001
0000
1000
0001
,
0000
1000
0001
0000
1000
0100
0001
0000
0001
0100
1000
0000
1000
0100
0010
0001
,
0000
1000
0001
0000
1000
0000
0001
0100
1000
0000
1000
0100
0001
0000
0100
0010
,
0000
0100
0010
0000
1010
0000
1000
0000
1001
0000
0001
0000
0101
0000
0100
0000
,
0110
1001
0110
0000
0000
0000
0000
0000
;
