#VERSION:0.83;
#TITLE:GET IT ALL;
#SUBTITLE:;
#ARTIST:BRASS TRICKS;
#TITLETRANSLIT:;
#SUBTITLETRANSLIT:;
#ARTISTTRANSLIT:;
#GENRE:;
#ORIGIN:;
#TAGS:;
#CREDIT:;
#BANNER:GET IT ALL.png;
#BACKGROUND:GET IT ALL-bg.png;
#PREVIEWVID:;
#JACKET:GET IT ALL-jacket.png;
#CDIMAGE:;
#DISCIMAGE:;
#LYRICSPATH:;
#CDTITLE:DanceManiaX.png;
#MUSIC:GET IT ALL.ogg;
#OFFSET:-0.060000;
#SAMPLESTART:20.613703;
#SAMPLELENGTH:15.000000;
#SELECTABLE:YES;
#BPMS:0.000000=140.000000
;
#STOPS:;
#DELAYS:;
#WARPS:;
#TIMESIGNATURES:0.000000=4=4
;
#TICKCOUNTS:0.000000=4
;
#COMBOS:0.000000=1
;
#SPEEDS:0.000000=1.000000=0.000000=0
;
#SCROLLS:0.000000=1.000000
;
#LABELS:0.000000=Song Start
;
#BGCHANGES:0.000=GET IT ALL.mp4=1.000=1=0=0=StretchNoLoop==CrossFade==,
208.000=GET IT ALL-bg.png=1.000=0=0=1=====,
99999.000=-nosongbg-=1.000=0=0=0=StretchNoLoop====,
99999=-nosongbg-=1.000=0=0=0 // don't automatically add -songbackground-
;
#KEYSOUNDS:;
#ATTACKS:
;

//---------------dance-single - ----------------
#NOTEDATA:;
#CHARTNAME:;
#CHARTHASH:3088909961;
#STEPSTYPE:dance-single;
#BANNER:;
#DESCRIPTION:;
#CHARTSTYLE:;
#DIFFICULTY:Beginner;
#METER:3;
#METERF:3.000000;
#LASTSECONDHINT:90.917145;
#RADARVALUES:0.156479,0.230134,0.033192,0.022128,0.000000,99.000000,96.000000,3.000000,2.000000,0.000000,0.000000,0.000000,0.000000,0.000000,0.156479,0.230134,0.033192,0.022128,0.000000,99.000000,96.000000,3.000000,2.000000,0.000000,0.000000,0.000000,0.000000,0.000000;
#CREDIT:;
#NOTES:
// measure 0
0000
0000
0000
0000
,  // measure 1
0000
0000
0000
0000
,  // measure 2
0000
0000
0000
0000
,  // measure 3
0000
0000
0000
0000
,  // measure 4
1000
1000
0000
0000
,  // measure 5
0000
0000
0001
0001
,  // measure 6
0001
0000
0001
0000
,  // measure 7
0001
0000
0000
0000
,  // measure 8
1000
1000
0000
0000
,  // measure 9
0000
0000
0001
0001
,  // measure 10
0001
0000
0001
0000
,  // measure 11
1001
0000
0000
0000
,  // measure 12
0100
0100
0100
0000
,  // measure 13
0100
0000
0000
0000
,  // measure 14
0010
0010
0010
0000
,  // measure 15
0010
0000
0000
0000
,  // measure 16
0100
0100
0100
0000
,  // measure 17
0100
0000
0000
0000
,  // measure 18
0010
0010
0010
0000
,  // measure 19
0010
0000
0000
0000
,  // measure 20
1000
0000
0000
0000
,  // measure 21
1000
0000
0000
0000
,  // measure 22
0001
0000
0000
0000
,  // measure 23
0001
0000
0000
0000
,  // measure 24
0000
0000
0000
0000
,  // measure 25
1000
1000
1000
1000
,  // measure 26
1000
0000
1000
0000
,  // measure 27
1000
1000
1000
1000
,  // measure 28
1000
0000
1000
0000
,  // measure 29
0001
0001
0001
0001
,  // measure 30
0001
0000
0001
0000
,  // measure 31
0001
0001
0001
0001
,  // measure 32
0001
0000
0001
0000
,  // measure 33
0000
1001
0000
0000
,  // measure 34
0100
0100
0100
0000
,  // measure 35
0100
0000
0000
0000
,  // measure 36
0010
0010
0010
0000
,  // measure 37
0010
0000
0000
0000
,  // measure 38
0100
0100
0100
0000
,  // measure 39
0100
0000
0000
0000
,  // measure 40
0010
0010
0010
0000
,  // measure 41
0010
0000
0000
0000
,  // measure 42
0100
0000
0000
0001
,  // measure 43
1000
0000
0000
0000
,  // measure 44
0010
0000
0000
1000
,  // measure 45
0001
0000
0000
0000
,  // measure 46
0010
0010
0010
0000
,  // measure 47
0010
0010
0010
0000
,  // measure 48
0100
0100
0100
0000
,  // measure 49
0100
0100
0100
0100
,  // measure 50
0100
0000
0000
0000
,  // measure 51
0000
2002
0000
0000
,  // measure 52
3003
0000
0000
0000
;

//---------------dance-single - ----------------
#NOTEDATA:;
#CHARTNAME:;
#CHARTHASH:3458601627;
#STEPSTYPE:dance-single;
#BANNER:;
#DESCRIPTION:;
#CHARTSTYLE:;
#DIFFICULTY:Easy;
#METER:6;
#METERF:6.000000;
#LASTSECONDHINT:89.202858;
#RADARVALUES:0.281346,0.316435,0.365117,0.254475,0.000000,178.000000,145.000000,33.000000,23.000000,0.000000,0.000000,0.000000,0.000000,0.000000,0.281346,0.316435,0.365117,0.254475,0.000000,178.000000,145.000000,33.000000,23.000000,0.000000,0.000000,0.000000,0.000000,0.000000;
#CREDIT:;
#NOTES:
0000
0000
0000
0000
,
0000
0000
0000
0000
,
0000
0000
0000
0000
,
0000
0000
0000
0000
,
1000
1010
0010
0000
,
0100
0101
0001
0000
,
1000
0100
0010
0001
,
0010
0001
1000
0100
,
1000
1001
0001
0000
,
0001
1001
1000
0000
,
0010
0100
0010
0001
,
0220
0000
0000
0330
,
0010
0010
1000
1010
,
1000
0100
0020
0030
,
0001
0001
0010
0011
,
0001
1000
2200
3300
,
1000
1000
0001
1001
,
0010
0100
0020
0030
,
1000
1000
0001
0101
,
0001
0010
0022
0033
,
0101
0000
0000
0101
0000
0000
0001
0000
,
1000
0000
1000
0000
,
1100
0000
0000
1100
0000
0000
1000
0000
,
0001
0000
0001
0000
,
2002
0000
0000
3003
,
0100
0100
0100
0100
,
0100
0000
0010
0000
,
0100
0100
0100
0100
,
0110
0000
1001
0000
,
0010
0010
0010
0010
,
0010
0000
0100
0000
,
0010
0010
0010
0010
,
0010
0000
0100
0000
,
1001
2002
0000
3003
,
1000
1000
0001
0011
,
0001
1000
0200
0300
,
1000
1000
0010
0110
,
0100
0001
0022
0033
,
0100
0100
0001
1001
,
1000
0100
0220
0330
,
0100
0100
1000
1001
,
0010
0001
0022
0033
,
1002
0000
0000
1003
,
0100
0100
0100
0000
,
2001
0000
0000
3001
,
0100
0100
0100
0010
,
0100
0000
0100
0101
,
0001
0000
1000
1001
,
1000
0000
0010
0110
,
0010
0000
1000
0001
,
0000
0000
0001
1000
,
0001
2002
0000
0000
,
3003
0000
0000
0000
;

//---------------dance-single - ----------------
#NOTEDATA:;
#CHARTNAME:;
#CHARTHASH:1811807709;
#STEPSTYPE:dance-single;
#BANNER:;
#DESCRIPTION:;
#CHARTSTYLE:;
#DIFFICULTY:Medium;
#METER:10;
#METERF:10.000000;
#LASTSECONDHINT:89.202858;
#RADARVALUES:0.456791,0.517802,0.287668,0.154898,0.082981,289.000000,263.000000,26.000000,14.000000,0.000000,0.000000,0.000000,0.000000,0.000000,0.456791,0.517802,0.287668,0.154898,0.082981,289.000000,263.000000,26.000000,14.000000,0.000000,0.000000,0.000000,0.000000,0.000000;
#CREDIT:;
#NOTES:
0000
0000
0000
0000
,
0000
0000
0000
0000
,
0000
0000
0000
0000
,
0000
0000
0000
0000
,
1000
0100
0001
0000
0001
0100
1000
0000
,
0100
0000
0010
0000
0100
0000
0000
0000
1000
0000
0001
0000
0010
0000
0000
1001
,
0000
0000
0001
0000
0000
0100
0000
0000
0010
0000
0000
1000
0000
0000
0100
0000
,
1000
0001
1000
0001
0100
0000
0010
1000
,
0001
0010
1000
0000
1000
0010
0001
0000
,
0100
0000
0010
0000
0100
0000
0000
0000
0001
0000
1000
0000
0100
0000
0000
1001
,
0000
0000
1000
0000
0000
0010
0000
0000
0100
0000
0000
0001
0000
0000
1000
0000
,
2002
0000
0000
3003
,
1000
0100
1000
0010
1000
1000
1000
0000
,
0001
0100
1000
0100
0001
0010
0011
0000
,
0001
0100
0001
0010
0001
0001
0001
0000
,
1000
0000
0100
0000
0001
0000
0100
0000
1000
0000
0000
0001
0000
0000
0100
0000
,
0001
0010
0001
1000
0100
0100
0100
0000
,
1000
0100
0010
0001
0000
0001
0100
0000
,
0010
1000
0010
0001
0010
0010
0010
0000
,
0100
0010
0100
0001
0101
0000
1001
0000
,
1200
0000
0000
1300
0000
0100
1000
0100
,
1000
1010
0001
0101
,
0102
0000
0000
0103
0000
0001
0010
0001
,
0010
1001
0100
1001
,
0220
0000
0000
0330
,
0000
1000
0000
0010
0000
1000
0000
0010
,
0000
0100
0000
0001
0000
0100
0001
0100
,
0000
0001
0000
1000
0000
0010
0000
1000
,
0010
1000
0010
0000
0100
0001
0100
0010
,
0000
1000
0000
0010
0000
0001
0000
0010
,
0000
1000
0000
0100
0000
0010
0100
1000
,
0000
0001
0000
0100
0000
0001
0000
1000
,
0000
0010
0000
0100
0000
0001
0000
1000
,
0100
2002
0000
3003
,
0001
0100
0001
1000
0100
0100
0100
0000
,
1000
0100
0010
0001
1000
1000
1000
0000
,
0010
0100
0010
0001
0010
0010
0010
0000
,
1000
0000
0010
0000
0001
0000
0010
0000
1000
0000
0000
0010
0000
0000
0100
0000
,
0001
0100
0010
1000
0100
0100
0100
0000
,
1000
0001
0010
0100
0000
1000
0100
0000
,
1000
0010
0100
0001
0010
0010
0010
0000
,
0001
0010
0100
1000
2002
0000
3003
0000
,
1000
0000
0000
1000
0000
0000
0010
0000
1000
0000
0000
0000
0101
0000
0000
0000
,
0001
0000
0000
0001
0000
0000
0010
0000
0001
0000
1000
0000
1001
0000
0000
0000
,
0100
0000
0000
0100
0000
0000
0010
0000
0100
0000
0000
0000
1001
0000
0000
0000
,
0010
0000
0000
0010
0000
0000
1000
0000
1001
0000
0000
0000
0101
0000
0000
0000
,
0010
1000
0010
1000
0100
0010
0011
0000
,
0001
0100
0001
0100
1000
0100
0110
0000
,
0010
1000
0100
1000
0100
0010
0110
0000
,
0100
0000
0000
1000
0000
0000
0001
0000
1001
0000
0000
0000
0220
0000
0000
0000
,
0330
0000
0001
0000
0000
1000
0000
0000
0010
0000
0000
1000
0000
0000
0100
0000
,
1000
2002
0000
0000
,
3003
0000
0000
0000
;

//---------------dance-single - ----------------
#NOTEDATA:;
#CHARTNAME:;
#CHARTHASH:4041323133;
#STEPSTYPE:dance-single;
#BANNER:;
#DESCRIPTION:;
#CHARTSTYLE:;
#DIFFICULTY:Hard;
#METER:13;
#METERF:13.000000;
#LASTSECONDHINT:89.202858;
#RADARVALUES:0.595883,0.632869,0.243411,0.199155,0.531079,377.000000,355.000000,22.000000,18.000000,0.000000,0.000000,0.000000,0.000000,0.000000,0.595883,0.632869,0.243411,0.199155,0.531079,377.000000,355.000000,22.000000,18.000000,0.000000,0.000000,0.000000,0.000000,0.000000;
#CREDIT:;
#NOTES:
0000
0000
0000
0000
,
0000
0000
0000
0000
,
0000
0000
0000
0000
,
0000
0000
0000
0000
,
0001
0010
0200
0000
1300
0100
0020
0000
,
0031
0000
0000
1000
0001
0000
0010
0001
0010
0000
0001
0000
1000
0000
0000
1100
,
0000
0000
1000
0000
0000
0010
0000
0000
0100
0000
0000
0001
0000
0000
0010
0000
,
0001
0000
0010
0000
0100
0000
1000
0000
0100
0000
0000
1000
0001
0000
0100
0000
,
0010
1000
0200
0000
0310
0001
2000
0000
,
3001
0000
0000
0001
1000
0000
0100
1000
0100
0000
1000
0000
0010
0000
0000
0110
,
0000
0000
0100
0000
0000
0001
0000
0000
0010
0000
0000
0100
0000
0000
1000
0000
,
2002
0000
0000
0000
0000
0000
3003
0000
0110
0000
0010
1000
0000
0001
0100
0001
,
0100
0000
0001
0000
0010
0000
0001
0000
1000
0001
0000
1000
0000
0000
0001
0000
,
1000
0000
0100
0000
0010
0000
0001
0000
0010
0001
0000
1001
0000
0000
0000
0000
,
0100
0000
0010
0000
0100
0000
0001
0000
0100
0010
0000
1000
0000
0000
0010
0000
,
0100
0000
0001
0000
1000
0010
0000
0100
0001
0000
0000
0011
0000
0000
0010
0000
,
0100
0000
1000
0000
0100
0000
0010
0000
0100
1000
0000
0001
0000
0000
0100
0000
,
0010
0000
1000
0000
0001
0010
0000
0001
0000
1000
0000
1100
0000
0000
0000
0000
,
1000
0000
0100
0000
0010
0000
0001
0000
0100
0001
0000
0010
0000
0000
0001
0000
,
1000
0000
0010
0000
0100
0001
0000
1000
0100
1000
0100
0000
0010
0001
0010
0000
,
0001
0100
0000
0000
0000
0000
0001
1000
0000
0100
0000
1000
0100
0000
1000
0000
,
0010
0000
0010
0000
0010
0100
0000
0100
0010
0000
0000
1010
0000
0000
1001
0000
,
1000
0100
0000
0000
0000
0000
1000
0010
0000
0100
0000
0001
0100
0000
0001
0000
,
1000
0000
0001
0000
0010
0001
0000
0001
0010
0000
0000
0011
0000
0000
2002
0000
,
0000
0000
0000
3003
,
1000
0100
0001
0100
1000
0001
0100
1000
,
0100
0001
1000
0100
0001
0100
1000
0001
,
0000
0001
0010
1000
0010
0001
1000
0001
,
0010
0001
1000
0001
0000
1000
0100
0010
0001
0010
0000
0001
0000
1000
0000
0100
,
1000
0001
0010
1000
0010
0001
1000
0010
,
0001
0010
1000
0001
0010
1000
0010
0001
,
0000
1000
0100
0001
0100
1000
0001
0100
,
1000
0100
0001
1000
0100
0001
0100
1000
,
0001
0100
0001
0000
2002
0000
0000
0000
0000
0000
0000
0000
0000
0000
3003
0000
,
1000
0000
0100
0000
1000
0000
0010
0000
1000
0001
0000
0100
0000
0000
0001
0000
,
0010
0000
0001
0000
1000
0000
0001
0000
0010
0001
0000
0101
0000
0000
0001
0000
,
1000
0000
0100
0000
0010
0000
0100
0000
1000
0100
0000
1000
0000
0000
0010
0000
,
0100
0000
0001
0000
0010
0001
0000
0001
1000
0000
0000
1100
0000
0000
0100
0000
,
0010
0000
0001
0000
0010
0000
0100
0000
1000
0001
0000
0010
0000
0000
0001
0000
,
0100
0000
0010
0000
1000
0100
0000
1000
0000
0010
0000
0110
0000
0000
0000
0000
,
0001
0000
0100
0000
0010
0000
1000
0000
0010
0100
0000
0010
0000
0000
1000
0000
,
0100
0000
0010
0000
0001
0010
0000
0001
1000
0100
1000
0100
1000
0100
1000
0000
,
0101
0000
0000
0001
0000
0000
1000
0000
0010
0000
0000
0000
0210
0000
0000
0000
,
0301
0000
0000
0100
0000
0000
0010
0000
1000
0000
0001
1000
0002
0000
0000
0000
,
1003
0000
0000
0100
0000
0000
0010
0000
0001
0000
0000
0000
2001
0000
0000
0000
,
3001
0000
0000
1000
0000
0000
0010
0000
0100
0000
0000
0100
0001
0000
0000
1000
,
0100
1000
0010
0100
0001
0010
0210
0000
,
1300
0100
0010
0100
1000
0001
0012
0000
,
1003
0001
0010
0100
0010
0001
2001
0000
,
3010
0000
0000
0100
0000
0000
0010
0000
1000
0010
0000
0000
0100
0001
0100
0001
,
0000
0000
0001
1000
0000
0001
1000
0000
0010
0000
1000
0010
0000
1000
0100
0010
,
0001
2002
0000
0000
,
3003
0000
0000
0000
;

//---------------dance-single - ----------------
#NOTEDATA:;
#CHARTNAME:;
#CHARTHASH:2839406875;
#STEPSTYPE:dance-single;
#BANNER:;
#DESCRIPTION:;
#CHARTSTYLE:;
#DIFFICULTY:Challenge;
#METER:15;
#METERF:0.000000;
#LASTSECONDHINT:89.202858;
#RADARVALUES:0.755523,0.805470,0.663849,0.188091,0.979177,478.000000,418.000000,60.000000,17.000000,0.000000,0.000000,0.000000,0.000000,0.000000,0.755523,0.805470,0.663849,0.188091,0.979177,478.000000,418.000000,60.000000,17.000000,0.000000,0.000000,0.000000,0.000000,0.000000;
#CREDIT:;
#NOTES:
0000
0000
0000
0000
,
0000
0000
0000
0000
,
0000
0000
0000
0000
,
0000
0000
0000
0000
,
0001
0100
0220
0000
0000
0000
0000
0000
,
0000
0000
0300
0000
0000
0000
1030
0100
1000
0000
0010
0000
0110
0000
0000
0101
,
0000
0000
0011
0000
0001
0100
0000
0100
0010
0000
0010
1000
0000
1000
0100
0000
,
1000
0000
0001
0000
0001
0000
0100
0000
0110
0000
0000
1010
0000
1000
0100
0000
,
0010
0001
2002
0000
0000
0000
0000
0000
,
0000
0000
0003
0000
0000
0000
3001
0010
0001
0000
1000
0000
1100
0000
1000
0001
,
0000
0000
1001
0000
0010
0001
0000
0001
1000
0000
1000
0100
0000
0100
0010
0000
,
0011
0000
1000
0001
0000
1000
0001
0000
0110
0000
0001
1000
0000
1000
0100
0010
,
0001
0001
0000
0000
0100
0100
0000
0000
0010
0010
0000
1010
0000
0000
1000
0000
,
0100
0000
0010
0000
0001
0010
0000
0001
1000
0100
0000
1100
0000
0000
0000
0000
,
1000
1000
0000
0000
0001
0001
0000
0000
0100
0100
0000
0110
0000
0000
0010
0000
,
1000
0000
0001
0000
0100
0001
0000
0001
1001
0000
0000
0110
0000
0000
0010
0000
,
1000
1000
0000
0000
0100
0100
0000
0000
0010
0010
0000
0011
0000
0000
0001
0000
,
0010
0000
0100
0000
1000
1000
0000
1010
0000
1001
0000
1100
0000
0000
0000
0000
,
0100
0100
0000
0000
1000
1000
0000
0000
0001
0001
0000
0011
0000
0000
0001
0000
,
0100
0000
0010
0000
1000
0010
0000
0100
0001
0100
0001
0000
1000
0010
1000
0001
,
0100
0100
0000
0000
0001
0000
0100
0100
0000
0001
0000
1000
0100
0010
0001
0000
,
1000
0000
0010
0000
1000
0100
0000
0100
1100
0000
0000
1001
0000
0000
0101
0000
,
0010
0010
0000
0000
0001
0000
0010
0010
0000
0001
0000
1000
0100
0010
0100
0000
,
1000
0000
0001
0000
0010
0001
0000
1000
1001
0000
0000
0101
0000
0000
0120
0000
,
0000
0000
1030
0000
0010
0100
0010
0100
0000
0101
0000
1001
0000
1000
0010
0000
,
1000
0000
0100
0000
1000
0100
0000
1000
0001
0010
0001
0010
0001
0010
0001
0010
,
0001
0010
0001
0010
0002
0000
0000
0000
1003
0000
0100
0000
0010
0000
0012
0000
,
0000
0000
1003
0000
0010
0100
0010
0000
0100
0001
0010
0100
0000
0100
1000
0000
,
1000
0100
0010
0001
0000
0001
0010
0100
1000
0001
0000
1001
0000
0110
0000
0010
,
1000
0010
0210
0000
0001
0301
1000
0100
,
0100
0000
1000
0000
0010
0000
0010
0000
0101
0000
0000
1001
0000
0000
0110
0000
,
0000
0001
0010
0100
1000
0000
0100
1000
0100
0001
0100
1000
0010
0100
0001
0010
,
0100
0000
1000
0100
1000
0000
0001
0100
0001
1000
0010
0000
0100
0000
0001
1000
,
0100
0010
0001
0000
2001
0000
0000
0000
3001
0010
0001
0010
0000
0001
0000
1000
,
0001
0001
0000
0000
0100
0100
0000
0000
0010
0010
0000
1001
0000
0000
0100
0000
,
1000
0000
0100
0000
0010
0001
0000
0010
0001
0100
0000
1001
0000
0000
0001
0000
,
1000
1000
0000
0000
0010
0010
0000
0000
0100
0100
0000
0011
0000
0000
0001
0000
,
1000
0000
0100
0000
0010
0001
0000
0001
1001
0000
0000
0110
0000
0000
1010
0000
,
1000
1000
0000
0000
0100
0100
0000
0000
0010
0010
0000
0101
0000
0000
0001
0000
,
1000
0000
0010
0000
0100
0100
0000
1001
0000
1010
0000
0110
0000
0000
0001
0000
,
0100
0100
0000
0000
0010
0010
0000
0000
1000
1000
0000
0101
0000
0000
0001
0000
,
1000
0000
0100
0000
0010
0001
0000
0001
1000
0100
1000
0100
0010
0001
0010
0001
,
1001
0000
0000
0101
0000
0001
1000
0000
0010
0000
0000
0000
0210
0000
0000
0000
,
0301
0000
0000
1001
0000
1000
0100
0010
0001
0000
0100
0010
0120
0000
0000
0000
,
1030
0000
0000
1100
0000
1000
0001
0000
0010
0000
0000
0000
1002
0000
0000
0000
,
1003
0000
0000
0011
0000
0000
0001
0000
1000
0100
1000
0000
0001
0010
0001
0100
,
0010
0100
0010
1000
0000
1000
0100
0000
1000
0000
0001
0000
0201
0000
0000
0000
,
0301
0100
0010
0100
0000
0010
1000
0100
0010
0000
0001
0000
2001
0000
0000
0000
,
3001
1000
0100
0010
0000
0001
0010
0100
1000
0000
0010
0000
0210
0000
0000
0000
,
0301
0100
0001
1000
0000
0010
1000
0100
0010
0001
1000
0000
0001
1000
0001
1000
,
0000
0000
0001
0010
0000
0001
1000
0000
0100
0000
1000
0010
0000
0100
0001
1000
,
0010
2002
0000
0000
,
3003
0000
0000
0000
;
