#TITLE:GET ENUF;
#SUBTITLE:;
#ARTIST:長沼英樹;
#TITLETRANSLIT:;
#SUBTITLETRANSLIT:;
#ARTISTTRANSLIT:HIDEKI NAGANUMA;
#GENRE:;
#CREDIT:;
#BANNER:GET ENUF.png;
#BACKGROUND:GET ENUF-bg.png;
#LYRICSPATH:;
#CDTITLE:cdtitle.png;
#MUSIC:GET ENUF.ogg;
#OFFSET:-7.380000;
#SAMPLESTART:55.078201;
#SAMPLELENGTH:15.000000;
#SELECTABLE:YES;
#BPMS:0.000000=135.820007
;
#STOPS:
;
#BGCHANGES:0.000=arrows1.mp4=1.000=1=0=1===CrossFade==,
4.000=emi5.mp4=0.900=0=0=1=====,
8.000=text12.mp4=1.000=0=0=1=====,
12.000=emi6.mp4=0.900=0=0=1=====,
16.000=arrows2.mp4=1.000=0=0=1=====,
20.000=floor1.mp4=1.000=0=0=1=====,
24.000=lines4.mp4=1.000=0=0=1=====,
28.000=floor2.mp4=1.000=0=0=1=====,
32.000=text17.mp4=1.400=0=0=1=====,
40.000=text12.mp4=1.600=0=0=1=====,
42.000=text14.mp4=2.000=0=0=1=====,
44.000=girl1.mp4=2.000=0=0=1=====,
48.000=GET ENUF 1.mp4=1.000=1=0=0=StretchNoLoop==CrossFade==,
104.000=girl1.mp4=2.000=1=1=1=StretchRewind==CrossFade==,
108.000=circle1.mp4=1.000=0=1=1=StretchRewind====,
116.000=emi5.mp4=0.900=0=1=1=StretchRewind====,
120.000=emi6.mp4=0.900=0=1=1=StretchRewind====,
124.000=text17.mp4=1.400=0=1=1=StretchRewind====,
132.000=lines4.mp4=1.000=0=1=1=StretchRewind====,
140.000=GET ENUF 2.mp4=1.000=1=0=0=StretchNoLoop==CrossFade==,
204.000=girl1.mp4=1.000=1=1=1=StretchRewind==CrossFade==,
212.000=emi5.mp4=0.900=0=1=1=StretchRewind====,
216.000=emi6.mp4=0.900=0=1=1=StretchRewind====,
220.000=arrows1.mp4=1.600=0=1=1=StretchRewind====,
222.000=arrows2.mp4=1.600=0=1=1=StretchRewind====,
224.000=floor1.mp4=1.000=0=1=1=StretchRewind====,
226.000=floor2.mp4=1.000=0=1=1=StretchRewind====,
228.000=girl1.mp4=1.400=0=1=1=StretchRewind====,
236.000=GET ENUF-bg.png=1.000=0=0=1=====,
99999=-nosongbg-=1.000=0=0=0 // don't automatically add -songbackground-
;
#KEYSOUNDS:;
#ATTACKS:;

//---------------dance-single - ----------------
#NOTES:
     dance-single:
     :
     Beginner:
     4:
     0.147012,0.236577,0.107383,0.053691,0.000000,115.000000,103.000000,12.000000,6.000000,0.000000,0.000000,0.147012,0.236577,0.107383,0.053691,0.000000,115.000000,103.000000,12.000000,6.000000,0.000000,0.000000:
0000
0000
0000
0000
,
0000
0000
0000
0000
,
0000
0000
0000
0000
,
0000
0000
0000
0000
,
1000
0000
0000
0000
,
1000
1000
1000
0000
,
0001
0000
0000
0000
,
0001
0001
0001
0000
,
0100
0000
0100
0100
,
0100
0000
0100
0000
,
0110
0000
0110
0000
,
1001
0000
0000
0000
,
0001
0000
1000
0100
,
0010
0000
0001
0000
,
0010
0000
0100
1000
,
0001
0000
1000
0000
,
0001
0000
1000
0010
,
0100
0000
0001
0000
,
0110
0000
0110
0000
,
1001
0000
0000
0000
,
1000
1000
1000
0000
,
1000
0000
0000
0000
,
0001
0001
0001
0000
,
0001
0000
0000
0000
,
0100
0000
0100
0000
,
0100
0000
0000
0000
,
0010
0000
0010
0000
,
0010
0010
0010
0000
,
0100
0100
0100
0000
,
0010
0000
0010
0000
,
0100
0000
0100
0000
,
0001
0001
0001
0000
,
1000
1000
1000
0000
,
1001
0000
0000
0000
,
1001
0000
0000
0000
,
0100
0000
0100
0000
,
0100
0000
0000
0000
,
0010
0000
0010
0000
,
0010
0000
0000
0000
,
1000
0000
1000
0000
,
1000
0000
0000
0000
,
0001
0000
0001
0000
,
0001
0000
0000
0000
,
2000
0000
0000
3000
,
0001
0000
0001
0000
,
2000
0000
0000
3000
,
0001
0000
0001
0000
,
0020
0000
0000
0030
,
0100
0000
0100
0000
,
0020
0000
0000
0030
,
0100
0000
0100
0000
,
1000
1000
1000
0000
,
0001
0000
0000
0000
,
0001
0001
0001
0000
,
1000
0000
0000
0000
,
0110
0000
0110
0000
,
1001
0000
1001
0000
,
2000
0000
0000
0000
,
0002
0000
0000
3003
;

//---------------dance-single - ----------------
#NOTES:
     dance-single:
     :
     Easy:
     7:
     0.258229,0.315436,0.205817,0.196868,0.000000,202.000000,179.000000,23.000000,22.000000,0.000000,0.000000,0.258229,0.315436,0.205817,0.196868,0.000000,202.000000,179.000000,23.000000,22.000000,0.000000,0.000000:
0000
0000
0000
0000
,
0000
0000
0000
0000
,
0000
0000
0000
0000
,
0000
0000
0000
0000
,
1000
0001
1000
0110
,
0001
0000
1000
1000
,
0001
1000
0001
0110
,
1000
0000
0001
0001
,
0100
0010
0100
1001
,
0010
0000
0100
0100
,
1001
0000
1001
0000
,
0100
0100
0100
0100
,
0002
0000
0003
0000
1000
0100
1000
0000
,
0010
0010
0100
0100
,
0002
0000
0003
0000
1000
0010
1000
0000
,
0001
0000
1000
0000
,
0020
0000
0030
0000
0100
0001
0100
0000
,
0001
0001
1000
1000
,
0200
0000
0300
0000
0010
0001
0010
0000
,
0100
0100
0100
1001
,
0010
0000
0010
0000
0010
0100
0010
0000
,
1000
1000
1000
0001
,
1000
0000
1000
0000
1000
0001
1000
0000
,
0001
0100
0001
1000
,
0220
0330
2002
3003
,
0220
0000
0000
0330
,
0002
0003
2000
3000
,
0001
0000
0001
0000
0001
0000
0001
0100
,
0001
0000
1000
0000
1000
0000
1000
0010
,
1000
0000
0001
0000
,
1000
1000
0001
0001
,
0100
0000
0100
0000
0100
0000
0100
0010
,
0100
0000
0010
0000
0010
0000
0010
0100
,
0010
0000
1001
0000
,
0100
0100
1001
0010
,
0100
0000
0100
0001
,
1000
0000
0100
0000
,
0010
0001
1000
0000
,
0010
0000
0100
0000
,
0001
0000
1000
0001
,
0010
0000
0100
0000
,
1000
0100
0010
0000
,
0001
0000
1000
1000
,
2002
0000
0000
3003
,
0200
0000
0000
0300
,
0020
0000
0000
0030
,
0200
0000
0000
0300
,
0012
0000
1003
1000
,
1020
0000
0130
0100
,
2001
0000
3010
0010
,
0210
0000
0301
0001
,
1001
0000
0100
0000
0010
0001
0010
0000
,
0100
1000
0001
1000
,
0110
0000
0001
0000
1000
0100
1000
0000
,
0001
0010
0001
0100
,
1001
0000
1001
0000
,
0110
0000
0110
0000
,
0010
0010
0010
0010
,
1002
1000
1000
1003
;

//---------------dance-single - ----------------
#NOTES:
     dance-single:
     :
     Medium:
     10:
     0.416747,0.420582,0.277405,0.134228,0.080537,326.000000,295.000000,31.000000,15.000000,0.000000,0.000000,0.416747,0.420582,0.277405,0.134228,0.080537,326.000000,295.000000,31.000000,15.000000,0.000000,0.000000:
0000
0000
0000
0000
,
0000
0000
0000
0000
,
0000
0000
0000
0000
,
0000
0000
0000
0000
,
1010
0000
0000
0001
0000
0000
0010
0000
0100
0000
0000
0000
1001
0000
0000
0000
,
0100
0000
0000
0100
0000
0000
0001
0000
1000
0000
0001
0000
0010
0000
0000
0000
,
1100
0000
0000
0010
0000
0000
0001
0000
1000
0000
0000
0000
0110
0000
0000
0000
,
1000
0000
0000
1000
0000
0000
0100
0000
0010
0000
0001
0000
1000
0000
0000
0000
,
0110
0000
0000
1000
0000
0000
0001
0000
0010
0000
0000
0000
0101
0000
0000
0000
,
0010
0000
0000
0010
0000
0000
1000
0000
0100
0000
0010
0000
0100
0000
0000
0000
,
1000
0001
1000
0000
0001
1000
0001
0000
,
1000
0100
0010
0001
0100
0010
1001
0000
,
0100
0000
0100
0000
0100
0000
0000
0001
0000
0000
1000
0000
0100
0000
0000
0000
,
0010
0001
1000
0010
0001
0010
1000
0000
,
0010
0000
0010
0000
0010
0000
0000
1000
0000
0000
0001
0000
0010
0000
0000
0000
,
0001
1000
0001
0000
0100
0000
1001
0000
,
0100
0000
0100
0000
0100
0000
0000
0001
0000
0000
1000
0000
0010
0000
0000
0000
,
0100
0001
1000
0100
0001
0100
1000
0000
,
0001
0110
1000
0110
,
0001
0000
0001
0000
0001
0000
0000
1000
0000
0000
0001
0000
0100
0000
1000
0000
,
0100
0000
0001
0000
1000
0100
0001
0000
,
1100
0010
0101
0010
,
1000
0000
0001
0000
1000
0010
0001
0000
,
0110
1000
0110
0001
,
1000
0001
1000
0010
0100
0001
0010
0100
,
2002
0000
3003
0000
,
0010
0000
0100
0000
0001
0010
0001
0000
,
1001
0000
0100
0000
0010
0001
1000
0100
,
0010
0000
0001
0000
0010
0100
1000
0001
,
0100
0000
0010
1000
0010
1000
0001
0100
,
0001
0010
0001
0010
0100
0000
1001
0000
,
0110
0000
1000
0000
0001
0010
1000
0010
,
0100
0000
0010
0000
0001
0100
1000
0100
,
0020
0000
1000
1000
1030
0000
0110
0000
,
0002
0000
1000
1000
1003
0000
0110
0000
,
1000
0000
0000
1000
0000
0000
0001
0000
0100
0000
0010
0000
0000
0000
1000
0000
,
0001
0000
0000
0001
0000
0000
0001
0000
0000
0000
1000
0000
0100
0000
0000
0000
,
0010
0000
0000
0010
0000
0000
0010
0000
0001
0000
1000
0000
0000
0000
0001
0000
,
0100
0000
0000
0100
0000
0000
0100
0000
0000
0000
0001
0000
1000
0000
0000
0000
,
0010
0000
0000
0100
0000
0000
0001
0000
0000
0000
1000
0000
0100
0000
0010
0000
,
0001
0000
0000
1000
0000
0000
1000
0000
0000
0000
0001
0000
0100
0000
0000
0000
,
0010
0000
0000
1000
0000
0000
0100
0000
0010
0000
0001
0000
0000
0000
1000
0000
,
0010
0000
0000
0100
0000
0000
0001
0000
0010
0000
0100
0000
1000
0000
0100
0000
,
0022
0000
0000
0033
,
2200
0000
0000
3300
,
0002
0000
1000
0000
1003
0100
0010
0000
,
0200
0000
0001
0000
1300
0100
0010
0000
,
1002
0000
0100
0000
0010
0010
0013
0000
,
2001
0000
0010
0000
0100
0100
3100
0000
,
1020
0000
0001
0000
0100
0100
0130
0000
,
1200
0000
0001
0000
0310
0100
0001
1000
,
0100
0000
1010
0000
0100
0001
0100
0000
,
0001
0110
1000
0001
,
0010
0000
1100
0000
0001
0010
0001
0000
,
1000
0000
0101
0000
0010
1000
0001
1000
,
0100
1000
0100
0000
0010
0001
0010
0000
,
0001
0100
0001
0000
1000
0100
1000
0000
,
0001
1000
0010
0100
0001
1000
1002
0000
,
1000
1000
1000
1003
;

//---------------dance-single - ----------------
#NOTES:
     dance-single:
     :
     Hard:
     14:
     0.628955,0.657159,0.304251,0.205817,0.657718,492.000000,458.000000,34.000000,23.000000,0.000000,0.000000,0.628955,0.657159,0.304251,0.205817,0.657718,492.000000,458.000000,34.000000,23.000000,0.000000,0.000000:
// measure 0
0000
0000
0000
0000
,  // measure 1
0000
0000
0000
0000
,  // measure 2
0000
0000
0000
0000
,  // measure 3
0000
0000
0000
0000
,  // measure 4
1000
0001
0000
0010
0000
0000
0100
0000
1000
0000
0001
0000
0010
0001
0000
0000
,  // measure 5
1000
0000
0000
0001
0000
0010
0001
0000
0100
0000
0100
0000
0100
0001
0000
0000
,  // measure 6
0001
1000
0000
0010
0000
1000
0001
0000
0000
0000
0100
0000
0010
0000
1000
0000
,  // measure 7
0001
0010
0001
0010
0000
0001
1000
0001
0000
0000
0100
0000
0100
0010
0000
0000
,  // measure 8
1000
0000
0001
0100
0000
0010
1000
0010
0000
0000
0100
0000
0001
0000
0010
0000
,  // measure 9
0100
0000
0000
1000
0000
0001
0010
0100
0010
0000
0001
0000
0001
1000
0000
0000
,  // measure 10
0001
0100
0001
1000
0000
0110
0000
0000
1000
0001
1000
0010
0000
1001
0000
0000
,  // measure 11
0010
0010
0010
0010
0010
0010
1001
0000
,  // measure 12
0001
0000
0001
0000
0001
0000
0001
0100
0000
0010
0000
0000
1001
0000
0000
0000
,  // measure 13
0100
0010
0001
1000
0100
0001
1000
0100
,  // measure 14
0010
0000
0010
0000
0010
0000
0010
0001
0000
1000
0000
0001
0100
0000
0010
0000
,  // measure 15
1000
0000
0001
0000
1001
0000
0000
0010
0000
0001
1000
0000
0100
0000
0010
0000
,  // measure 16
0100
0000
0100
0000
0100
0000
0100
1000
0000
0001
0000
0000
0010
0000
0001
0000
,  // measure 17
1000
0001
0010
0001
0100
1000
0001
0010
,  // measure 18
0100
0000
0000
0010
0000
1000
0100
0000
0010
0000
0000
0001
0000
1000
0001
0000
,  // measure 19
0010
0000
0010
0000
0010
0000
0010
0001
0000
1000
0001
0000
0101
0000
1001
0000
,  // measure 20
1100
0000
1000
0000
1000
0000
0000
0001
0000
0100
0001
0000
0010
0000
0001
0000
,  // measure 21
1000
0000
0001
0000
1000
0000
0001
0100
0000
0001
0010
0000
1100
0000
0000
0000
,  // measure 22
0001
0000
0001
0000
0001
0000
0000
0100
0000
0001
1000
0000
0010
0100
0010
0000
,  // measure 23
1000
0000
0100
0000
0010
0000
0001
0100
0000
0010
1000
0000
0001
0000
1000
0000
,  // measure 24
0100
0010
0100
0010
0001
0010
0001
1000
0001
0000
0010
0000
0100
0000
1000
0000
,  // measure 25
2002
0000
0000
0000
0000
0000
3003
0000
0100
0000
0010
0100
0000
0100
0010
0000
,  // measure 26
1001
0000
0000
0000
0010
0000
0000
0100
0000
1000
0000
0000
0100
0000
0010
0000
,  // measure 27
1001
0000
0000
0001
1000
0001
0000
1000
0010
1000
0001
0000
0010
0000
0100
0000
,  // measure 28
1010
0000
0000
1000
0001
0000
0000
0010
0001
0010
0100
0000
1000
0000
0001
0000
,  // measure 29
0100
0010
0000
0100
0010
0000
0100
0010
0000
0000
1000
0000
0001
0000
0010
0000
,  // measure 30
0100
1000
0000
0100
1000
0100
0010
0000
0011
0000
0000
1000
0100
0001
0100
0000
,  // measure 31
1001
0000
0000
0100
0010
0100
0000
0001
0010
0001
1000
0000
0100
0000
0010
0000
,  // measure 32
0101
0000
0000
0001
1000
0000
1000
0001
0000
0000
0010
0000
0100
1000
0100
0000
,  // measure 33
0012
0000
0000
0000
1003
0100
0001
0100
2000
0000
0000
0000
3001
0000
0000
1000
,  // measure 34
0010
0000
0100
0000
0001
0010
1000
0010
0002
0000
0000
0000
0103
0000
0000
0000
,  // measure 35
1001
0000
0001
0100
0000
0001
0200
0000
0010
0000
0310
0000
0000
1000
0100
0000
,  // measure 36
0010
0001
0010
0001
0000
1000
0001
0000
0010
0000
0010
0000
0010
0100
0000
0000
,  // measure 37
1000
0010
0100
0010
0000
1000
0002
0000
0100
0000
0103
0000
0000
0001
1000
0000
,  // measure 38
0110
0000
0000
0001
0000
1000
0010
1000
0000
0000
0100
0000
0100
0010
0000
0000
,  // measure 39
1001
0000
1000
0010
0000
1000
0020
0000
0100
0000
0130
0000
0000
0001
0010
0100
,  // measure 40
1000
0000
0000
0001
0000
1000
0100
1000
0000
0000
0001
0000
0001
1000
0000
0000
,  // measure 41
0001
0100
0001
0010
0000
0001
2000
0000
0010
0000
3010
0000
0000
0100
0001
1000
,  // measure 42
0010
0000
0000
0100
0000
0001
0010
0001
1000
0100
1000
0000
0110
0000
0101
0000
,  // measure 43
1002
0000
0100
0000
0000
0100
0100
0000
,  // measure 44
2003
0000
0010
0000
3001
1000
0020
0000
,  // measure 45
0230
0000
0000
0001
0000
0000
0301
0000
1000
0000
0000
0000
0210
0000
0000
0000
,  // measure 46
0302
0000
0000
1000
0000
0000
0103
0000
0001
0000
0010
0000
0100
0000
0000
0000
,  // measure 47
2010
0000
0000
0000
3002
0000
0000
0000
0103
0000
0100
0000
0100
0000
0001
1000
,  // measure 48
0020
0000
0000
0001
0000
0000
0230
0000
0000
0000
0310
0000
1000
0001
0000
0000
,  // measure 49
0021
0000
0000
0000
0230
0000
0000
0000
1300
0000
1000
0000
1000
0000
0100
0010
,  // measure 50
0002
0000
0000
1000
0000
0000
0013
0000
0000
0000
0001
0000
0101
0000
1001
0000
,  // measure 51
1100
0000
1000
0000
0010
0000
0100
0001
1000
0000
0100
0000
0010
0000
0100
1000
,  // measure 52
0001
0000
0000
0010
0000
0001
1000
0000
0100
0010
0100
0000
1000
0000
0001
0000
,  // measure 53
0010
0000
0001
0000
1000
0000
0001
0010
0100
0000
1000
0000
0100
0000
0010
0001
,  // measure 54
1000
0000
0001
0100
0000
0010
1000
0010
1000
0000
0100
0000
0010
0000
0001
0000
,  // measure 55
1000
0100
1000
0100
0000
1001
0000
0000
0001
0010
0001
0010
0000
1001
0000
0000
,  // measure 56
0100
0010
0100
1000
0000
0101
0000
0000
0010
0001
0010
0100
0000
1010
0000
0000
,  // measure 57
0100
0100
0100
0100
0100
0100
2001
0000
,  // measure 58
0001
0001
0001
3001
;
