#TITLE:GEO SONG;
#SUBTITLE:;
#ARTIST:world sequence feat.Sana;
#TITLETRANSLIT:;
#SUBTITLETRANSLIT:;
#ARTISTTRANSLIT:;
#GENRE:LAND BALLAD;
#CREDIT:YonabearCWY;
#BANNER:GEO SONG.png;
#BACKGROUND:GEO SONG-bg.png;
#LYRICSPATH:;
#CDTITLE:pop'n music.png;
#MUSIC:GEO SONG.ogg;
#OFFSET:0.000000;
#SAMPLESTART:62.346409;
#SAMPLELENGTH:15.000000;
#SELECTABLE:YES;
#BPMS:0.000000=44.005001
;
#STOPS:
;
#BGCHANGES:4.000=text8.mp4=0.800=1=0=1===CrossFade==,
8.000=moon1.mp4=0.800=0=0=1=====,
12.000=rain2.mp4=0.800=0=0=1=====,
16.000=ring3.mp4=0.800=0=0=1=====,
20.000=rain2r.mp4=0.800=0=0=1=====,
24.000=ring3r.mp4=0.800=0=0=1=====,
28.000=water1.mp4=0.800=0=0=1=====,
32.000=rain1.mp4=0.800=0=0=1=====,
36.000=bubble1.mp4=0.800=0=0=1=====,
40.000=waterfall1.mp4=0.800=0=0=1=====,
45.000=moon1.mp4=0.800=0=1=1=StretchRewind====,
46.000=ring10.mp4=0.800=0=0=1=====,
50.000=ring2.mp4=0.800=0=0=1=====,
54.000=tunnel10.mp4=0.800=0=0=1=====,
58.000=water1.mp4=0.800=0=1=1=StretchRewind====,
62.000=rain2.mp4=0.800=0=1=1=StretchRewind====,
66.000=ring3.mp4=0.800=0=1=1=StretchRewind====,
70.000=rain2r.mp4=0.800=0=1=1=StretchRewind====,
74.000=ring3r.mp4=0.800=0=1=1=StretchRewind====,
78.000=GEO SONG-bg.png=1.000=0=0=1=====,
99999=-nosongbg-=1.000=0=0=0 // don't automatically add -songbackground-
;
#KEYSOUNDS:;
#ATTACKS:;

//---------------dance-single - ----------------
#NOTES:
     dance-single:
     BASIC:
     Easy:
     3:
     0.000000,0.000000,0.000000,0.000000,0.000000,0.000000,0.000000,0.000000,0.000000,0.000000,0.000000,0.000000,0.000000,0.000000,0.000000,0.000000,0.000000,0.000000,0.000000,0.000000,0.000000,0.000000:
0000
0000
0000
0000
,
0000
0000
0000
0000
,
0000
0000
0000
0000
,
1000
1000
0001
0001
,
0010
0010
0010
0000
0100
0100
0100
0000
,
0010
0010
0100
0100
,
1000
1000
1000
0000
0001
0001
0001
0000
,
0100
0100
0100
0100
0100
0000
0010
0000
,
0100
0100
0100
0100
0100
0000
0010
0000
,
1000
1000
1000
1000
1000
0000
0001
0000
,
1000
1000
1000
1000
1000
0000
0001
1000
,
0002
0000
0003
0000
0100
0100
0100
0000
,
0010
0010
0010
0000
1000
0000
0001
0000
,
1000
0000
0001
0000
0010
0010
0010
0000
,
0100
0100
0100
0000
1000
0000
0001
0000
,
1000
0000
0001
0000
0100
0100
0100
0100
,
0010
0010
0010
0010
1000
0001
0010
0100
,
1000
1000
1000
1000
0001
0001
0001
0001
,
0010
0010
0010
0010
0100
1000
0001
0010
,
0100
1000
0001
2000
0002
0000
0000
0000
,
3003
0000
0000
0000
;

//---------------dance-single - ----------------
#NOTES:
     dance-single:
     DIFFICULT:
     Medium:
     5:
     0.000000,0.000000,0.000000,0.000000,0.000000,0.000000,0.000000,0.000000,0.000000,0.000000,0.000000,0.000000,0.000000,0.000000,0.000000,0.000000,0.000000,0.000000,0.000000,0.000000,0.000000,0.000000:
0000
0000
0000
0000
,
0000
0000
0000
0000
,
0000
0000
0000
0000
,
1000
0001
0010
0001
0100
0010
0100
0001
,
1000
0100
0001
1000
0001
0100
1000
0010
,
0100
0000
0001
0000
0010
0000
0001
1000
0001
0000
0100
0000
0010
0000
1000
0001
,
1000
0010
0001
1000
0001
0010
1000
0100
,
0020
0000
0000
0001
0031
0000
0100
0000
0010
1000
0100
1000
0100
0000
1000
0000
,
0002
0000
0000
1000
1003
0000
0100
0000
0010
0001
0010
0001
1000
0000
0001
0000
,
0010
0100
0000
1000
0000
0001
0000
1000
0000
0100
0000
1000
0000
0010
0000
0100
,
0001
0010
0001
1000
0010
0100
0001
0100
,
0020
0000
0030
0000
1000
0100
0010
0001
,
1000
0001
0010
0100
1000
0001
0010
0001
,
1000
0001
0100
0001
1000
0001
0010
1000
,
0001
1000
0010
0001
1000
0100
0001
1000
,
0001
0000
0100
0000
1000
0000
0010
0000
0200
0000
0001
0000
1000
0000
0301
0100
,
0002
0000
1000
0000
0010
0000
1003
0000
0020
0000
0001
0000
0100
0000
0031
1000
,
0002
0010
0100
0013
2000
0100
0010
3001
,
0002
0000
0010
0000
0100
0000
1003
0000
1000
0010
1000
0000
0010
1000
0010
0000
,
0100
0001
0100
0000
0001
0100
0001
2000
0002
0000
0000
0000
0000
0000
0000
0000
,
3003
0000
0000
0000
;

//---------------dance-single - ----------------
#NOTES:
     dance-single:
     EXPERT:
     Hard:
     9:
     0.000000,0.000000,0.000000,0.000000,0.000000,0.000000,0.000000,0.000000,0.000000,0.000000,0.000000,0.000000,0.000000,0.000000,0.000000,0.000000,0.000000,0.000000,0.000000,0.000000,0.000000,0.000000:
0000
0000
0000
0000
,
0000
0000
0000
0000
,
0000
0000
0000
0000
,
1000
0001
0010
0100
1000
0010
0100
0001
0002
0000
1003
0100
0010
0001
0100
1000
,
2000
0000
3100
0010
1000
0100
0010
0001
0100
0200
0000
0310
1000
2000
0000
3100
,
0010
0001
1000
0001
0010
0100
1000
0100
0200
0000
0301
0100
1000
0100
0010
0001
,
0002
0000
0000
0000
1003
0000
0010
0000
0100
0000
0001
0000
0010
0000
0100
0000
1000
0000
2000
0000
0000
0000
3001
0000
0010
0000
0100
0010
0100
0000
0010
0000
,
0002
1000
1000
0000
0013
0100
0001
0100
0020
0001
0001
0032
0000
0013
0100
1000
,
0020
0000
0100
0000
0100
0000
0130
0000
0010
0000
1000
0000
0100
0000
0010
0000
0001
0000
1000
0100
1000
0000
0010
0000
0100
0000
0001
0010
0001
0000
1000
0000
,
0100
0000
0000
1000
0100
0000
1000
0000
0010
0000
0100
0000
0100
0000
0001
0000
0010
0000
0000
0001
1000
0000
0100
0000
0010
0000
0100
0000
0100
0000
0001
0000
,
0100
0000
0010
0001
0010
0000
0001
0000
1000
0000
0010
1000
0010
0000
0100
0000
0002
0000
0000
0000
1000
0000
1003
0000
0200
0000
0000
0000
0010
0000
0310
0000
,
0001
1000
0100
0010
0001
1000
0000
1000
0010
0010
0010
0100
0001
0100
0001
0010
,
0001
0001
0001
0010
0100
1000
0100
0010
0100
0100
0100
1000
0001
1000
0010
0100
,
0001
0000
1000
0000
1000
0000
1000
0000
1000
0000
0100
0010
0100
0000
0001
0000
0100
0000
0100
0000
0100
0000
1000
0000
0010
0000
0001
0000
0010
0000
1000
0000
,
0100
0100
0100
1000
0010
0100
0001
0010
1000
1000
1000
0010
0001
0010
0100
0010
,
0001
0000
0100
0000
0100
0000
0100
0000
0100
0000
0001
0000
1000
0000
0100
0000
0001
0000
0100
1000
0000
0000
0100
0000
0010
0000
0001
0010
0000
0000
0100
0000
,
1000
0000
0001
0100
0000
0000
0010
0000
0100
0000
0001
1000
0001
0000
0100
0000
0010
0000
1000
0100
0000
0000
0010
0000
0001
0000
0100
0001
0000
0000
0010
0000
,
0100
0000
1000
0001
0000
0000
0010
0000
0001
0000
1000
0100
1000
0000
0010
0000
0200
0000
0001
0000
0001
0000
0000
0000
0320
0000
1000
0000
1000
0000
0000
0000
,
0230
0001
0010
0000
0302
1000
0010
1000
2003
0100
0010
0001
3002
0010
0100
1000
,
1003
0010
0000
0100
0000
0010
0000
2000
0002
0000
0000
0000
0000
0000
0000
0000
,
3003
0000
0000
0000
;

//---------------dance-single - ----------------
#NOTES:
     dance-single:
     CHALLENGE:
     Challenge:
     11:
     0.397628,0.441809,0.000000,0.159051,0.857110,315.000000,315.000000,0.000000,18.000000,0.000000,0.000000,0.397628,0.441809,0.000000,0.159051,0.857110,315.000000,315.000000,0.000000,18.000000,0.000000,0.000000:
// measure 0
0000
0000
0000
0000
,  // measure 1
0000
0000
0000
0000
,  // measure 2
0000
0000
0000
0000
,  // measure 3
1000
0000
0000
0000
0001
0000
0000
0000
0010
0000
0000
0000
0100
0000
0000
0000
0010
0000
0000
0000
0001
0000
1000
0000
0001
0000
0000
0000
0100
0000
0000
0010
0100
0000
0000
0000
0010
0000
0000
0000
1000
0000
0000
0000
0100
0000
0000
0000
0010
0000
0000
0000
0001
0000
0010
0000
0001
0000
0010
0000
0001
0000
0000
0000
,  // measure 4
0100
0000
0000
0000
0010
0000
0000
0000
1000
0000
0000
0000
0100
0000
0000
0000
0010
0000
0000
0000
0100
0000
1000
0000
0100
0000
0000
0000
1000
0000
0000
0001
1000
0000
0000
0000
0010
0000
0000
0000
0100
0000
0000
0000
0001
0000
0000
0000
0010
0000
0000
0000
0100
0000
1000
0000
0000
0000
0000
0000
0100
0000
0000
0000
,  // measure 5
0010
0000
0000
0000
0001
0000
0000
0000
1000
0000
0000
0000
0001
0000
0000
0000
0010
0000
0000
0000
0001
0000
0100
0000
0001
0000
0000
0000
0010
0000
0000
0100
0010
0000
0000
0000
0100
0000
0000
0000
1000
0000
0000
0000
0001
0000
0000
0000
1000
0000
0000
0000
0010
0000
0100
0000
0010
0000
0000
0000
0100
0000
0000
0000
,  // measure 6
0001
0000
0000
0000
0010
0000
0000
0000
0100
0000
0000
0000
1000
0000
0000
0000
0001
0000
0000
0000
1000
0000
0100
0000
1000
0000
0100
0000
1000
0000
0000
0001
0100
0000
0000
0000
0010
0000
0000
0000
1000
0000
0000
0000
0010
0000
0000
0000
0100
0000
0000
0000
0001
0000
0010
0000
0001
0000
0000
0000
0100
0000
0000
0000
,  // measure 7
0020
1000
0001
1000
0001
0230
0320
2030
3200
0001
1000
0001
1000
0320
0032
2003
,  // measure 8
3002
0000
1000
0000
1003
0010
1000
0000
0200
0000
0010
0000
0302
0000
0100
0000
2003
0000
0001
0000
0000
0000
0001
0000
3010
0000
0100
1000
0100
0000
0001
0000
,  // measure 9
0100
0000
1000
0000
0010
0000
0001
0000
0010
0000
1000
0100
1000
0100
0010
0000
0001
0000
0100
0000
1000
0000
0100
0000
0001
0000
0010
0100
0010
0100
1000
0000
,  // measure 10
0001
0000
0000
0000
0100
0000
0000
0010
0100
0000
0000
0000
0010
0000
1000
0000
0100
0000
0000
0000
0010
0000
0001
0000
0100
0000
0000
0000
0010
0000
0000
0000
1000
0000
0000
0000
0001
0000
0000
1000
0001
0000
0000
0000
0010
0000
0100
0000
1000
0000
0000
0000
0001
0000
0000
0000
0010
0000
0000
0000
0001
0000
1000
0000
,  // measure 11
0100
0010
0001
0100
0010
1000
0001
0010
0200
0000
0000
0000
0000
0000
1000
0000
1300
0000
0010
0000
0100
0000
0001
0000
0010
0000
0100
1000
0100
1000
0010
0000
,  // measure 12
0100
0000
0001
0000
0010
0000
0001
0000
1000
0000
0100
0000
0010
0001
0010
0001
0100
0000
0001
0000
0010
0000
0100
0000
0010
0000
0001
0000
1000
0000
0010
0000
,  // measure 13
0100
0000
1000
0000
0100
0000
0010
0000
1000
0001
1000
0000
0001
0000
0010
0000
0100
0000
1000
0000
0010
0000
0001
0000
0010
0000
1000
0001
0100
0001
0100
0000
,  // measure 14
0010
0000
1000
0000
0100
0000
0001
0000
0100
0000
1000
0000
0001
0010
0001
0010
0100
0000
1000
0000
0001
0000
0010
0000
0001
0000
1000
0000
0100
0000
0010
0000
,  // measure 15
0002
0000
1000
0000
0000
0000
0100
0000
0000
0000
1000
1000
0000
0000
0103
0000
0020
0000
1000
0000
0000
0000
0001
0000
0000
0000
1000
1000
0000
1030
0001
0010
,  // measure 16
0200
0000
0010
0000
0000
0000
0001
0000
0000
0000
1000
1000
0000
0000
0301
0000
0100
0000
1000
0000
0100
0000
0001
0000
1000
0000
0010
0001
0010
0000
1000
0000
,  // measure 17
0010
0000
0001
0000
0100
0000
0010
0000
1000
0000
0001
0100
0001
0000
0010
0000
0100
0000
1000
0100
1000
0100
0010
0000
0001
0000
0100
0001
0100
0001
1000
0000
,  // measure 18
0010
0000
0000
0000
0100
0000
0001
0000
1000
0000
0001
0000
1000
0000
0000
0000
0010
0000
0000
0000
0100
0000
0001
0000
0100
0000
0001
0000
0010
0000
0000
0000
0100
0000
0000
0000
1000
0000
0000
0010
0100
0000
0000
0000
0001
0000
0000
0000
0010
0000
0100
0000
1000
0000
0100
0000
0010
0000
0001
0000
0100
0000
0000
0000
,  // measure 19
0010
0000
0000
0000
1000
0000
0000
0001
1000
0000
0000
0000
0100
0000
0000
0000
0010
0000
0001
0000
1000
0000
0001
0000
0010
0000
1000
0000
0010
0000
0002
0000
2000
0000
0000
0000
0000
0000
0000
0000
0000
0000
0000
0000
0000
0000
0000
0000
0000
0000
0000
0000
0000
0000
0000
0000
0000
0000
0000
0000
0000
0000
0000
0000
,  // measure 20
3003
0000
0000
0000
;

//---------------dance-single - ----------------
#NOTES:
     dance-single:
     BEGINNER:
     Beginner:
     1:
     0.000000,0.000000,0.000000,0.000000,0.000000,0.000000,0.000000,0.000000,0.000000,0.000000,0.000000,0.000000,0.000000,0.000000,0.000000,0.000000,0.000000,0.000000,0.000000,0.000000,0.000000,0.000000:
0000
0000
0000
0000
,
0000
0000
0000
0000
,
0000
0000
0000
0000
,
1000
1000
0001
0001
,
0010
0000
0100
0000
,
0010
0010
0100
0100
,
1000
0000
0001
0000
,
1000
1000
0001
0001
,
0010
0010
0100
0100
,
1000
1000
0010
0010
,
0100
0100
0001
0001
,
1000
0000
0010
0010
,
0010
0100
0100
0100
,
0001
0001
0001
1000
,
1000
1000
0010
0010
,
0010
0100
0100
0100
,
0100
0100
0010
0010
,
0010
0010
0010
0100
,
0100
0100
0100
0001
,
0001
0001
1000
0000
;
