#TITLE:ガリレオ・ガール;
#SUBTITLE:;
#ARTIST:NONA REEVES;
#TITLETRANSLIT:GALILEO GIRL;
#SUBTITLETRANSLIT:;
#ARTISTTRANSLIT:;
#GENRE:;
#CREDIT:;
#BANNER:GALILEO GIRL.png;
#BACKGROUND:GALILEO GIRL-bg.png;
#LYRICSPATH:;
#CDTITLE:MIRAI.png;
#MUSIC:GALILEO GIRL.ogg;
#OFFSET:-0.480000;
#SAMPLESTART:63.910011;
#SAMPLELENGTH:15.000000;
#SELECTABLE:YES;
#DISPLAYBPM:124.000000;
#BPMS:0.000000=496.119965
,3.000000=124.029991
;
#STOPS:3.000000=0.689000
;
#BGCHANGES:-4.000=galileo 1.mp4=1.000=1=0=0=StretchNoLoop==CrossFade==,
163.000=galileo 2.mp4=1.000=1=0=0=StretchNoLoop==CrossFade==,
221.500=galileo 3.mp4=1.000=1=0=0=StretchNoLoop==CrossFade==,
233.000=GALILEO GIRL-bg.png=1.000=1=0=1===CrossFade==,
99999.000=-nosongbg-=1.000=0=0=0=StretchNoLoop====,
99999=-nosongbg-=1.000=0=0=0 // don't automatically add -songbackground-
;
#KEYSOUNDS:;
#ATTACKS:;

//---------------dance-single - ----------------
#NOTES:
     dance-single:
     :
     Medium:
     8:
     0.000000,0.000000,0.000000,0.000000,0.000000,0.000000,0.000000,0.000000,0.000000,0.000000,0.000000,0.000000,0.000000,0.000000,0.000000,0.000000,0.000000,0.000000,0.000000,0.000000,0.000000,0.000000:
0000
0000
0000
0000
,
0000
0000
0000
0000
,
0000
0000
0000
0000
,
0000
0000
0000
0000
,
0000
0000
0000
0000
,
1000
0000
0001
0102
0000
1003
0000
0001
,
0100
0100
0100
0000
0001
1000
0010
0100
,
0000
1000
0100
0010
0000
1010
0000
1000
,
0000
1001
0000
0001
0100
0001
1000
0001
,
1000
1010
0010
0110
,
0100
0000
0101
0000
0001
1000
0001
1000
,
0000
0100
1100
1000
,
1001
0000
0001
0000
0001
0100
0001
1000
,
0010
0110
0010
1010
,
0010
0000
0110
0000
1000
0001
1000
0001
,
0200
0301
0002
0013
,
0002
1003
2000
3100
,
1000
0000
0010
2010
0000
3100
0000
1000
,
0001
0000
0001
0100
0001
0000
1000
0001
,
1000
1001
0001
1001
,
1000
0100
0010
0001
0000
0100
0001
1000
,
0001
0000
0001
0012
0000
0103
0000
0100
,
0010
0000
0010
1000
0100
0000
1000
0001
,
0100
0101
0001
1001
,
1000
1010
0010
0110
,
0100
0001
0100
0000
0001
0100
0001
0000
,
1000
0010
1000
0000
0010
1000
0010
0000
,
0100
0010
1010
0100
,
0001
0000
1001
0000
1000
0100
0001
0000
,
0100
1000
0001
0000
0001
1000
0001
0000
,
0100
0001
0100
0000
0001
0100
0001
0000
,
0010
0001
0010
0000
0001
0010
0001
0020
,
0000
0000
0000
0031
0000
1001
1001
0000
,
1000
0100
0001
0000
0001
0100
1000
0000
,
0010
0000
0010
0000
1000
0001
1000
0010
,
0100
0000
0000
0100
0000
0000
0001
0000
0100
0000
0000
0000
0000
0000
0000
0000
,
0010
0000
0000
0010
0000
0000
1000
0000
0010
0000
0000
0000
0000
0000
0000
0000
,
1000
0010
0001
0000
0001
0010
1000
0000
,
0100
0000
0100
0000
1000
0010
0100
0001
,
1000
0000
0000
1000
0010
0000
1000
0000
0010
0000
0000
0000
0000
0000
0100
0000
,
0100
0000
0000
0001
0100
0000
0001
0000
0100
0000
0000
0000
0000
0000
0000
0000
,
0001
1000
0001
0000
1000
0010
1000
0000
,
0100
0100
0200
0000
2300
0000
3002
0000
,
0013
0001
0100
0000
0001
0100
0010
2000
,
0000
0000
0000
0000
0001
0001
3001
0000
,
1000
0010
0001
0000
0001
0010
1000
0000
,
0100
0000
0100
0000
1000
0001
0100
0001
,
1000
0000
0000
0001
0100
0000
0001
0000
0100
0000
0000
0000
0000
0000
0010
0000
,
0010
0000
0000
1000
0010
0000
1000
0000
0010
0000
0010
0000
1000
0000
0000
0000
,
1000
0001
1000
0000
0001
0100
0001
0000
,
1000
0010
1000
0000
0010
0100
0010
0100
,
0001
0101
1000
1010
,
0010
0100
0001
1000
0010
0000
0110
0000
,
1000
0000
0001
0102
0000
1000
0000
0013
,
0000
1000
1000
0001
1000
0000
1010
0000
,
1000
0001
1000
2010
0000
0001
0000
0100
,
0000
0001
0000
0100
3100
0000
1001
0000
,
0120
0000
1000
1030
0000
2000
0000
0002
,
0000
3003
0000
0000
;

//---------------dance-single - ----------------
#NOTES:
     dance-single:
     :
     Beginner:
     2:
     0.000000,0.000000,0.000000,0.000000,0.000000,0.000000,0.000000,0.000000,0.000000,0.000000,0.000000,0.000000,0.000000,0.000000,0.000000,0.000000,0.000000,0.000000,0.000000,0.000000,0.000000,0.000000:
0000
0000
0000
0000
,
0000
0000
0000
0000
,
0000
0000
0000
0000
,
0000
0000
0000
0000
,
0000
0000
0000
0000
,
1000
0000
1000
0000
,
1000
0000
0000
0000
,
0001
0000
0001
0000
,
0001
0000
0000
0000
,
0100
0000
0000
0000
,
0100
0000
0000
0000
,
0010
0000
0000
0000
,
0010
0000
0000
0000
,
1000
0000
0000
0000
,
1000
0000
0000
0000
,
0001
0000
0100
0000
,
0001
0000
1000
0000
,
0010
0000
0010
0000
,
0010
0000
0000
0000
,
1000
0000
1000
0000
,
1000
0000
0000
0000
,
0001
0000
0001
0000
,
0001
0000
0000
0000
,
1000
0000
0100
0000
,
1000
0000
0010
0000
,
0100
0000
0000
0000
,
0100
0000
0000
0000
,
0010
0000
0010
0000
,
0010
0000
0000
0000
,
1000
0000
0000
0000
,
1000
0000
0000
0000
,
0001
0000
0001
0000
,
1001
0000
0000
0000
,
1000
0000
1000
0000
,
1000
0000
0000
0000
,
1000
0000
1000
1000
,
0000
0000
0001
0001
,
0001
0000
0001
0000
,
0001
0000
0000
0000
,
0100
0000
0100
0100
,
0000
0000
0010
0010
,
0010
0000
0100
0000
,
0010
0000
0000
0000
,
1000
0000
1000
0000
,
1000
0000
0000
0000
,
0001
0000
0001
0000
,
0001
0000
0000
0000
,
1000
1000
1000
0000
,
1000
1000
1000
0000
,
0010
0000
1000
0000
,
0010
0000
0100
0000
,
1001
0000
0010
0000
,
0100
0000
1001
0000
,
0100
0000
0100
0000
,
0100
0000
0000
0000
,
0010
0000
0010
0000
,
0010
0000
0000
0000
,
2000
0000
0000
0000
0000
0000
0000
0002
,
0000
3003
0000
0000
;

//---------------dance-single - ----------------
#NOTES:
     dance-single:
     :
     Easy:
     5:
     0.000000,0.000000,0.000000,0.000000,0.000000,0.000000,0.000000,0.000000,0.000000,0.000000,0.000000,0.000000,0.000000,0.000000,0.000000,0.000000,0.000000,0.000000,0.000000,0.000000,0.000000,0.000000:
0000
0000
0000
0000
,
0000
0000
0000
0000
,
0000
0000
0000
0000
,
0000
0000
0000
0000
,
0000
0000
0000
0000
,
1000
0000
1000
1000
,
0001
0000
0001
0001
,
0100
0000
0100
0100
,
0010
0000
0010
1000
,
1001
0000
0100
0000
,
0100
0000
0100
0000
,
0010
0000
1000
0000
,
0010
0000
0100
0001
,
1001
0000
0010
0000
,
0010
0000
0010
0000
,
0001
0000
1000
0000
,
0001
0000
1000
0000
,
1010
1000
0010
0000
,
0010
0100
0001
0000
,
0001
0000
1000
0000
,
0100
0000
0001
0000
,
1100
0100
0010
0000
,
0001
0000
1000
0000
,
0001
0000
0100
0000
,
0010
0000
1000
0000
,
0001
0001
0001
0000
,
0001
0001
1000
0000
,
1000
1000
1000
0000
,
1000
1000
0010
0000
,
0010
0010
0010
0000
,
0010
0010
0100
0000
,
0100
0100
0100
0000
,
1001
0000
0000
0000
,
1000
0000
1000
0000
,
0100
0000
0100
0100
,
1000
0000
0001
1000
,
1001
0000
1000
0001
,
1001
0000
0001
0000
,
0100
0000
0100
0010
,
1000
0000
0010
1000
,
1010
0000
0100
0001
,
0101
0000
0001
0000
,
1000
0000
0001
0000
,
0100
0100
0010
0010
,
1000
0000
0100
0100
,
1000
0000
1000
0000
,
0001
0000
0001
0000
,
0100
0100
0001
0010
,
0011
0001
1000
0100
,
1100
0000
1000
0000
,
0010
0000
0100
0000
,
0001
0000
0001
1000
,
1001
0000
1000
0001
,
1001
0000
0010
0000
,
0010
0000
0100
0000
,
0100
0000
0001
0000
,
0001
0000
1000
0000
,
1000
0000
0000
0110
0000
2000
0000
0002
,
0000
3003
0000
0000
;

//---------------dance-single - ----------------
#NOTES:
     dance-single:
     :
     Hard:
     12:
     0.539203,0.617873,0.300539,0.300539,0.327057,427.000000,393.000000,34.000000,34.000000,0.000000,0.000000,0.539203,0.617873,0.300539,0.300539,0.327057,427.000000,393.000000,34.000000,34.000000,0.000000,0.000000:
// measure 0
0000
0000
0000
0000
,  // measure 1
0000
0000
0000
0000
,  // measure 2
0000
0000
0000
0000
,  // measure 3
0000
0000
0000
0000
,  // measure 4
0000
0000
0000
0000
,  // measure 5
1000
0000
0100
0000
1000
0000
0001
1000
0000
0000
0100
0000
0010
0000
0200
0000
,  // measure 6
1000
0000
1000
0000
1300
0000
0100
1000
0000
0000
0110
0000
0000
0000
1001
0000
,  // measure 7
0000
0000
1000
0000
0010
0000
0100
0001
0000
0000
0011
0000
0000
0000
0001
0000
,  // measure 8
0000
0000
1001
0000
0000
0000
0001
0000
1000
0000
0010
0000
1000
0000
0100
1000
,  // measure 9
0100
0000
0000
0100
1000
0000
0000
1000
0010
0000
0000
0010
0100
0000
0000
0100
,  // measure 10
0001
0000
0000
0001
1000
0000
0001
0000
0100
0000
0001
0000
0000
0000
1001
0000
,  // measure 11
0002
0010
0013
0000
0200
1000
1300
0000
,  // measure 12
0001
1000
0010
0100
0000
0010
1000
1010
,  // measure 13
0001
0000
0000
1000
0001
0000
0000
0001
1000
0000
0000
1000
0010
0000
0000
0010
,  // measure 14
0100
0000
0000
0100
0001
0000
0001
1000
0000
0000
1001
0000
0000
0000
0010
1000
,  // measure 15
0100
0000
0000
0100
1000
0000
0000
1000
0001
0000
0000
0001
0100
0000
0000
0100
,  // measure 16
0010
0000
0000
0010
0100
0000
0000
0001
2000
0000
0000
0000
0010
0000
0000
0000
,  // measure 17
3001
0000
1000
0000
0010
0000
1000
0200
0000
0000
1000
0000
1300
0000
0000
0000
,  // measure 18
1000
0000
0010
0000
0100
0000
0001
0100
0000
0001
0100
0000
0001
0000
1000
0000
,  // measure 19
0001
0000
0002
1000
1003
0000
0200
0010
,  // measure 20
0310
0000
0001
1000
0100
0010
0100
1001
,  // measure 21
0010
0000
0100
0000
0001
0000
1000
0002
0000
0000
0100
0000
0103
0000
0000
0000
,  // measure 22
0001
0000
1000
0000
0100
0000
0010
0001
0000
0010
0001
0000
1000
0000
0010
1000
,  // measure 23
0100
0000
0000
1000
0010
0000
0000
0010
1000
0000
0000
1000
0001
0000
0000
0001
,  // measure 24
0100
0000
0000
0100
0010
0000
0000
0010
1000
0000
0001
0000
0100
0000
0001
1000
,  // measure 25
0001
0000
0000
0001
0100
0000
0000
0100
0010
0000
0000
0010
1000
0000
0001
0000
,  // measure 26
1000
0000
0000
1000
0010
0000
0000
0010
1000
0000
0000
1000
0001
0000
1000
0000
,  // measure 27
0001
0000
0100
0001
0100
0000
0001
0000
0010
0000
0001
1000
0001
0000
1000
0000
,  // measure 28
0010
0000
1000
0100
1000
0000
0002
0000
0100
0000
0100
0000
0103
0000
0000
0000
,  // measure 29
0010
0000
0100
0000
0010
0000
1000
0001
1000
0000
0001
0000
1000
0000
0100
0010
,  // measure 30
0100
0000
1000
0000
0100
0000
1000
0001
1000
0000
0200
0000
1000
0000
1000
0000
,  // measure 31
2300
0010
3010
0000
2000
0001
0001
0002
,  // measure 32
0000
0000
3000
0000
0000
0000
1003
0001
0000
0000
1001
0000
1001
0000
0000
0000
,  // measure 33
0002
0100
1003
0000
0002
0100
1003
0000
,  // measure 34
0001
0000
0100
0000
0001
1000
0000
0001
1000
0000
0010
0000
0100
0000
0001
0000
,  // measure 35
0101
0000
0000
1000
0001
0000
0001
0000
1000
0000
0110
0000
0110
0000
0000
0000
,  // measure 36
1010
0000
0000
0001
1000
0000
1000
0000
0001
0000
0110
0000
0110
0000
0000
0000
,  // measure 37
2000
0010
3001
0000
2000
0010
3001
0000
,  // measure 38
1000
0000
0100
0000
1000
0001
0000
1000
0001
0000
0100
0000
0001
0000
0010
0000
,  // measure 39
0011
0000
0000
1000
0001
1000
0100
0000
1000
0000
1001
0000
1001
0000
0000
0000
,  // measure 40
1100
0000
0000
0001
0100
0001
1000
0000
0100
0000
1001
0000
1001
0000
0000
0000
,  // measure 41
0001
0100
0001
1000
0010
1000
0200
2000
,  // measure 42
0000
0300
3002
0000
0203
0000
0320
0000
,  // measure 43
2030
0100
3100
0000
2000
0001
0001
3002
,  // measure 44
0000
0000
1003
0000
0001
0100
0001
0100
0002
0000
1000
0000
1003
0000
0000
0000
,  // measure 45
2000
0100
3001
0000
2000
0100
3001
0000
,  // measure 46
1000
0000
0010
0000
1000
0100
0000
1000
0100
0000
1000
0000
0010
0000
0100
0000
,  // measure 47
0101
0000
0000
0001
1000
0010
0100
0000
0010
0000
1001
0000
1001
0000
0000
0000
,  // measure 48
1010
0000
0000
1000
0001
1000
0100
0000
0010
0000
1001
0000
1001
0000
0000
0000
,  // measure 49
0001
0100
0010
1000
0100
0010
0001
1000
,  // measure 50
0001
1000
0100
1000
0010
0100
0001
0100
,  // measure 51
0101
0000
0000
0001
1000
0000
0001
0000
0100
0000
0000
0001
1000
0000
0010
0000
,  // measure 52
1010
0000
1010
0000
1010
0000
0000
0000
0100
0000
0001
0000
1000
0000
0001
1000
,  // measure 53
0002
0000
0100
0100
0000
0010
0000
0103
,  // measure 54
0000
0000
0000
0000
0000
0000
0001
0000
0000
0000
0000
0000
0100
0000
0000
0000
0000
0000
0010
0000
0000
0000
0000
0000
0100
0000
0000
0000
0001
0000
0000
0000
0100
0000
0000
0000
0010
0000
0000
1000
0000
0000
0020
0000
0000
0000
0000
0000
,  // measure 55
0000
0100
0100
0130
0000
1001
0000
0100
,  // measure 56
0000
0000
1001
0000
0000
0000
1000
0000
0010
0000
0100
0000
0001
0000
1000
0001
,  // measure 57
2000
0000
0001
3002
0000
2003
0000
0002
,  // measure 58
0000
3003
0000
0000
;
