#VERSION:0.83;
#TITLE:Funk Boogie;
#SUBTITLE:;
#ARTIST:Funk Kid feat. KOOL BOYS;
#TITLETRANSLIT:;
#SUBTITLETRANSLIT:;
#ARTISTTRANSLIT:;
#GENRE:;
#ORIGIN:;
#TAGS:;
#CREDIT:;
#BANNER:Funk Boogie.png;
#BACKGROUND:Funk Boogie-bg.png;
#PREVIEWVID:;
#JACKET:Funk Boogie-jacket.png;
#CDIMAGE:;
#DISCIMAGE:;
#LYRICSPATH:;
#CDTITLE:Konami Original.png;
#MUSIC:Funk Boogie.ogg;
#OFFSET:0.000000;
#SAMPLESTART:39.657001;
#SAMPLELENGTH:15.000000;
#SELECTABLE:YES;
#DISPLAYBPM:127.000000;
#BPMS:0.000000=126.999992
,4.000000=127.103989
;
#STOPS:;
#DELAYS:;
#WARPS:;
#TIMESIGNATURES:0.000000=4=4
;
#TICKCOUNTS:0.000000=4
;
#COMBOS:0.000000=1
;
#SPEEDS:0.000000=1.000000=0.000000=0
;
#SCROLLS:0.000000=1.000000
;
#LABELS:0.000000=Song Start
;
#BGCHANGES:20.000=ring8.mp4=1.000=1=0=1===CrossFade==,
28.000=water2.mp4=1.000=0=0=1=====,
36.000=ring8.mp4=1.000=0=1=1=StretchRewind====,
44.000=water2.mp4=1.000=0=1=1=StretchRewind====,
52.000=cube2.mp4=2.000=0=0=1=====,
60.000=wheel6.mp4=1.600=0=0=1=====,
68.000=cube2.mp4=2.000=0=1=1=StretchRewind====,
76.000=wheel6.mp4=1.600=0=1=1=StretchRewind====,
84.000=jazz1.mp4=1.000=0=0=1=====,
92.000=roulette1.mp4=1.600=0=0=1=====,
96.000=darts1.mp4=1.000=0=0=1=====,
100.000=jazz1.mp4=1.000=0=1=1=StretchRewind====,
104.000=roulette1.mp4=1.600=0=1=1=StretchRewind====,
108.000=darts1.mp4=1.000=0=1=1=StretchRewind====,
116.000=fan1.mp4=1.000=0=0=1=====,
132.000=cube2.mp4=2.000=0=1=1=StretchRewind====,
140.000=water2.mp4=1.000=0=1=1=StretchRewind====,
148.000=cube2.mp4=2.000=0=1=1=StretchRewind====,
156.000=water2.mp4=1.000=0=1=1=StretchRewind====,
164.000=cube8.mp4=1.000=0=0=1=====,
172.000=wheel6.mp4=1.600=0=1=1=StretchRewind====,
180.000=cube8.mp4=1.000=0=1=1=StretchRewind====,
188.000=wheel6.mp4=1.600=0=1=1=StretchRewind====,
196.000=Funk Boogie-bg.png=1.000=0=0=1=====,
99999=-nosongbg-=1.000=0=0=0 // don't automatically add -songbackground-
;
#KEYSOUNDS:;
#ATTACKS:
;

//---------------dance-single - ----------------
#NOTEDATA:;
#CHARTNAME:;
#CHARTHASH:1483209587;
#STEPSTYPE:dance-single;
#BANNER:;
#DESCRIPTION:;
#CHARTSTYLE:;
#DIFFICULTY:Medium;
#METER:8;
#METERF:8.000000;
#LASTSECONDHINT:92.878250;
#RADARVALUES:0.372024,0.409896,0.197917,0.135417,0.015625,250.000000,231.000000,19.000000,13.000000,0.000000,0.000000,0.000000,0.000000,0.000000,0.372024,0.409896,0.197917,0.135417,0.015625,250.000000,231.000000,19.000000,13.000000,0.000000,0.000000,0.000000,0.000000,0.000000;
#CREDIT:;
#DISPLAYBPM:127.000000;
#NOTES:
0000
0000
0000
0000
,
0000
0000
0000
0000
,
0000
0000
0000
0000
,
0000
0000
0000
0000
,
0000
0000
0000
0000
,
1000
0001
1000
0000
0010
0010
0010
0000
,
0100
0010
0100
0000
0001
1000
1001
0000
,
0010
0100
0010
0000
1000
1000
1000
0000
,
0001
0100
1000
0000
1000
0100
0101
0000
,
2100
0000
3010
0100
0001
0001
0001
0000
,
0012
0000
1003
0100
0010
0010
0010
0000
,
0201
0000
0310
1000
0100
0100
0100
0000
,
1000
0000
0000
0001
0000
0000
0010
0000
0001
0000
1000
0000
0100
0000
0000
0000
,
2002
0000
3003
0001
0010
0100
1000
0000
,
0001
0000
0010
0100
1000
0000
0100
0000
,
0010
0001
1000
0000
0010
0000
0010
0000
,
1000
0001
0100
0000
0010
0000
1001
0000
,
1100
0000
1100
0000
2002
0000
3003
0001
,
0010
0000
0100
0000
1000
0100
0010
0000
,
1001
0000
0010
0000
0100
0000
0001
0010
,
1000
0000
1000
0010
0001
0000
0110
0000
,
1001
0000
0010
0010
0010
0000
1000
0010
,
0100
0000
0001
0000
0100
0010
1000
0000
,
0010
0000
0000
0010
0000
0000
0010
0000
1000
0000
0100
0000
0010
0000
0000
0000
,
0001
0000
0100
0000
0010
1000
0010
0000
,
2002
0000
3003
0000
0100
0010
0100
0000
,
0010
0010
1000
0000
0010
0010
0100
0000
,
0010
0010
0001
0000
0010
0100
0010
0000
,
0100
0100
0001
0000
0100
0010
0100
0000
,
1001
1000
0100
0010
,
0002
0000
0003
0000
0002
0000
0003
1000
,
0100
1000
0010
0100
,
0020
0000
0030
0000
0020
0000
0030
0100
,
0001
0000
0010
0100
1000
0000
0100
0000
,
0010
0000
0001
0000
1000
0000
0001
0100
,
0001
0000
1000
0010
0001
0000
0010
0000
,
1000
0010
0100
1001
,
0010
0100
0010
0000
0100
0000
0001
0000
,
1000
0100
0001
0000
0100
0000
1000
0000
,
0010
0000
0100
0001
0100
0000
0001
0000
,
0010
0000
0001
0010
1000
0000
0010
0000
,
0001
0001
0001
0000
1000
0001
0001
0000
,
0100
0000
0010
1000
0100
0010
0001
0000
,
1000
1000
1000
0000
0001
1000
1000
0000
,
0010
0100
0101
1010
,
0010
0100
0100
0000
0010
0010
0010
0000
,
0100
0000
0001
1000
0100
0010
0001
0000
,
0100
0010
0010
0000
0100
0100
0100
0000
,
0001
0000
0010
0000
0100
1000
0100
0000
,
1000
0000
0000
1001
0000
0000
0000
0000
0000
0000
0000
0000
0000
0000
0000
0000
;

//---------------dance-single - ----------------
#NOTEDATA:;
#CHARTNAME:;
#CHARTHASH:189726595;
#STEPSTYPE:dance-single;
#BANNER:;
#DESCRIPTION:;
#CHARTSTYLE:;
#DIFFICULTY:Hard;
#METER:12;
#METERF:12.000000;
#LASTSECONDHINT:92.878250;
#RADARVALUES:0.508929,0.486751,0.208333,0.177083,0.458333,342.000000,322.000000,20.000000,17.000000,0.000000,0.000000,0.000000,0.000000,0.000000,0.508929,0.486751,0.208333,0.177083,0.458333,342.000000,322.000000,20.000000,17.000000,0.000000,0.000000,0.000000,0.000000,0.000000;
#CREDIT:;
#DISPLAYBPM:127.000000;
#NOTES:
0000
0000
0000
0000
,
0000
0000
0000
0000
,
0000
0000
0000
0000
,
0000
0000
0000
0000
,
0000
0000
0000
0000
,
0012
0000
0000
0000
1003
0000
0000
0010
0000
0100
0000
0001
1000
0000
0000
0000
,
1200
0000
0000
0000
1300
0000
0000
0010
0000
0100
0000
0001
0010
0000
0000
0000
,
0012
0000
0000
0000
0103
0000
0100
0010
0000
0100
0000
0001
2000
0000
0000
0000
,
3200
0000
0000
0000
1300
0010
0000
0100
0000
0001
0000
0100
0020
0000
0000
0000
,
1030
0000
0010
0000
1000
0000
0000
0001
0000
0100
0000
0001
0200
0000
0000
0000
,
0310
0000
0100
0000
0010
0000
0000
1000
0000
0100
0000
0010
0002
0000
0000
0000
,
0103
0000
0010
0000
0100
0000
0000
0001
0000
1000
0000
0100
0010
0000
0100
0000
,
1000
0000
0000
0001
0100
0000
0010
0000
1000
0000
1000
0000
0100
0000
1000
0000
,
2002
0000
0000
0000
3003
0000
1000
0000
0100
0000
0010
0000
0001
0000
0000
0100
,
0000
0001
0100
0000
0010
0000
1000
0000
0100
0000
0010
0000
0011
0000
0000
0000
,
0001
0000
0001
0000
1000
0000
0000
0100
0000
1000
0010
0000
0100
0000
0100
0000
,
0001
0010
1000
0000
1000
0010
0001
0000
,
0101
0000
0000
0000
0101
0000
0000
0000
2002
0000
0000
0000
3003
0000
1000
0100
,
1000
0000
0000
0010
0100
0000
0001
0000
0010
0000
0000
0001
1000
0000
0100
0010
,
0001
0000
0000
0000
1100
0000
0000
0000
0010
0000
0000
0100
0000
0000
0001
0000
,
0010
0001
1000
0100
0010
1001
0210
0000
,
0301
0000
1000
0100
0000
0000
1000
0000
0010
0000
0100
0000
0001
0000
0010
0000
,
0100
1000
0000
0100
0000
1000
0001
0000
0010
0000
0001
0000
0100
0000
0010
0000
,
1000
0000
0000
0010
0000
0000
0100
0000
0001
0000
0010
0000
0001
0000
0000
0000
,
1000
0000
0100
0000
0001
0000
0000
0000
0001
0000
0100
0000
1000
0000
0000
0011
,
0000
0000
0000
1000
0000
0010
0100
0000
0010
0000
1000
0000
1001
0000
0000
0000
,
0010
0100
0000
0010
0000
0000
1000
0001
0000
0100
0000
0000
0101
0000
0000
0000
,
0001
0010
0000
0001
0000
1000
0100
0000
1000
0000
0001
0000
0010
0000
0100
0000
,
1000
0010
0000
0100
0000
0010
0100
0000
0001
0000
0001
0000
1000
0000
0000
0000
,
0110
0000
1000
0000
0010
0100
0001
0010
,
0100
0000
1000
0100
1000
0100
0000
0000
0010
0001
0010
0001
0000
0000
1000
0000
,
1001
0000
0100
0000
0010
0100
0001
1000
,
0100
0010
0010
0000
0001
0100
0100
0010
,
1000
0001
0010
0100
0010
0001
1000
0100
,
1001
0000
0000
0100
0000
0010
0000
1000
0000
0001
0010
0000
0001
0000
0001
0000
,
1000
0100
0001
0100
1000
0010
0100
0010
,
1001
0000
0000
0100
0000
0010
0000
0100
0000
0001
1000
0010
2000
0000
0000
0000
,
3001
0100
0010
1000
0100
0010
0100
1000
,
0001
0000
0000
1000
0000
0010
0000
0100
0000
0001
0100
0000
0010
0000
0020
0000
,
0000
1030
0010
0100
0001
0010
0100
1000
,
1001
0000
1000
0100
0000
1000
0000
0010
0000
0100
0001
0100
0020
0000
0000
0000
,
0130
0100
0001
0000
0100
0100
1000
0000
,
0100
0000
0001
0100
0000
0010
0000
0100
0000
0010
0000
1000
0010
0000
0100
0000
,
0001
0001
0010
0000
1000
1000
0010
0000
,
0001
0000
1000
0200
0000
0000
0000
1300
0001
0000
0000
0001
0010
0000
0000
0010
,
0100
1000
1000
0000
0100
0100
0001
0000
,
0100
0000
1000
0010
0000
0100
0000
0001
0000
0010
0001
0000
0100
0000
0100
0000
,
0001
0010
0010
0000
1000
0010
0010
0000
,
0001
0000
0000
1000
0000
0001
0010
0000
0001
0000
1000
0000
0100
0000
0000
0000
,
1001
0000
0001
1000
0000
0000
0000
0000
0000
0000
0000
0000
0000
0000
0000
0000
;

//---------------dance-single - ----------------
#NOTEDATA:;
#CHARTNAME:;
#CHARTHASH:717163386;
#STEPSTYPE:dance-single;
#BANNER:;
#DESCRIPTION:;
#CHARTSTYLE:;
#DIFFICULTY:Challenge;
#METER:15;
#METERF:15.000000;
#LASTSECONDHINT:92.878250;
#RADARVALUES:0.647321,0.640462,0.260417,0.229167,0.927083,435.000000,410.000000,25.000000,22.000000,0.000000,0.000000,0.000000,0.000000,0.000000,0.647321,0.640462,0.260417,0.229167,0.927083,435.000000,410.000000,25.000000,22.000000,0.000000,0.000000,0.000000,0.000000,0.000000;
#CREDIT:;
#DISPLAYBPM:127.000000;
#NOTES:
// measure 0
0000
0000
0000
0000
,  // measure 1
0000
0000
0000
0000
,  // measure 2
0000
0000
0000
0000
,  // measure 3
0000
0000
0000
0000
,  // measure 4
0000
0000
0000
0000
,  // measure 5
2001
0000
0000
3001
0010
0000
0010
0100
0000
1000
0000
0100
0010
0000
0001
0000
,  // measure 6
1002
0000
0000
0000
1003
0100
0000
1000
0000
0001
0000
0100
0001
0000
0010
0000
,  // measure 7
0100
1000
0000
0001
0010
0001
0000
0100
0000
0010
0000
1000
0100
0000
1000
0001
,  // measure 8
2000
0000
0000
3001
0010
0001
0000
0100
0000
0100
0000
0001
2000
0000
0000
0000
,  // measure 9
3200
0000
0000
1300
0100
0000
0100
0010
0000
0001
0000
0010
0100
0000
1000
0000
,  // measure 10
1002
0000
0000
0000
0013
0001
0000
0100
0000
0001
0000
0010
0100
0000
1000
0000
,  // measure 11
0001
0100
0000
0010
0100
0010
0000
1000
0000
0010
0000
0100
0001
0000
1000
0010
,  // measure 12
1000
0010
0000
0100
0000
0001
0100
0000
0010
1000
0010
1000
0010
0000
0100
0000
,  // measure 13
2002
0000
0000
0000
3003
0000
1000
0100
0010
0001
0010
0100
2000
0000
0000
3001
,  // measure 14
0000
1000
0100
0010
0100
1000
0001
0000
0010
0000
0100
0000
2100
0000
0000
0000
,  // measure 15
3001
0000
0010
0000
0110
0000
0000
1000
0000
0001
0100
0000
0010
0000
1000
0000
,  // measure 16
1100
0000
1000
0000
0001
0000
0000
0000
0011
0000
0001
0000
1000
0100
1000
0000
,  // measure 17
1010
0000
0000
0000
1010
0000
0000
0000
2002
0000
0000
0000
3003
0000
0001
0010
,  // measure 18
0001
0000
1000
0010
0000
0100
0000
0001
0100
0000
0010
0100
0000
0001
0010
0100
,  // measure 19
1100
0000
0000
0000
1001
0000
0000
0000
0011
0000
0000
1000
0000
0000
0001
0000
,  // measure 20
0010
0100
0000
1000
0100
0010
0001
0000
0100
0000
1001
0000
0120
0000
0000
0000
,  // measure 21
1030
0000
0001
0100
0000
0000
0010
0000
1000
0100
1000
0100
1000
0000
0010
0000
,  // measure 22
0100
0001
0000
0010
0000
0001
1000
0000
0100
0000
0010
0000
0001
0000
0010
0000
,  // measure 23
0100
0000
1000
0100
0000
1000
0001
0000
0010
0000
0001
0000
0101
0000
0000
0000
,  // measure 24
0010
0000
0001
0000
1000
0000
1000
0000
0010
0000
0100
0000
0001
0000
0010
0001
,  // measure 25
0000
1000
0100
1000
0000
0001
0100
0000
0010
0000
0010
0000
1001
0000
0000
0000
,  // measure 26
0001
0100
0000
0010
0000
1000
0100
1000
0000
0010
0000
0100
0001
0100
0000
0000
,  // measure 27
0001
0010
0000
0100
0000
1000
0100
0010
0001
0000
0010
0000
1100
0000
0000
0000
,  // measure 28
1000
0001
0000
0100
0000
0010
0100
0000
0001
1000
0001
0000
0210
0000
0000
0000
,  // measure 29
0301
0000
0100
0000
0001
0010
0000
0001
0000
1000
0000
0100
0000
1000
0010
1000
,  // measure 30
0000
0000
0001
0100
0001
0100
0000
0010
1000
0100
0001
0100
0000
1000
0100
0010
,  // measure 31
0000
0000
0001
0000
0100
0010
0000
0100
0000
0010
0000
1000
0000
0010
0100
0010
,  // measure 32
0100
0000
0001
1000
0001
1000
0000
0100
0010
0001
0010
0100
1000
0100
0001
0100
,  // measure 33
1000
0000
0001
0000
0010
0000
0001
0100
0000
0000
0010
0000
1000
0000
0100
0000
,  // measure 34
1000
0000
0010
0100
0000
0010
0000
1000
0000
0100
1000
0100
0010
0000
2001
0000
,  // measure 35
0000
3010
0100
0001
0010
0001
1000
0010
,  // measure 36
0100
0001
0000
0010
0000
0001
0000
1000
0000
0010
0100
0010
2000
0000
0000
0000
,  // measure 37
3100
0000
1000
0001
0000
0000
0010
0000
0001
0000
0100
0000
0010
0000
1000
0000
,  // measure 38
0010
0000
0100
0001
0000
0010
0000
0001
0000
1000
0100
0010
0100
0001
0200
0000
,  // measure 39
0000
0000
1300
0000
0001
0000
0100
0010
0000
0000
1000
0000
0010
0000
1000
0000
,  // measure 40
0001
0000
0010
0001
0000
0010
0000
0001
0000
1000
0100
0010
0200
0000
0000
0000
,  // measure 41
1300
0100
0001
0100
1000
0100
0010
0200
0000
0000
0000
0000
0000
1300
0001
1000
,  // measure 42
0100
0000
1000
0001
0000
0010
0000
0001
0000
0100
0001
0010
0001
0000
1001
0000
,  // measure 43
0001
0010
1000
0010
0001
0010
0100
0020
0000
0000
0000
0000
0000
0000
0031
1000
,  // measure 44
0001
0000
1000
0100
0000
0000
0010
0000
0011
0000
0000
0001
1000
0000
0000
0100
,  // measure 45
0010
0000
0001
0010
0100
1000
0100
0020
0000
0000
0001
0000
0031
0000
1000
0001
,  // measure 46
1000
0000
0001
0010
0000
0001
0000
0100
0000
0010
1000
0100
0010
0000
1001
0000
,  // measure 47
0001
0100
0010
1000
0100
0010
0100
2000
0000
0000
0010
0000
3010
0000
1000
0001
,  // measure 48
1000
0000
0001
0010
0000
0100
0000
1000
0100
0010
0001
0000
0001
0010
0000
0000
,  // measure 49
1001
0000
1000
0001
0000
0000
0000
0000
0000
0000
0000
0000
0000
0000
0000
0000
;

//---------------dance-single - ----------------
#NOTEDATA:;
#CHARTNAME:;
#CHARTHASH:294235925;
#STEPSTYPE:dance-single;
#BANNER:;
#DESCRIPTION:;
#CHARTSTYLE:;
#DIFFICULTY:Beginner;
#METER:2;
#METERF:2.000000;
#LASTSECONDHINT:92.878250;
#RADARVALUES:0.132440,0.179329,0.041667,0.020833,0.005208,89.000000,85.000000,4.000000,2.000000,0.000000,0.000000,0.000000,0.000000,0.000000,0.132440,0.179329,0.041667,0.020833,0.005208,89.000000,85.000000,4.000000,2.000000,0.000000,0.000000,0.000000,0.000000,0.000000;
#CREDIT:;
#DISPLAYBPM:127.000000;
#NOTES:
0000
0000
0000
0000
,
0000
0000
0000
0000
,
0000
0000
0000
0000
,
0000
0000
0000
0000
,
0000
0000
0000
0000
,
1000
0000
0000
0000
,
1000
0000
0000
0000
,
0001
0000
0000
0000
,
0001
0000
0000
0000
,
1000
0000
0000
1000
,
1000
0000
0000
0001
,
0001
0000
0000
1000
,
1000
0000
0000
0000
,
1001
0000
0000
0000
,
0010
0010
0010
0000
,
0100
0000
0100
0000
,
0100
0000
0010
0000
,
1000
1000
1000
0000
,
0001
0000
0001
0000
,
1000
0000
0000
0000
,
0001
0000
0000
0000
,
1000
1000
1000
0000
,
0001
0000
0001
0000
,
1000
1000
1000
0000
,
0001
0000
0001
0000
,
0100
0100
0100
0000
,
0010
0000
0010
0000
,
0100
0100
0100
0000
,
0010
0000
0010
0000
,
1001
0000
0000
0000
,
0100
0000
0100
0000
,
1001
0000
0000
0000
,
0010
0000
0010
0000
,
1000
0000
0010
0000
,
1000
0000
0000
0000
,
0001
0000
0100
0000
,
0001
0000
0000
0000
,
0100
0000
0010
0000
,
0100
0000
0000
0000
,
0010
0000
0100
0000
,
0010
0000
0000
0000
,
1000
1000
1000
0000
,
0001
0000
0001
0000
,
1000
1000
1000
0000
,
0001
0000
0001
0000
,
0010
0010
0010
0000
,
0100
0000
0100
0000
,
0010
0010
0010
0000
,
0100
0000
0100
0000
,
2002
0000
0000
3003
0000
0000
0000
0000
0000
0000
0000
0000
0000
0000
0000
0000
;

//---------------dance-single - ----------------
#NOTEDATA:;
#CHARTNAME:;
#CHARTHASH:4176596036;
#STEPSTYPE:dance-single;
#BANNER:;
#DESCRIPTION:;
#CHARTSTYLE:;
#DIFFICULTY:Easy;
#METER:5;
#METERF:5.000000;
#LASTSECONDHINT:92.878250;
#RADARVALUES:0.250000,0.333040,0.187500,0.395833,0.005208,168.000000,150.000000,18.000000,38.000000,0.000000,0.000000,0.000000,0.000000,0.000000,0.250000,0.333040,0.187500,0.395833,0.005208,168.000000,150.000000,18.000000,38.000000,0.000000,0.000000,0.000000,0.000000,0.000000;
#CREDIT:;
#DISPLAYBPM:127.000000;
#NOTES:
0000
0000
0000
0000
,
0000
0000
0000
0000
,
0000
0000
0000
0000
,
0000
0000
0000
0000
,
0000
0000
0000
0000
,
2100
0001
3100
0000
,
0012
1000
0013
0000
,
0200
0001
0310
0000
,
0020
1000
0130
0000
,
0010
1000
0020
0030
,
0100
0001
0200
0300
,
0001
1000
0002
0003
,
1000
1000
0001
1001
,
0220
0330
0100
0100
,
0002
0003
0002
0003
,
1000
1000
0000
0020
,
1030
1000
0001
0001
,
1001
1001
0220
0330
,
1000
0010
0100
0001
,
0010
0010
0001
0001
,
2000
3000
0010
1001
,
0200
0300
0200
0300
,
0001
0001
0010
0010
,
0100
1000
0100
0010
,
0001
1000
0001
0100
,
0202
0303
1000
1000
,
0002
0003
0002
0003
,
1000
1000
0200
0300
,
2000
3000
2000
3000
,
0220
0330
0100
0001
,
2000
3000
2000
3000
,
0220
0330
0001
0010
,
0200
0300
0200
0300
,
1000
0100
0010
0001
,
0010
0010
0001
0001
,
0100
0010
1000
0100
,
1000
1000
0001
0001
,
0010
1000
0010
0001
,
0100
0100
0010
0010
,
1000
0100
0001
0100
,
1000
1000
0010
0010
,
0102
1000
0010
0103
,
0001
0010
0100
1000
,
2100
0001
0100
3010
,
0100
0001
1001
0110
,
2001
0010
0100
3010
,
1000
0001
0010
0001
,
1002
0100
0010
0103
,
0001
0010
0100
1000
,
2002
0000
0000
3003
0000
0000
0000
0000
0000
0000
0000
0000
0000
0000
0000
0000
;

//---------------dance-double - ----------------
#NOTEDATA:;
#CHARTNAME:;
#CHARTHASH:1830531036;
#STEPSTYPE:dance-double;
#BANNER:;
#DESCRIPTION:;
#CHARTSTYLE:;
#DIFFICULTY:Easy;
#METER:4;
#METERF:0.000000;
#LASTSECONDHINT:92.524208;
#RADARVALUES:0.165179,0.255208,0.031250,0.052083,0.000000,111.000000,108.000000,3.000000,5.000000,0.000000,0.000000,0.000000,0.000000,0.000000,0.165179,0.255208,0.031250,0.052083,0.000000,111.000000,108.000000,3.000000,5.000000,0.000000,0.000000,0.000000,0.000000,0.000000;
#CREDIT:;
#DISPLAYBPM:127.000000;
#NOTES:
00000000
00000000
00000000
00000000
,
00000000
00000000
00000000
00000000
,
00000000
00000000
00000000
00000000
,
00000000
00000000
00000000
00000000
,
00000000
00000000
00000000
00000000
,
00010000
00000000
00000000
00000000
,
10000000
00000000
00000000
00000000
,
00100000
00000000
00000000
00000000
,
01000000
00000000
00010000
10000000
,
01000000
00000000
00000000
00000000
,
00010000
00000000
00000000
00000000
,
00001000
00000000
00000000
00000000
,
00000100
00000100
00000100
00001001
,
00000000
00000001
00000000
00001000
,
00000000
00000100
00000100
00000100
,
00000000
00000010
00000000
00000001
,
00000000
00000100
00001000
00000000
,
00010000
00010000
00010000
00000000
,
00001000
00000000
00010000
00000000
,
00010000
01000000
10000000
10000000
,
00020000
00000000
00030000
10010000
,
00000000
01000000
00000000
01000000
,
00000000
00100000
10000000
01000000
,
00000000
00010000
00000000
00010000
,
00000000
00010000
00001000
00000000
,
00000200
00001300
00000000
00000000
,
00000020
00000031
00000000
00000000
,
00000001
00000001
00001000
00001000
,
00000001
00000100
00001000
00010000
,
00002000
00000000
00000000
00003000
,
00000000
00000000
00000000
00000000
,
00000000
20000000
00000000
30000000
,
00000000
00000000
00000000
01000000
,
00000000
01000000
01000000
00100000
,
00000000
10000000
01000000
00010000
,
00000000
00001000
00000000
00001000
,
00010000
00001000
00000010
00000100
,
00000000
00001000
00001000
00000001
,
00000000
00000001
00000001
00001000
,
00000000
00000010
00000000
00000100
,
00000000
00000100
00000100
00000010
,
00000000
00001000
00010000
00000000
,
00000000
00010000
00001000
00010000
,
00000000
00100000
10000000
10000000
,
00010000
00010000
01000000
01000000
,
00000000
00100000
00100000
10000000
,
10000000
01000000
01000000
00010000
,
00010000
00001000
00000010
00000100
,
00001000
00000010
00000100
00000010
,
00001001
00000000
00000000
00000000
,
00000000
00000000
00000000
00000000
;

//---------------dance-double - ----------------
#NOTEDATA:;
#CHARTNAME:;
#CHARTHASH:422816962;
#STEPSTYPE:dance-double;
#BANNER:;
#DESCRIPTION:;
#CHARTSTYLE:;
#DIFFICULTY:Medium;
#METER:6;
#METERF:0.000000;
#LASTSECONDHINT:92.996262;
#RADARVALUES:0.288690,0.307813,0.093750,0.083333,0.000000,194.000000,185.000000,9.000000,8.000000,0.000000,0.000000,0.000000,0.000000,0.000000,0.288690,0.307813,0.093750,0.083333,0.000000,194.000000,185.000000,9.000000,8.000000,0.000000,0.000000,0.000000,0.000000,0.000000;
#CREDIT:;
#DISPLAYBPM:127.000000;
#NOTES:
00000000
00000000
00000000
00000000
,
00000000
00000000
00000000
00000000
,
00000000
00000000
00000000
00000000
,
00000000
00000000
00000000
00000000
,
00000000
00000000
00000000
00000000
,
00000002
00000000
00000000
00000003
,
00002000
00000000
00000000
00003000
,
00000001
00000001
00000100
00000100
,
00001000
00000000
00010000
00000000
01000000
10000000
00010000
00000000
,
01100000
00010000
00100000
01000000
,
10010000
01000000
00100000
10000000
,
00010000
00100000
01000000
00000000
10000000
00000000
00100000
00000000
,
00010000
00001000
00000010
00000000
00000001
00000000
00001100
00000000
,
00000010
00000000
00000100
00000000
00000001
00001000
00000100
00000000
,
00000010
00000000
00000001
00000000
00001000
00000001
00000100
00000000
,
00000010
00001000
00000001
00000010
,
00001000
00000000
00010000
00000000
01000000
10000000
00010000
00000000
,
01000000
01000000
01000000
00000000
,
00010000
10000000
01000000
00000000
00100000
00010000
01000000
00000000
,
10010000
00000000
01000000
00000000
00100000
01000000
00100000
00000000
,
00000000
00000000
00000000
00000000
00000000
00010000
00001000
00000000
,
00000110
00000000
00000001
00000000
00001000
00000001
00000100
00000000
,
00000010
00001000
00000001
00000100
,
00000100
00000000
00000010
00000000
00001000
00000001
00001000
00000000
,
00001000
00010000
00100000
01000000
,
20000000
00010000
01000000
31000000
,
00020000
10000000
01000000
01030000
,
00100000
00010000
00000100
00000010
,
00000001
00000000
00000001
00000000
00001000
00000010
00000100
00000000
,
00002002
00000000
00000000
00003003
,
00000100
00000100
00000010
00001000
,
00022000
00000000
00000000
00033000
,
00100000
00000000
00100000
00000000
10000000
00010000
10000000
00000000
,
01100000
00010000
10000000
10000000
,
01000000
00000000
00010000
00000000
00001000
00010000
00001000
00000000
,
00000010
00000001
00000001
00001000
,
00001000
00000000
00000001
00000000
00000010
00000100
00000010
00000000
,
00000001
00001000
00000010
00000100
,
00000001
00000010
00001000
00000000
00001000
00010000
00100000
00000000
,
10000000
10000000
00010000
00010000
,
00100000
00000000
00100000
00000000
01000000
10000000
00010000
00000000
,
00000000
00000000
10010000
00000000
01000000
00100000
01000000
00000000
,
00010000
00100000
01000000
10000000
,
00010000
00000000
01000000
00000000
10000000
01000000
00010000
00000000
,
00001000
00001000
00000010
00000100
,
00000001
00001000
00000100
00000010
,
00000001
00000100
00001000
00010000
,
01000000
10000000
00100000
01000000
,
00010000
10000000
01000000
00000000
00010000
00001000
00000100
00000000
,
00000001
00001000
00000100
00000000
00000000
00000000
00000000
00000000
,
00000000
00000000
00000000
00000000
;

//---------------dance-double - ----------------
#NOTEDATA:;
#CHARTNAME:;
#CHARTHASH:2622669993;
#STEPSTYPE:dance-double;
#BANNER:;
#DESCRIPTION:;
#CHARTSTYLE:;
#DIFFICULTY:Hard;
#METER:12;
#METERF:12.000000;
#LASTSECONDHINT:92.878250;
#RADARVALUES:0.511905,0.486751,0.093750,0.177083,0.510417,344.000000,335.000000,9.000000,17.000000,0.000000,0.000000,0.000000,0.000000,0.000000,0.511905,0.486751,0.093750,0.177083,0.510417,344.000000,335.000000,9.000000,17.000000,0.000000,0.000000,0.000000,0.000000,0.000000;
#CREDIT:;
#DISPLAYBPM:127.000000;
#NOTES:
00000000
00000000
00000000
00000000
,
00000000
00000000
00000000
00000000
,
00000000
00000000
00000000
00000000
,
00000000
00000000
00000000
00000000
,
00000000
00000000
00000000
00000000
,
10000000
00000000
00010000
00000000
00100000
00000000
00000000
01000000
00000000
10000000
00000000
00010000
02000000
00000000
00000000
00000000
,
03001000
00000000
00010000
00000000
00001000
00000000
00000000
00010000
00000000
00000100
00000000
00010000
00002000
00000000
00000000
00000000
,
00003010
00000000
00000001
00000000
00001000
00000000
00000000
00000001
00000000
00000010
00000000
00000100
00001000
00000000
00000100
00000000
,
00000020
00000000
00000000
00000000
00000031
00000010
00000000
00000001
00000000
00000001
00000000
00001000
00000200
00000000
00000000
00000000
,
00010300
00000000
00001000
00000000
00010000
00000000
00000000
00001000
00000000
01000000
00000000
00100000
10000000
00000000
01000000
00000000
,
00100000
00000000
00010000
00000000
00100000
00000000
00000000
01000000
00000000
10000000
00000000
00010000
01000000
00000000
00100000
00000000
,
01000000
00000000
00001000
00000000
00010000
00000000
00000000
00001000
00000000
00010000
00000000
00001000
00010000
00000000
00000010
00000000
,
00000100
00000001
00000000
00000100
00000000
00000001
00001000
00000000
00000100
00000000
00010000
00000000
00001000
00000000
01000000
00000000
,
20020000
00000000
00000000
00000000
30030000
00000000
10000000
01000000
10000000
00000000
00010000
00100000
01000000
00000000
00000000
10000000
,
00000000
00010000
00100000
00000000
01000000
00000000
00100000
00000000
00010000
00000000
00010000
00000000
00010000
00000000
00000000
00000000
,
01000000
00000000
00001000
00000000
00010000
00000000
00000000
00000100
00000000
00010000
00000100
00000000
00001000
00000000
00000010
00000000
,
00000100
00000000
00001000
00000000
00010000
00000000
00000000
00000000
00000010
00000000
00001000
00000000
00000001
00000100
00000001
00000000
,
00001100
00000000
00000000
00000000
00001100
00000000
00000000
00000000
00020200
00000000
00000000
00000000
00030300
00000000
00000000
00010000
,
00001000
00000000
00001000
00100000
00000000
00000000
00000000
00010000
10000000
00000000
10000000
01000000
00000000
00000000
00000000
00000000
,
00100000
00000000
00010000
00000000
01000000
00000000
00000000
00000000
00001000
00000000
00000000
00010000
00000000
00000000
00000010
00000000
,
00001000
00000100
00000000
00001000
00000001
00001000
00000000
00000001
00000010
00000000
00000100
00000000
00001200
00000000
00000000
00000000
,
00010300
00000000
00000100
00001000
00000000
00000000
00000010
00000000
00000100
00000000
00000001
00000000
00000010
00000000
00000100
00000000
,
00001000
00000000
00000000
00000100
00000000
00010000
00001000
00000000
00010000
00000000
00001000
00000000
01000000
00000000
00100000
00000000
,
01000000
00000000
00010000
00100000
00000000
00000000
01000000
00000000
10000000
00000000
01000000
00000000
00100000
00000000
00010000
00000000
,
00100000
00000000
00100000
00000000
00001000
00000000
00000000
00000000
00001000
00000000
00001000
00000000
00010000
00000000
00000100
00010000
,
00000000
00000000
00000000
00001000
00000000
00010000
00000100
00000000
00001000
00000000
00001000
00000000
00001000
00000000
00000000
00000000
,
00000010
00000100
00000000
00000010
00000000
00000000
00001000
00000001
00000000
00000100
00000000
00000000
00000001
00000000
00000000
00000000
,
00000010
00000100
00000000
00001000
00000000
00000010
00000100
00000000
00000010
00000000
00010000
00000000
00001000
00000000
00010000
00000000
,
00001000
00100000
00000000
00010000
00000000
01000000
00010000
00000000
10000000
00000000
01000000
00000000
00100000
00000000
00000000
00000000
,
20010000
00000000
00010000
00000000
00100000
00100000
00100000
00000000
,
31000000
00000000
10000000
00010000
10000000
00100000
00000000
00000000
01000000
00010000
01000000
00001000
00000000
00000000
00001000
00000000
,
00021000
00000000
00000010
00000000
00000100
00000100
00000100
00000000
,
00031000
00000000
00010000
00000010
00001000
00000010
00000000
00000100
00000001
00000000
00000010
00000000
00000100
00000000
00001000
00000000
,
00000001
00001000
00000100
00020000
00000000
00031000
00100000
01000000
,
00100000
00010000
00100000
10000000
00100000
00010000
01000000
00200000
,
00000000
10300000
00100000
00010000
00100000
01000000
00010000
00100000
,
00010000
00000000
00000000
00100000
00000000
00001000
00000000
00010000
00000000
00000100
00010000
00000000
00000020
00000000
00000000
00000000
,
00000130
00000010
00001000
00000010
00000100
00000001
00000100
00001000
,
00000200
00000000
00000301
00000010
00000100
00001000
00000100
00020000
,
00000000
00031000
00010000
01000000
00010000
00001000
00100000
00010000
,
00100000
00000000
00000000
00010000
00000000
10000000
00000000
00100000
00000000
10000000
01000000
00100000
00020000
00000000
00000000
00000000
,
00130000
00000000
00100000
00000000
00010000
00000000
00000000
10000000
00000000
10000000
00000000
00010000
00100000
00000000
01000000
00000000
,
10000000
00000000
00000000
00010000
00000000
00100000
00000000
00010000
00000000
01000000
00010000
00000000
00100000
00000000
00001000
00000000
,
00010000
00000000
00010000
00000000
00000100
00000000
00000000
00001000
00000000
00001000
00000000
00000001
00000010
00000000
00000100
00000000
,
00001000
00000001
00000100
00000000
00000110
00000000
00001000
00000000
,
00000100
00000000
00000100
00000000
00010000
00000000
00000000
00010000
00000000
00010000
00000000
00001000
00010000
00000000
00001000
00100000
,
00001000
00000000
00000000
01000000
00000000
00010000
00000000
10000000
00000000
01000000
10000000
00000000
01000000
00000000
00100000
00000000
,
00010000
00000000
00010000
00000000
01000000
00000000
00000000
01000000
00000000
01000000
00000000
00010000
00100000
00000000
00001000
00100000
,
00001000
00000000
00000000
00010000
00001000
00000000
00010000
00000000
00000010
00000000
00000100
00000000
00000001
00000000
00000000
00000000
,
00001001
00000000
00000001
00001000
00000000
00000000
00000000
00000000
00000000
00000000
00000000
00000000
00000000
00000000
00000000
00000000
;

//---------------dance-double - ----------------
#NOTEDATA:;
#CHARTNAME:;
#CHARTHASH:3922236231;
#STEPSTYPE:dance-double;
#BANNER:;
#DESCRIPTION:;
#CHARTSTYLE:;
#DIFFICULTY:Challenge;
#METER:15;
#METERF:15.000000;
#LASTSECONDHINT:92.878250;
#RADARVALUES:0.623512,0.640462,0.145833,0.208333,0.864583,419.000000,405.000000,14.000000,20.000000,0.000000,0.000000,0.000000,0.000000,0.000000,0.623512,0.640462,0.145833,0.208333,0.864583,419.000000,405.000000,14.000000,20.000000,0.000000,0.000000,0.000000,0.000000,0.000000;
#CREDIT:;
#DISPLAYBPM:127.000000;
#NOTES:
00000000
00000000
00000000
00000000
,
00000000
00000000
00000000
00000000
,
00000000
00000000
00000000
00000000
,
00000000
00000000
00000000
00000000
,
00000000
00000000
00000000
00000000
,
10000000
00000000
00100000
00000000
01000000
00000000
00010000
00100000
00000000
00010000
00000000
00100000
00020000
00000000
00000000
00000000
,
01030000
00000000
00001000
00000000
00010000
00001000
00000000
00010000
00000000
00000010
00000000
00000100
00000002
00000000
00000000
00000000
,
00001003
00000100
00000000
00001000
00000010
00001000
00000000
00000001
00000000
00000100
00000000
00000010
00000100
00000000
00000010
00000000
,
00002000
00000000
00000000
00000000
00003100
00010000
00000000
00001000
00000000
00001000
00000000
00100000
00020000
00000000
00000000
00000000
,
10030000
00000000
00010000
00000000
00100000
00000000
01000000
00100000
00000000
00010000
00000000
00100000
00002000
00000000
00000000
00000000
,
00013000
00000000
00000100
00000000
00001000
00000010
00000000
00000100
00000000
00000001
00000000
00000010
00000001
00000000
00001000
00000001
,
00002000
00000000
00000000
00003100
00010000
00000100
00000000
00010000
00000000
00010000
00000000
00001000
01000000
00000000
00100000
00000000
,
01000000
00000000
00000000
00010000
01000000
00000000
00100000
00000000
10000000
01000000
10000000
01000000
10000000
00000000
00010000
00000000
,
20020000
00000000
00000000
00000000
30030000
00000000
00010000
01000000
00100000
01000000
00100000
01000000
00001000
00000000
00000000
00010000
,
00000000
00001000
00100000
00001000
00010000
00000000
00001000
00000000
00010000
00000000
00000010
00000000
00000100
00000000
00000000
00000000
,
00000011
00000000
00000001
00000000
00001000
00000000
00000000
00000100
00000000
00010000
00000100
00000000
00010000
00000000
00001000
00000000
,
01001000
00000000
00001000
00000000
00010000
00000000
00000000
00000000
00010100
00000000
00010000
00000000
00001000
00010000
00001000
00000000
,
00011000
00000000
00000000
00000000
00011000
00000000
00000000
00000000
02002000
00000000
00000000
00000000
03003000
00000000
01000000
00100000
,
10000000
00000000
00000000
00100000
01000000
00000000
00010000
01000000
00100000
00000000
00000000
01000000
00001000
00000000
00010000
00000100
,
00001100
00000000
00000000
00001000
00000001
00000000
00000010
00000000
00000100
00000000
00000000
00000010
00000000
00000000
00000001
00000000
,
00001000
00000100
00000000
00010000
00000100
00010000
00000000
00001000
00010000
00000000
00011000
00000000
02001000
00000000
00000000
00000000
,
03100000
00000000
10000000
00010000
00000000
00000000
00100000
00000000
01000000
10000000
01000000
10000000
01000000
00000000
00100000
00000000
,
00001000
00010000
00000000
00001000
00000000
00010000
00000100
00000000
00001000
00000000
00000001
00000000
00000010
00000000
00001000
00000000
,
00000010
00000000
00000000
00000001
00000000
00000100
00000001
00000000
00001000
00000000
00000100
00000000
00001000
00000000
00000010
00000000
,
00010000
00000000
00001000
00000000
00010000
00000000
00000100
00000000
00001000
00000000
00001000
00000000
00000100
00000000
00010000
00000100
,
00000000
00010000
00001000
00010000
00000000
00001000
01000000
00000000
00100000
00000000
10000000
00000000
10000000
00000000
00000000
00000000
,
00100000
01000000
00000000
00010000
00000000
10000000
01000000
10000000
00000000
00010000
00000000
00100000
00010000
00100000
00000000
00000000
,
00001000
00010000
00000000
00001000
00000000
00010000
00000100
00001000
00000100
00000000
00001000
00000000
00001000
00000000
00000000
00000000
,
00000001
00000010
00000000
00000001
00000000
00001000
00000100
00000000
00001000
00000010
00001000
00000000
00000102
00000000
00000000
00000000
,
00001003
00000000
00000100
00000000
00010000
00000000
00000000
00001000
00000000
01000000
00000000
00001000
00000000
00100000
00010000
00100000
,
00000000
00000000
00001000
00100000
00001000
00100000
00000000
00010000
10000000
01000000
10000000
01000000
00000000
00100000
00010000
01000000
,
00010000
00000000
00100000
00000000
00001000
00000000
00010000
00000100
00000000
00001000
00000000
00000001
00000000
00000010
00000100
00001000
,
00000100
00000000
00010000
00001000
00010000
00001000
00000000
00010000
00000100
00010000
00000100
00010000
00001000
00010000
00001000
00100000
,
00001000
00100000
00010000
10000000
01000000
00100000
01000000
10000000
,
00010000
00000000
00010000
00100000
00000000
00010000
00000000
00100000
00000000
00001000
00010000
00000010
00010000
00000000
00012000
00000000
,
00000000
00013000
00000100
00000010
00000100
00010000
00000010
00001000
,
00000010
00000000
00000100
00000001
00000000
00000010
00000000
00000001
00000000
00001000
00000100
00000010
00000002
00000000
00000000
00000000
,
00001003
00000100
00010000
00000100
00001000
01000000
00100000
00010000
,
01000000
00000000
00100000
10000000
00000000
00100000
01000000
00100000
00000000
10000000
01000000
00100000
00010000
00000000
02010000
00000000
,
00000000
03010000
01000000
00001000
00010000
00001000
00100000
00001000
,
00010000
00000000
00000010
00001000
00000000
00000010
00000000
00000100
00000000
00000001
00000010
00000100
00000020
00000000
00000000
00000000
,
00000031
00000100
00001000
00000100
00000001
00000100
00000010
00000200
00000000
00000000
00000000
00000000
00000300
00000001
00000100
00000010
,
00001000
00000000
00000100
00001000
00000000
00000100
00000000
00010000
00000000
00000100
00010000
00001000
00100000
00000000
00010000
00000000
,
10000000
01000000
00010000
01000000
10000000
01000000
00100000
00020000
00000000
00000000
00000000
00000000
00000000
10030000
00010000
00100000
,
01000000
00000000
10000000
01000000
00000000
00100000
00000000
00001000
00010000
00000000
00000000
00010000
00001000
00000000
00010000
00000000
,
00000010
00000000
00001000
00000100
00000010
00000100
00001000
00000002
00000000
00000000
00000000
00000000
00000000
00001003
00000100
00010000
,
00000100
00000000
00010000
00001000
00000000
00100000
00000000
01000000
00000000
10000000
01000000
00100000
01000000
00000000
10000000
00000000
,
00010000
00100000
01000000
00100000
00010000
00100000
01000000
20000000
00000000
00000000
00000000
00000000
00000000
30010000
00100000
01000000
,
10000000
00000000
10000000
01000000
00000000
00100000
00000000
00001000
00010000
00001000
00010000
00000000
00001000
00000000
00000010
00000000
,
00001001
00000000
00001000
00000001
00000000
00000000
00000000
00000000
00000000
00000000
00000000
00000000
00000000
00000000
00000000
00000000
;
