#VERSION:0.83;
#TITLE:First Resolution;
#SUBTITLE:;
#ARTIST:good-cool;
#TITLETRANSLIT:;
#SUBTITLETRANSLIT:;
#ARTISTTRANSLIT:;
#GENRE:;
#ORIGIN:;
#TAGS:;
#CREDIT:;
#BANNER:First Resolution.png;
#BACKGROUND:First Resolution-bg.png;
#PREVIEWVID:;
#JACKET:First Resolution-jacket.png;
#CDIMAGE:;
#DISCIMAGE:;
#LYRICSPATH:;
#CDTITLE:Beatmania IIDX.png;
#MUSIC:First Resolution.ogg;
#OFFSET:-1.770000;
#SAMPLESTART:16.137999;
#SAMPLELENGTH:15.000000;
#SELECTABLE:YES;
#BPMS:0.000000=150.000000
,132.000000=75.000000
,148.000000=150.000000
;
#STOPS:;
#DELAYS:;
#WARPS:;
#TIMESIGNATURES:0.000000=4=4
;
#TICKCOUNTS:0.000000=4
;
#COMBOS:0.000000=1
;
#SPEEDS:0.000000=1.000000=0.000000=0
;
#SCROLLS:0.000000=1.000000
;
#LABELS:0.000000=Song Start
;
#BGCHANGES:-8.500=First Resolution.mp4=1.000=1=0=0=StretchNoLoop==CrossFade==,
252.000=First Resolution-bg.png=1.000=0=0=1=====,
99999.000=-nosongbg-=1.000=0=0=0=StretchNoLoop====,
99999=-nosongbg-=1.000=0=0=0 // don't automatically add -songbackground-
;
#KEYSOUNDS:;
#ATTACKS:
;

//---------------dance-single - ----------------
#NOTEDATA:;
#CHARTNAME:;
#CHARTHASH:677914040;
#STEPSTYPE:dance-single;
#BANNER:;
#DESCRIPTION:;
#CHARTSTYLE:;
#DIFFICULTY:Easy;
#METER:6;
#METERF:6.000000;
#LASTSECONDHINT:108.970001;
#RADARVALUES:0.281997,0.452221,0.161507,0.152535,0.000000,220.000000,202.000000,18.000000,17.000000,0.000000,0.000000,0.000000,0.000000,0.000000,0.281997,0.452221,0.161507,0.152535,0.000000,220.000000,202.000000,18.000000,17.000000,0.000000,0.000000,0.000000,0.000000,0.000000;
#CREDIT:;
#NOTES:
0000
0000
0000
0000
,
1000
1000
1000
0101
,
0010
0000
0100
0000
,
0001
0001
0001
1010
,
0010
0100
0000
0100
,
0010
0010
0010
1001
,
0100
0000
0001
0010
,
0100
0100
0100
1010
,
1000
0010
0100
0001
,
1000
0000
1000
0000
,
0001
0001
0001
0000
,
1000
0000
1000
0000
,
0001
0001
0001
0000
,
0100
0000
0100
0000
,
0010
0010
0010
0000
,
0100
0000
0100
0000
,
0010
0010
0010
0010
,
0020
0030
1000
0010
,
0200
0300
0001
0001
,
0020
0030
0100
1000
,
0002
0003
1000
1000
,
0020
0030
0100
0001
,
2000
3000
0001
0001
,
0020
0030
0001
0100
,
0010
0010
1000
1000
,
0100
1100
0000
0001
,
0100
0001
1000
0010
,
0100
0101
0000
0001
,
1000
0100
0010
0001
,
1000
1001
0000
0010
,
0100
0010
1000
0010
,
0100
0101
0000
0001
,
0010
1000
0010
0001
,
2002
0000
0000
3003
,
0200
0300
0002
0003
,
2002
3003
1001
0110
,
1000
0001
0010
0100
1000
0001
0001
1000
,
2002
0000
0000
3003
,
0100
0100
0100
0000
,
0001
0010
0100
1000
,
0001
0001
0001
0000
,
1000
0100
0010
0001
,
1000
1000
1000
0000
,
0010
0100
0001
0010
,
0010
0001
0001
0100
,
0100
0001
0010
0100
,
1000
1000
1000
0000
,
0001
0001
0001
0000
,
1000
0100
0010
0001
,
0000
0001
0010
0100
,
1000
0000
0010
0000
,
0100
0100
0100
0001
,
0001
0010
0010
0100
,
0100
1000
0010
0100
,
0001
0000
1000
0010
,
1000
1001
0010
1001
,
0100
0001
0100
0000
,
0001
0010
0100
1000
,
0001
0000
0100
0001
,
0100
0110
0010
0110
,
1000
0001
1000
0010
,
0100
0000
0001
0000
0010
0000
0000
2002
,
0000
0000
0000
0000
,
3003
0000
0000
0000
;

//---------------dance-single - ----------------
#NOTEDATA:;
#CHARTNAME:;
#CHARTHASH:2249758017;
#STEPSTYPE:dance-single;
#BANNER:;
#DESCRIPTION:;
#CHARTSTYLE:;
#DIFFICULTY:Medium;
#METER:10;
#METERF:10.000000;
#LASTSECONDHINT:108.970001;
#RADARVALUES:0.453759,0.706595,0.323015,0.161507,0.089726,354.000000,318.000000,36.000000,18.000000,0.000000,0.000000,0.000000,0.000000,0.000000,0.453759,0.706595,0.323015,0.161507,0.089726,354.000000,318.000000,36.000000,18.000000,0.000000,0.000000,0.000000,0.000000,0.000000;
#CREDIT:;
#NOTES:
0000
0000
0000
0000
,
1000
0000
0001
0000
0000
0010
0000
0000
0100
0000
0000
0000
1001
0000
0000
0000
,
0100
0000
0010
0000
0100
0001
0100
0000
,
0001
0000
0000
1000
0000
0000
0010
0000
0000
0000
1000
0000
0100
0000
0000
0000
,
1000
0101
0001
1100
,
0010
0000
0100
0000
0000
1000
0000
0000
0100
0000
0000
0000
0011
0000
0000
0000
,
1000
0000
0001
0000
0100
0010
0100
0000
,
0010
0000
0000
1000
0000
0000
0001
0000
0000
0000
0100
0000
0001
0000
0000
0000
,
1100
0010
0101
0010
,
1000
0000
0001
0000
0000
0010
0000
0000
0001
0000
0000
0100
0000
0000
0001
0000
,
0000
0000
1000
0100
1000
0000
0001
0000
,
0100
0000
0000
0010
0000
0000
0100
0000
0000
0001
0000
0000
0010
0000
0100
0000
,
1000
0101
0010
1100
,
0001
0000
1000
0000
0000
0001
0000
0000
0100
0000
0000
0001
0000
0000
0010
0000
,
0000
0000
0001
0100
0001
0000
1000
0000
,
0010
0000
0000
1000
0000
0000
0010
0000
0000
0100
0000
0000
0001
0000
0010
0000
,
0100
1100
0010
1001
,
0100
0010
0100
0010
0000
0100
0001
0100
,
0001
0010
0100
1000
,
0001
1000
0001
1000
0000
0001
1000
0001
,
1000
0100
0010
0100
,
1000
0010
1000
0010
0000
1000
0010
1000
,
0010
0100
0001
0010
,
0001
1000
0100
1000
0000
0001
1000
0010
,
1000
0000
0000
0010
0000
0000
0100
0000
0000
0001
0000
0000
0010
0000
0100
0000
,
1000
0100
0001
0100
0000
1000
0010
0001
,
0010
0100
0010
1000
,
0001
1000
0010
0100
0000
0010
1000
0001
,
0101
1001
1100
1010
,
0010
1000
0100
0010
0000
0001
0010
0100
,
1000
0001
0010
0001
,
1000
0100
0010
0100
0000
1000
0100
0010
,
0001
0000
0100
0000
0010
1000
0010
1000
,
2002
0000
0000
3003
,
0200
0300
0020
0030
,
2002
0000
0000
0000
3003
0000
0000
0000
0220
0000
0330
0002
2000
0000
3003
1000
,
1001
0000
0011
0000
1001
0000
1100
0000
1000
0100
0010
0001
1000
1000
0001
0100
,
0220
0000
0000
0330
,
1000
0000
0001
0000
0010
0001
0010
0001
,
0000
0010
0100
0000
1000
1000
1000
0000
,
0001
0100
1000
0100
,
0001
0000
1000
0000
0010
0010
0010
0000
,
0100
0001
0100
0000
0011
0000
1001
0000
,
0100
1000
0100
1000
0000
0010
0100
0001
,
0010
0011
0001
1001
,
1000
0100
0010
0000
0001
0010
0100
1000
,
0001
0000
0100
0000
0010
0000
1000
0100
,
0000
1000
0001
0010
0000
0001
0100
0000
,
0010
1000
0100
0010
,
0100
0000
1000
0000
0001
0001
0001
0000
,
1000
0110
0001
0110
,
1000
0100
1000
0010
0000
0100
0001
0010
,
0100
1100
1000
1001
,
0001
0010
0001
1000
0100
1000
0010
0100
,
0020
0000
1000
1000
0000
1000
1030
0000
,
0100
1001
0010
1001
,
0002
0000
0010
0010
0000
0010
0013
0000
,
0001
0000
0110
0000
1000
0010
1000
0001
,
0200
0000
0001
0001
0000
0001
0301
0000
,
0010
1001
0100
1001
,
0200
0000
1000
1000
0000
1000
1300
0000
,
0100
1000
0010
0100
0001
1000
0001
2002
,
0000
0000
0000
0000
,
3003
0000
0000
0000
;

//---------------dance-single - ----------------
#NOTEDATA:;
#CHARTNAME:;
#CHARTHASH:3377360964;
#STEPSTYPE:dance-single;
#BANNER:;
#DESCRIPTION:;
#CHARTSTYLE:;
#DIFFICULTY:Hard;
#METER:13;
#METERF:13.000000;
#LASTSECONDHINT:108.970001;
#RADARVALUES:0.590912,1.017497,0.260206,0.278152,0.399282,461.000000,432.000000,29.000000,31.000000,0.000000,0.000000,0.000000,0.000000,0.000000,0.590912,1.017497,0.260206,0.278152,0.399282,461.000000,432.000000,29.000000,31.000000,0.000000,0.000000,0.000000,0.000000,0.000000;
#CREDIT:;
#NOTES:
0000
0000
0000
0000
,
1000
0000
0010
0000
0000
0010
0000
0000
1001
0000
0000
0000
0100
0000
0000
0000
,
0001
0100
1000
0100
0001
1000
0100
0000
,
0010
0000
0000
0001
0000
0000
0110
0000
0000
0100
0000
0000
1000
0000
0100
0000
,
0010
0001
0000
0000
1001
0000
0000
0000
0100
1000
0000
0000
1001
0000
0000
0000
,
0001
0000
0010
0000
0000
0010
0000
0000
1001
0000
0000
0000
0010
0000
0000
0000
,
1000
0010
0001
0010
1000
0100
0010
0000
,
0100
0000
0000
1000
0000
0000
1001
0000
0000
0001
0000
0000
0010
0000
0100
0000
,
1000
0000
0001
0000
0010
0000
0100
0000
0010
0000
0000
0001
1000
0001
1000
0000
,
0010
0000
0100
0000
0000
0001
0000
0000
1000
0000
0000
0100
0000
0000
1000
0000
,
0000
0000
0001
0000
0010
0000
0100
0000
1000
0000
0001
0100
0000
0000
0010
0000
,
1000
0000
0000
0010
0000
0000
0100
0000
0000
0001
0000
0000
0010
0000
0001
0000
,
1000
0100
1100
0000
0001
0100
0101
0000
,
0010
0000
0100
0000
0000
0010
0000
0000
1000
0000
0000
0100
0000
0000
0010
0000
,
0001
0000
1000
0100
0000
0000
0010
0000
0001
0000
0010
0000
1000
0000
0010
0000
,
0001
0000
0000
1000
0000
0000
0001
0000
0000
0100
0000
0000
0010
0000
1000
0000
,
0001
1000
0000
0001
1000
0000
0001
1000
0000
0001
1000
0000
0001
1000
0000
0001
,
2000
0000
0010
0000
0000
0010
0000
0000
0000
0000
0010
0000
0000
0010
0000
0000
,
3010
0000
0000
1000
0000
0001
0100
0000
1000
0000
0100
0000
0010
0000
1000
0000
,
0002
0000
0100
0000
0000
0100
0000
0000
0000
0000
0100
0000
0000
0100
0000
0000
,
0103
0000
0001
1000
0000
0000
0100
0000
0000
1000
0000
0000
0010
0000
0100
0000
,
0002
0000
0010
0000
0000
0010
0000
0000
0000
0000
0010
0000
0000
0010
0000
0000
,
1003
0000
0000
1000
0000
0100
0010
0000
0001
0000
0100
0000
1000
0000
0100
0000
,
0020
0000
1000
0000
0000
1000
0000
0000
0000
0000
1000
0000
0000
1000
0000
0000
,
0130
0000
0010
1000
0000
0000
0100
0000
0000
0010
0000
0001
1000
0000
0010
0000
,
0100
0010
0100
0020
0000
1030
0100
1000
,
0001
0000
0010
0002
0000
0000
1000
0000
1003
0000
0100
0000
0001
0000
0100
0000
,
1000
0001
1000
0002
0000
0013
0001
0010
,
0011
1100
0110
1001
,
0100
1000
0100
2000
0000
3001
0010
0001
,
0100
0000
0010
0200
0000
0000
0301
0000
1000
0000
0010
0000
0001
0000
0010
0000
,
1000
0010
1000
0020
0000
0130
0001
1000
,
0100
0000
0000
1000
0000
0000
0010
0000
0000
0100
0000
0001
1000
0000
0010
0000
,
0220
0000
0000
0000
0000
0000
0000
0300
,
2000
0030
0002
3000
0200
0003
0310
1000
,
1200
0000
0000
0000
1300
0010
0000
0000
1000
0000
0001
0000
0100
0000
0000
0000
0102
0000
0000
0000
0013
0001
0000
0000
2001
0000
0000
0000
3100
1000
0000
0000
,
1001
0000
0000
0000
0011
0000
0000
0000
0110
0000
0000
0000
1100
0000
0000
0000
1000
0000
0100
0000
0010
0000
0001
0000
1000
0001
1000
0001
1000
0001
1000
0002
,
2000
0000
0000
0000
0000
0000
0000
3003
,
1000
0100
1000
0001
0010
0100
0100
0100
,
0000
0000
1000
0000
0100
0000
0010
0000
0001
0000
0001
0000
0001
0000
0000
1000
,
0100
0010
0001
0010
0100
0010
0010
0010
,
0000
0000
0001
1000
0000
0000
0100
0000
1000
0000
1000
0000
1000
0000
0000
0000
,
0001
0000
0010
0000
0100
0000
1000
0000
0001
0000
0000
1000
0010
0000
0000
0000
,
0100
0100
0100
0100
0000
0001
1000
0010
,
0210
1300
0120
0031
,
1000
0001
0000
1000
0001
0000
1000
0001
0000
1000
0100
1000
0100
1000
0100
1000
,
0100
1000
0100
0010
0100
1000
1000
1000
,
0000
0001
0010
0100
1000
0001
0000
0100
,
0001
0010
1000
0010
0001
0100
0010
1000
,
1000
0000
1000
0000
0000
0000
0001
0000
0011
0000
0000
1000
0001
0000
0000
0000
,
0100
0010
1000
0100
0000
1000
0001
0010
,
0100
0100
0100
0100
0000
1000
0100
0010
,
0021
1030
1200
0301
,
1000
0000
0001
0000
0010
0000
0100
0000
1000
0001
1000
0001
1000
0001
1000
0001
,
1000
0001
0010
0100
1000
0010
0100
0100
,
0000
0000
1000
0000
1002
0000
0000
0000
0013
0100
0000
0000
2001
0000
0000
0000
,
3010
0100
0001
1000
0100
0010
0001
0001
,
1000
0100
0000
1000
0200
0000
0000
0000
1300
0001
1000
0001
1000
0001
1000
0001
,
1000
0001
0010
0100
1000
0010
0100
0100
,
0000
0000
0001
0000
0012
0000
0000
0000
1003
0100
0000
0000
2100
0000
0000
0000
,
3001
1000
0010
0001
0010
1000
0010
0010
,
1000
0001
0000
1000
0001
0000
1000
0001
0000
1000
0001
1000
0001
2000
0002
0000
,
0000
0000
0000
0000
,
3003
0000
0000
0000
;

//---------------dance-single - ----------------
#NOTEDATA:;
#CHARTNAME:;
#CHARTHASH:470640808;
#STEPSTYPE:dance-single;
#BANNER:;
#DESCRIPTION:;
#CHARTSTYLE:;
#DIFFICULTY:Beginner;
#METER:3;
#METERF:3.000000;
#LASTSECONDHINT:1.770000;
#RADARVALUES:0.138435,0.197847,0.026918,0.017945,0.000000,108.000000,105.000000,3.000000,2.000000,0.000000,0.000000,0.000000,0.000000,0.000000,0.138435,0.197847,0.026918,0.017945,0.000000,108.000000,105.000000,3.000000,2.000000,0.000000,0.000000,0.000000,0.000000,0.000000;
#CREDIT:;
#NOTES:
// measure 0
0000
0000
0000
0000
,  // measure 1
1000
0000
0000
0000
,  // measure 2
0001
0000
0001
0000
,  // measure 3
1000
0000
0000
0000
,  // measure 4
0000
0010
0000
0010
,  // measure 5
0100
0000
0100
0000
,  // measure 6
0001
0000
0000
0000
,  // measure 7
1000
0000
1000
0000
,  // measure 8
0001
0000
0000
0000
,  // measure 9
0001
0001
0001
0000
,  // measure 10
1000
0000
0000
0000
,  // measure 11
0001
0001
0001
0000
,  // measure 12
0000
0100
0000
0100
,  // measure 13
0010
0010
0010
0000
,  // measure 14
1000
0000
0000
0000
,  // measure 15
0010
0010
0010
0000
,  // measure 16
1000
0000
0001
0000
,  // measure 17
1000
0000
1000
0000
,  // measure 18
1000
0000
0000
0000
,  // measure 19
0001
0000
0001
0000
,  // measure 20
0001
0000
0000
0000
,  // measure 21
0100
0000
0100
0000
,  // measure 22
0100
0000
0000
0000
,  // measure 23
0010
0000
0010
0000
,  // measure 24
0010
0000
0000
0000
,  // measure 25
1000
0000
0000
1000
,  // measure 26
1000
0000
0010
0000
,  // measure 27
0100
0000
0000
0100
,  // measure 28
0100
0001
0010
0100
,  // measure 29
1000
0000
0000
1000
,  // measure 30
1000
0000
0001
0000
,  // measure 31
0100
0000
0000
0001
,  // measure 32
0001
0000
1000
0000
,  // measure 33
1001
0000
0000
0000
,  // measure 34
0010
0000
0000
0000
,  // measure 35
0100
0000
0000
0000
,  // measure 36
0010
0000
1000
0001
,  // measure 37
1001
0000
0000
0000
,  // measure 38
0100
0000
0000
0000
,  // measure 39
0010
0000
0000
0000
,  // measure 40
1000
1000
1000
1000
,  // measure 41
1000
0000
0001
0000
,  // measure 42
0100
0000
0000
0000
,  // measure 43
0001
0000
0000
0000
,  // measure 44
0010
0000
0000
0000
,  // measure 45
0100
0000
0000
0000
,  // measure 46
1000
0000
0000
0000
,  // measure 47
0001
0000
0000
0000
,  // measure 48
1000
1000
1000
1000
,  // measure 49
1000
0000
0010
0000
,  // measure 50
0100
0000
0000
0000
,  // measure 51
0001
0000
0000
0000
,  // measure 52
1000
0000
0000
0000
,  // measure 53
0010
0000
0000
0000
,  // measure 54
0100
0000
0000
0000
,  // measure 55
0000
0010
0000
0010
,  // measure 56
0100
0000
0000
0000
,  // measure 57
0001
1000
0000
1000
,  // measure 58
0001
0000
0000
0000
,  // measure 59
0000
1000
0000
1000
,  // measure 60
0001
0000
0010
0000
,  // measure 61
0100
0000
0000
0000
0000
0000
0000
2002
,  // measure 62
0000
0000
0000
0000
,  // measure 63
3003
0000
0000
0000
;
