#TITLE:FRESH;
#SUBTITLE:;
#ARTIST:DEVO;
#TITLETRANSLIT:;
#SUBTITLETRANSLIT:;
#ARTISTTRANSLIT:;
#GENRE:;
#CREDIT:;
#BANNER:Fresh.png;
#BACKGROUND:Fresh-bg.png;
#LYRICSPATH:;
#CDTITLE:cdtitle.png;
#MUSIC:Fresh.ogg;
#OFFSET:-0.004000;
#SAMPLESTART:51.281193;
#SAMPLELENGTH:15.000000;
#SELECTABLE:YES;
#BPMS:0.000000=153.009995
;
#STOPS:
;
#BGCHANGES:8.000=rain3.mp4=0.500=1=0=1===CrossFade==,
28.000=bunny1.mp4=1.100=0=0=1=====,
34.000=dog2.mp4=1.400=0=0=1=====,
35.000=dog2.mp4=0.001=0=0=1=====,
36.000=piston1.mp4=1.800=0=0=1=====,
44.000=bunny2.mp4=1.400=0=0=1=====,
50.000=dog2.mp4=1.400=0=1=1=StretchRewind====,
51.000=dog2.mp4=0.001=0=0=1=====,
52.000=star1.mp4=1.800=0=0=1=====,
60.000=clouds1.mp4=1.600=0=0=1=====,
66.000=dog2.mp4=2.000=0=1=1=StretchRewind====,
67.000=dog2.mp4=0.001=0=0=1=====,
68.000=highway1.mp4=1.200=0=0=1=====,
74.000=dog2.mp4=2.000=0=1=1=StretchRewind====,
75.000=dog2.mp4=0.001=0=0=1=====,
76.000=highway2.mp4=1.200=0=0=1=====,
82.000=dog2.mp4=2.000=0=1=1=StretchRewind====,
83.000=dog2.mp4=0.001=0=0=1=====,
84.000=candy2.mp4=1.400=0=0=1=====,
90.000=dog2.mp4=2.000=0=1=1=StretchRewind====,
91.000=dog2.mp4=0.001=0=0=1=====,
92.000=text17.mp4=1.600=0=0=1=====,
100.000=piranha1.mp4=1.400=0=0=1=====,
108.000=piston1.mp4=1.800=0=1=1=StretchRewind====,
116.000=clouds1.mp4=1.600=0=1=1=StretchRewind====,
121.500=vial1.mp4=1.600=0=0=1=====,
124.000=candy2.mp4=1.400=0=1=1=StretchRewind====,
128.000=star1r.mp4=1.600=0=0=1=====,
132.000=dog3.mp4=1.000=0=0=1=====,
136.000=highway1.mp4=1.200=0=1=1=StretchRewind====,
140.000=dog3.mp4=1.000=0=1=1=StretchRewind====,
144.000=highway2.mp4=1.200=0=1=1=StretchRewind====,
148.000=dog3.mp4=1.000=0=1=1=StretchRewind====,
151.500=dance12.mp4=1.800=0=0=1=====,
156.000=dog3.mp4=1.000=0=1=1=StretchRewind====,
160.000=sun1.mp4=1.800=0=0=1=====,
164.000=text17.mp4=1.600=0=1=1=StretchRewind====,
172.000=piranha1.mp4=1.400=0=1=1=StretchRewind====,
180.000=bunny1.mp4=0.850=0=1=1=StretchRewind====,
188.000=bunny2.mp4=1.400=0=1=1=StretchRewind====,
196.000=piston1.mp4=1.800=0=1=1=StretchRewind====,
204.000=star1.mp4=2.000=0=1=1=StretchRewind====,
212.000=dog3.mp4=1.000=0=1=1=StretchRewind====,
220.000=sun1.mp4=1.800=0=0=1=====,
228.000=dog3.mp4=1.000=0=1=1=StretchRewind====,
235.000=dog3.mp4=0.001=0=0=1=====,
236.000=Fresh-bg.png=1.000=0=0=1=====,
99999.000=-nosongbg-=1.000=0=0=0=StretchNoLoop====,
99999=-nosongbg-=1.000=0=0=0 // don't automatically add -songbackground-
;
#KEYSOUNDS:;
#ATTACKS:;

//---------------dance-single - ----------------
#NOTES:
     dance-single:
     :
     Beginner:
     2:
     0.122449,0.215833,0.076190,0.019048,0.000000,90.000000,82.000000,8.000000,2.000000,0.000000,0.000000,0.122449,0.215833,0.076190,0.019048,0.000000,90.000000,82.000000,8.000000,2.000000,0.000000,0.000000:
0000
0000
0000
0000
,
0000
0000
0000
0000
,
0000
0000
0000
0000
,
0000
0000
0000
0000
,
0000
0000
0000
0000
,
0000
0000
0000
0000
,
0000
0000
0000
0000
,
1000
0000
1000
0000
,
1000
0000
1000
0000
,
0001
0000
0001
0000
,
0001
0000
0001
0000
,
0100
0000
0100
0000
,
0100
0000
0100
0000
,
0010
0000
0010
0000
,
0010
0000
0010
0000
,
1000
0000
0000
0000
,
0000
0000
0001
0001
,
0001
0000
0000
0000
,
0000
0000
1000
1000
,
1000
0000
0000
0000
,
0000
0000
0010
0010
,
0010
0000
0000
0000
,
0000
0000
0100
0100
,
0100
0000
0010
0000
,
1000
0000
0001
0000
,
1000
0000
0000
0000
,
0001
0000
0000
0000
,
1001
0000
0000
0000
,
0000
0000
0000
0000
,
0100
0000
0010
0000
,
1000
0000
0100
0000
,
0010
0000
0001
0000
,
1000
0000
0001
0000
,
1001
0000
0000
0000
,
0010
0010
0010
0000
,
1001
0000
0000
0000
,
0100
0100
0100
0000
,
1001
0000
0000
0000
,
0010
0010
0010
0000
,
1001
0000
0000
0000
,
0100
0100
0100
0000
,
0010
0000
0000
0000
,
1000
0000
0000
0000
,
0001
0000
0000
0000
,
1000
0000
0000
0000
,
0100
0000
0000
0000
,
0010
0000
0000
0000
,
0001
0000
0000
0000
,
0010
0000
0000
0000
,
0100
0000
0100
0000
,
1000
0000
1000
0000
,
1001
0000
0000
0000
,
0000
0000
0000
0000
,
0001
0000
0001
0000
,
0100
0000
0100
0000
,
0110
0000
0000
0000
,
0000
0000
0000
0000
,
0010
0000
0010
0000
,
1000
0000
1000
0000
,
2002
0000
0000
0000
,
0000
0000
0000
0000
,
0000
0000
0000
0000
,
0000
0000
0000
0000
,
0000
0000
0000
0000
,
0000
0000
0000
3003
;

//---------------dance-single - ----------------
#NOTES:
     dance-single:
     :
     Easy:
     5:
     0.217687,0.370000,0.142857,0.161905,0.000000,160.000000,145.000000,15.000000,17.000000,0.000000,0.000000,0.217687,0.370000,0.142857,0.161905,0.000000,160.000000,145.000000,15.000000,17.000000,0.000000,0.000000:
0000
0000
0000
0000
,
0000
0000
0000
0000
,
0000
0000
0000
0000
,
0000
0000
0000
0000
,
0000
0000
0000
0000
,
0000
0000
0000
0000
,
0000
0000
0000
0000
,
1000
0010
1000
0000
,
0001
0100
0001
1001
,
0100
0010
0100
0000
,
0001
0000
1000
0000
,
0010
0100
0010
0000
,
1000
0001
1000
1001
,
0010
0100
0010
0000
,
1000
0000
0100
0000
,
0010
0000
0001
0000
,
0100
0000
0010
1000
,
0001
0000
0100
0000
,
0010
0000
1000
0100
,
0010
0000
0001
0000
,
0010
0000
0100
1000
,
0001
0000
0100
0000
,
0010
0000
1000
0010
,
0100
0001
0010
0100
,
1000
0010
0100
1001
,
0010
0100
0010
1000
,
0100
0010
0100
1000
,
0202
0000
0000
0303
,
0001
0001
1000
0000
,
0100
0010
0100
1000
,
0100
0001
0100
1000
,
0001
0100
0001
1000
,
0110
1001
0100
0010
,
1001
0000
0010
0000
,
0010
0010
0100
0100
,
1001
0000
0100
0000
,
0010
0010
0100
0100
,
1010
0000
0100
0000
,
0010
0010
0100
0100
,
0011
0000
0100
0000
,
0001
1000
0010
0100
,
0002
0000
1003
1000
,
0020
0000
0130
0100
,
0002
1000
1003
0000
,
0200
0010
0310
0000
,
0002
0000
1003
1100
,
0020
0000
0130
0101
,
2000
0000
0001
0000
,
3010
0010
1000
1000
,
0001
0000
0001
0000
,
1000
0000
1000
0000
,
0220
0000
0000
0000
,
0000
0000
0000
0330
,
1000
0000
1000
0000
,
0001
0000
0001
0000
,
2002
0000
0000
0000
,
0000
0000
0000
3003
,
2000
0000
3010
0100
,
0002
0000
1003
0001
,
2002
0000
0000
0000
,
0000
0000
0000
0000
,
0000
0000
0000
0000
,
0000
0000
0000
0000
,
0000
0000
0000
0000
,
0000
0000
0000
3003
;

//---------------dance-single - ----------------
#NOTES:
     dance-single:
     :
     Medium:
     7:
     0.321088,0.431667,0.200000,0.076190,0.000000,236.000000,215.000000,21.000000,8.000000,0.000000,0.000000,0.321088,0.431667,0.200000,0.076190,0.000000,236.000000,215.000000,21.000000,8.000000,0.000000,0.000000:
0000
0000
0000
0000
,
0000
0000
0000
0000
,
0000
0000
0000
0000
,
0000
0000
0000
0000
,
0000
0000
0000
0000
,
0000
0000
0000
0000
,
0000
0000
0000
0000
,
1000
1000
0000
0000
0001
0001
0000
0000
,
1000
1000
0000
0000
0001
1000
0001
0000
,
0100
0100
0000
0000
0010
0010
0000
0000
,
1000
1000
0000
0000
0001
0001
0000
0000
,
1000
1000
0000
0000
0100
0100
0000
0000
,
0010
0010
0000
0000
0001
1000
0001
0000
,
0100
0100
0000
0000
0001
0001
0000
0000
,
0010
0010
0000
0000
0100
0100
0000
0000
,
1000
0100
0001
0100
,
1000
0000
0010
0000
0100
0001
0000
0000
,
0001
0010
0100
1000
,
0100
0000
0010
0000
0100
1000
0000
0000
,
1000
0000
0001
0100
0001
0000
0010
0000
,
0001
0000
1000
0000
0010
0100
0000
0000
,
0010
0000
1000
0100
1000
0000
0010
0000
,
0100
0000
0001
0000
1000
0001
1001
0000
,
0010
0010
0100
0100
,
0001
0000
0010
0000
0100
1000
0100
0000
,
0010
0001
1000
0010
,
1000
1000
0001
0100
,
2002
0000
0000
3003
,
0100
0100
0100
0010
,
1000
0100
0010
0001
,
0010
0000
0100
0000
1000
0001
1000
0000
,
0010
0100
0001
1000
,
0010
0000
0110
0000
1000
0001
1000
0001
,
0100
0000
0000
0010
1000
0000
0000
0001
,
0100
0010
1000
0100
,
1001
0000
0000
0100
0010
0000
0000
1000
,
0001
0010
0001
0100
,
0110
0000
0000
0001
1000
0000
0000
0010
,
0100
0010
1000
0100
,
1001
0000
0000
0001
0100
0000
0000
0010
,
1000
0000
0010
0000
0100
0001
0100
0000
,
0001
0000
1000
0100
1000
0000
0110
0000
,
0001
0000
0100
0010
0100
0000
1001
0000
,
0010
0000
1000
0001
1000
0000
0101
0000
,
0001
0010
0001
0000
1000
0001
1000
0000
,
0010
0000
1000
0100
1000
0100
0010
0000
,
0001
0000
0100
0001
0100
0001
1000
0000
,
0010
0000
0100
0010
0100
0010
1000
0010
,
1000
0000
0010
0000
0100
0001
0100
0000
,
0001
0011
1000
1010
,
0010
0110
1000
1001
,
0220
0000
0000
0000
,
0000
0000
0000
0330
,
1000
1010
0100
0101
,
0010
0011
0100
0110
,
2002
0000
0000
0000
,
0000
0000
0000
3003
,
1000
0000
0000
0001
0010
0000
0100
0000
,
1000
0000
0000
0100
0010
0000
0110
0000
,
2002
0000
0000
0000
,
0000
0000
0000
0000
,
0000
0000
0000
0000
,
0000
0000
0000
0000
,
0000
0000
0000
0000
,
0000
0000
0000
3003
;

//---------------dance-single - ----------------
#NOTES:
     dance-single:
     :
     Hard:
     12:
     0.508844,0.585833,0.228571,0.152381,0.052381,374.000000,350.000000,24.000000,16.000000,0.000000,0.000000,0.508844,0.585833,0.228571,0.152381,0.052381,374.000000,350.000000,24.000000,16.000000,0.000000,0.000000:
// measure 0
0000
0000
0000
0000
,  // measure 1
0000
0000
0000
0000
,  // measure 2
0000
0000
0000
0000
,  // measure 3
0000
0000
0000
0000
,  // measure 4
0000
0000
0000
0000
,  // measure 5
0000
0000
0000
0000
,  // measure 6
0000
0000
0000
0000
,  // measure 7
1000
0000
0010
0000
1000
0000
0000
0000
0001
0000
0100
0000
0001
0000
0000
1000
,  // measure 8
0001
1000
0001
0000
0100
0010
0110
0000
,  // measure 9
0001
0000
1000
0000
0001
0000
0000
0000
0100
0000
0010
0000
0100
0000
0000
0001
,  // measure 10
1000
0100
1000
0000
0100
0010
0001
0010
,  // measure 11
0100
0000
1000
0000
0100
0000
0000
0000
1000
0000
0001
0000
1000
0000
0000
0010
,  // measure 12
0100
0001
0100
0000
0001
1000
1001
0000
,  // measure 13
1000
0000
0100
0000
1000
0000
0000
0000
0010
0000
0100
0000
0010
0000
0000
1000
,  // measure 14
0001
0010
0001
0000
1000
0100
0010
0001
,  // measure 15
0100
1000
0100
0001
0100
0010
1000
0010
,  // measure 16
0001
0010
0100
0000
0002
2000
0000
3003
,  // measure 17
1000
0100
0100
0100
1000
0010
0100
0001
,  // measure 18
0010
0100
1000
0000
0002
0200
0000
0303
,  // measure 19
0010
0100
0100
0100
0010
1000
1000
1000
,  // measure 20
0100
0010
0001
0000
2000
0200
0000
3300
,  // measure 21
0001
0001
0001
0001
1000
0010
0100
0001
,  // measure 22
0010
0100
1000
0000
0010
0100
1001
0000
,  // measure 23
0001
1000
0100
0001
0100
1000
0010
0010
,  // measure 24
0100
0001
0001
0010
0100
1000
1001
0000
,  // measure 25
0100
0100
0010
1000
0100
0000
1001
0000
,  // measure 26
0010
0001
0001
0010
0100
1000
1000
1000
,  // measure 27
0202
0000
0000
0303
,  // measure 28
0001
0000
1000
0000
0100
0010
1001
0000
,  // measure 29
0100
0001
0100
1000
0100
0010
0100
0100
,  // measure 30
0001
1000
0100
0010
0100
0100
1000
1000
,  // measure 31
0001
0100
0010
1000
1000
0100
0010
0010
,  // measure 32
1001
0000
0110
0000
0001
0001
1000
1000
,  // measure 33
0110
0000
0000
0001
1000
0000
0000
0000
0100
0000
0100
0000
0100
0000
0000
0000
,  // measure 34
1000
0100
0010
0001
0100
0010
1000
0000
,  // measure 35
0101
0000
0000
0001
1000
0000
0000
0000
0010
0000
0010
0000
0010
0000
0000
0000
,  // measure 36
0100
0001
1000
0100
0010
0100
1000
0000
,  // measure 37
0110
0000
0000
1000
0001
0000
0000
0000
0100
0000
0100
0000
0100
0000
0001
0000
,  // measure 38
0000
1000
0100
0010
0100
0010
0001
0000
,  // measure 39
1100
0000
0000
0001
1000
0000
0000
0000
0010
0000
0010
0000
0010
0000
0100
0000
,  // measure 40
0001
0000
1000
0000
0100
0000
0010
0000
0001
1000
0001
0000
0010
0000
0100
0010
,  // measure 41
0200
0000
1300
0100
0001
0100
1000
0000
,  // measure 42
0012
0000
1003
0010
0001
0010
1000
0000
,  // measure 43
0210
0000
0301
0100
1000
0100
0100
0001
,  // measure 44
1000
0010
0100
0001
0010
0100
2000
0000
,  // measure 45
3010
0010
0010
0010
0010
0010
0020
0000
,  // measure 46
0130
0100
0100
0100
0100
0100
0200
0000
,  // measure 47
0301
0001
0010
0010
0100
0100
1000
1000
,  // measure 48
0100
0000
0010
0000
0001
0000
1000
0000
0010
0000
0100
0000
0001
0000
1000
0001
,  // measure 49
1000
0110
0001
0110
,  // measure 50
1000
0100
0010
0001
1000
0000
1001
0000
,  // measure 51
0100
0100
0100
0100
0100
0100
0100
0100
,  // measure 52
0100
0100
0100
0100
0100
0100
0100
0000
,  // measure 53
1001
0000
0010
0000
1001
0000
0100
0010
,  // measure 54
0001
0010
0100
1000
0001
0100
0000
0000
,  // measure 55
0010
0010
0010
0010
0010
0010
0010
0010
,  // measure 56
0010
0010
0010
0010
0010
0010
0010
0000
,  // measure 57
1001
0000
1000
0100
0010
0100
1000
0001
,  // measure 58
0101
0000
0001
0010
0100
1000
0110
0000
,  // measure 59
2002
0000
0000
0000
,  // measure 60
0000
0000
0000
0000
,  // measure 61
0000
0000
0000
0000
,  // measure 62
0000
0000
0000
0000
,  // measure 63
0000
0000
0000
0000
,  // measure 64
0000
0000
0000
3003
;
