#VERSION:0.83;
#TITLE:FORTRESS EUROPE;
#SUBTITLE:;
#ARTIST:ASIAN DUB FOUNDATION;
#TITLETRANSLIT:;
#SUBTITLETRANSLIT:;
#ARTISTTRANSLIT:;
#GENRE:ASIAN UNDERGROUND;
#ORIGIN:;
#TAGS:;
#CREDIT:YonabearCWY;
#BANNER:FORTRESS EUROPE.png;
#BACKGROUND:FORTRESS EUROPE-bg.png;
#PREVIEWVID:;
#JACKET:FORTRESS EUROPE-jacket.png;
#CDIMAGE:;
#DISCIMAGE:;
#LYRICSPATH:;
#CDTITLE:Zip Mania DX.png;
#MUSIC:FORTRESS EUROPE.ogg;
#OFFSET:-0.090000;
#SAMPLESTART:59.296642;
#SAMPLELENGTH:15.000000;
#SELECTABLE:YES;
#BPMS:0.000000=145.899994
;
#STOPS:;
#DELAYS:;
#WARPS:;
#TIMESIGNATURES:0.000000=4=4
;
#TICKCOUNTS:0.000000=4
;
#COMBOS:0.000000=1
;
#SPEEDS:0.000000=1.000000=0.000000=0
;
#SCROLLS:0.000000=1.000000
;
#LABELS:0.000000=Song Start
;
#BGCHANGES:8.000=FORTRESS EUROPE.mp4=1.000=1=0=0=StretchNoLoop==CrossFade==,
228.000=FORTRESS EUROPE-bg.png=1.000=0=0=1=====,
99999=-nosongbg-=1.000=0=0=0 // don't automatically add -songbackground-
;
#KEYSOUNDS:;
#ATTACKS:
;

//---------------dance-single - ----------------
#NOTEDATA:;
#CHARTNAME:BEGINNER;
#CHARTHASH:2147483647;
#STEPSTYPE:dance-single;
#BANNER:;
#DESCRIPTION:;
#CHARTSTYLE:;
#DIFFICULTY:Beginner;
#METER:2;
#METERF:2.000000;
#LASTSECONDHINT:92.207886;
#RADARVALUES:0.119572,0.175771,0.031388,0.000000,0.000000,80.000000,77.000000,3.000000,0.000000,0.000000,0.000000,0.000000,0.000000,0.000000,0.119572,0.175771,0.031388,0.000000,0.000000,80.000000,77.000000,3.000000,0.000000,0.000000,0.000000,0.000000,0.000000,0.000000;
#CREDIT:YonabearCWY;
#NOTES:
0000
0000
0000
0000
,
0000
0000
0000
0000
,
0000
0000
0000
0000
,
0000
0000
0000
0000
,
0000
0000
0000
0000
,
0000
0000
0000
0000
,
0000
0000
0000
0000
,
0000
0000
0000
0000
,
1000
0000
1000
0000
,
1000
0000
0000
0000
,
0001
0000
0001
0000
,
0001
0000
0000
0000
,
1000
0000
0000
0000
,
1000
0000
0000
0000
,
0010
0000
0000
0000
,
0010
0000
0000
0000
,
0100
0000
0000
0000
,
0100
0000
0000
0000
,
0001
0000
0000
0000
,
0001
0000
0000
0000
,
0001
0001
0001
0000
,
0001
0000
0000
0000
,
1000
1000
1000
0000
,
1000
0000
0000
0000
,
0010
0010
0010
0000
,
0010
0000
0000
0000
,
0100
0100
0100
0000
,
0100
0000
0000
0000
,
0010
0000
0010
0000
,
0010
0000
0000
0000
,
0100
0000
0100
0000
,
0100
0000
0000
0000
,
0001
0000
0001
0000
,
0001
0000
0000
0000
,
1000
0000
1000
0000
,
1000
0000
0000
0000
,
1000
1000
1000
0000
,
1000
0000
0000
0000
,
0001
0001
0001
0000
,
0001
0000
0000
0000
,
1000
1000
1000
0000
,
1000
0000
0000
0000
,
0001
0001
0001
0000
,
0001
0000
0000
0000
,
1001
0000
0000
0000
,
0000
0000
0000
0000
,
0110
0000
0000
0000
,
0000
0000
0000
0000
,
0100
0100
0100
0000
,
0100
0000
0000
0000
,
0010
0010
0010
0000
,
0010
0000
0000
0000
,
0100
0100
0100
0000
,
0100
0000
0000
0000
,
0010
0010
0010
0000
,
0010
0000
0000
0000
,
1001
0000
0000
0000
;

//---------------dance-single - ----------------
#NOTEDATA:;
#CHARTNAME:BASIC;
#CHARTHASH:2147483647;
#STEPSTYPE:dance-single;
#BANNER:;
#DESCRIPTION:;
#CHARTSTYLE:;
#DIFFICULTY:Easy;
#METER:6;
#METERF:6.000000;
#LASTSECONDHINT:93.441612;
#RADARVALUES:0.258574,0.385937,0.345264,0.104625,0.000000,173.000000,140.000000,33.000000,10.000000,0.000000,0.000000,0.000000,0.000000,0.000000,0.258574,0.385937,0.345264,0.104625,0.000000,173.000000,140.000000,33.000000,10.000000,0.000000,0.000000,0.000000,0.000000,0.000000;
#CREDIT:YonabearCWY;
#NOTES:
0000
0000
0000
0000
,
0000
0000
0000
0000
,
0000
0000
0000
0000
,
0000
0000
0000
0000
,
0000
0000
0000
0000
,
0000
0000
0000
0000
,
0000
0000
0000
0000
,
0000
0000
0000
0000
,
1000
1000
0000
0000
,
0001
0001
0000
0000
,
1000
1000
0000
0000
,
0000
0101
1001
1010
,
1001
0000
0000
0010
0000
0000
0100
0000
,
0000
0010
0000
0000
0100
0000
0001
0000
,
0011
0000
0000
1000
0000
0000
0001
0000
,
0000
1000
0000
0000
0010
0000
0100
0000
,
0001
0001
0001
0000
,
0001
0001
0001
0000
,
1000
1000
1000
0000
,
1000
1000
1000
1000
,
1001
0000
0000
1001
0000
0000
1001
0000
,
0010
0000
0010
0000
,
0110
0000
0000
0110
0000
0000
0110
0000
,
1000
0001
1000
0001
,
1100
0000
0000
1001
0000
0000
0100
0000
,
0001
0000
1000
0000
,
0011
0000
0000
1001
0000
0000
0010
0000
,
0100
0001
1000
0001
,
1200
0000
0000
1300
0000
1000
0010
0000
,
0010
0010
0010
0000
,
0102
0000
0000
0103
0000
0100
0001
0000
,
1000
1000
1000
1000
,
0210
0000
0000
0310
0000
0010
0100
0000
,
0001
1000
0001
1000
,
2001
0000
0000
3001
0000
0001
1000
0000
,
0010
1000
0001
1000
,
1001
0000
0010
0000
,
0010
0000
0010
0000
,
1001
0000
0100
0000
,
0100
0000
0100
0000
,
1001
0010
0010
0000
,
0010
0010
0010
0000
,
1001
0100
0100
0000
,
0100
0100
0100
0000
,
0002
0000
0000
0003
,
2000
0000
0000
3000
,
0020
0000
0000
0030
,
0200
0000
0000
0300
,
1001
0000
1001
0000
,
1001
0000
0010
0010
,
0110
0000
0110
0000
,
0110
0000
0100
0100
,
1000
0001
1000
0001
,
0010
0100
0010
0100
,
1000
0001
1000
0001
,
1000
0101
1001
1010
,
2002
0000
0000
3003
;

//---------------dance-single - ----------------
#NOTEDATA:;
#CHARTNAME:DIFFICULT;
#CHARTHASH:2147483647;
#STEPSTYPE:dance-single;
#BANNER:;
#DESCRIPTION:;
#CHARTSTYLE:;
#DIFFICULTY:Medium;
#METER:9;
#METERF:9.000000;
#LASTSECONDHINT:93.441612;
#RADARVALUES:0.385620,0.475000,0.272026,0.146476,0.015694,258.000000,232.000000,26.000000,14.000000,0.000000,0.000000,0.000000,0.000000,0.000000,0.385620,0.475000,0.272026,0.146476,0.015694,258.000000,232.000000,26.000000,14.000000,0.000000,0.000000,0.000000,0.000000,0.000000;
#CREDIT:YonabearCWY;
#NOTES:
0000
0000
0000
0000
,
0000
0000
0000
0000
,
0000
0000
0000
0000
,
0000
0000
0000
0000
,
0000
0000
0000
0000
,
0000
0000
0000
0000
,
0000
0000
0000
0000
,
0000
0000
0000
0000
,
1000
0010
2000
0000
0000
0000
3000
0000
,
0001
0100
0002
0000
0000
0000
0003
0010
,
0200
0000
0000
1300
0002
0000
0000
0013
,
0100
1100
0011
1010
,
0010
0100
0000
0100
0010
0000
0010
1000
,
0000
1000
0010
0000
0010
0001
0000
0001
,
0010
0000
1000
0000
0001
1000
0001
0000
,
1000
0000
0010
0000
1000
0001
1000
0000
,
0100
1000
0000
1000
0010
0000
0010
0100
,
0000
0100
0001
0000
0001
0100
0000
0100
,
1000
0000
1000
0100
0000
0100
0001
0000
,
1000
0001
1000
0001
0010
0000
1001
0000
,
0010
0100
0000
0010
0100
0000
0010
1000
,
0010
1000
0100
0001
,
0100
0010
0000
0100
0010
0000
0100
0001
,
0100
0000
0001
0000
1000
0010
1000
0000
,
0102
0000
0000
1003
0001
0000
0001
0010
,
0001
0010
1000
0001
,
2100
0000
0000
3001
0100
0000
0100
0010
,
0100
0010
1000
0001
,
2001
0000
0000
0001
0000
0000
3010
0000
,
1000
0000
0001
0000
1000
0000
0100
0010
,
0012
0000
0000
1000
0000
0000
0103
0000
,
0001
0010
1000
0001
,
0210
0000
0000
0001
0001
0000
1000
0000
,
0301
0000
0010
0000
1000
0000
0001
1000
,
1200
0000
0000
0001
0001
0000
1300
0000
,
0010
0100
0010
0100
0001
0000
1001
0000
,
0110
0000
0000
0101
0000
0000
1001
0000
,
0000
0000
1010
0000
0000
0000
0001
0000
0100
0000
0001
0000
0000
0010
0000
0000
,
0100
1000
0100
0000
1000
0100
1000
0000
,
0001
0001
0001
0000
1000
1000
1000
0000
,
0110
0000
0000
1100
0000
0000
0101
0000
,
0000
0000
0011
0000
0000
0000
1000
0000
0001
0000
1000
0000
0000
0010
0000
0000
,
0100
0001
0100
0000
0001
0100
0001
0000
,
1000
1000
1000
0000
0001
0001
0001
0000
,
2001
0000
0000
0010
0000
0000
0010
0000
,
0000
0000
0010
0000
0000
0000
0000
0000
0010
0000
3010
0000
0000
1000
0000
0000
,
0102
0000
0000
0100
0000
0000
0103
0000
,
0001
1000
0001
1000
0001
1000
0001
1000
,
0010
0000
0100
0000
0001
0010
0001
0000
,
1000
0000
0100
0000
0010
0001
0010
0000
,
0100
0000
0010
0000
0100
1000
0100
0000
,
1000
0000
0001
0000
0010
0100
0010
0000
,
0001
1000
0000
1000
0001
0000
0001
0100
,
0000
0100
0010
0000
0010
1000
0000
1000
,
0100
0010
0000
0010
0001
0000
0001
1000
,
0001
1100
0011
0110
,
1001
2002
0000
0000
0000
0000
3003
0000
;

//---------------dance-single - ----------------
#NOTEDATA:;
#CHARTNAME:EXPERT;
#CHARTHASH:2130060992;
#STEPSTYPE:dance-single;
#BANNER:;
#DESCRIPTION:;
#CHARTSTYLE:;
#DIFFICULTY:Hard;
#METER:12;
#METERF:12.000000;
#LASTSECONDHINT:93.441612;
#RADARVALUES:0.554515,0.653125,0.324339,0.230176,0.188326,371.000000,340.000000,31.000000,22.000000,0.000000,0.000000,0.000000,0.000000,0.000000,0.554515,0.653125,0.324339,0.230176,0.188326,371.000000,340.000000,31.000000,22.000000,0.000000,0.000000,0.000000,0.000000,0.000000;
#CREDIT:YonabearCWY;
#NOTES:
// measure 0
0000
0000
0000
0000
,  // measure 1
0000
0000
0000
0000
,  // measure 2
0000
0000
0000
0000
,  // measure 3
0000
0000
0000
0000
,  // measure 4
0000
0000
0000
0000
,  // measure 5
0000
0000
0000
0000
,  // measure 6
0000
0000
0000
0000
,  // measure 7
0000
0000
0000
0000
,  // measure 8
2001
0000
0000
0010
0010
0000
0000
0100
,  // measure 9
0100
0000
0000
0000
0000
0000
0001
0000
3001
0000
0000
1000
0000
0000
0010
0000
,  // measure 10
0200
0000
0000
0001
0001
0000
0000
1000
,  // measure 11
1300
0100
0001
0000
1001
0000
0110
0000
,  // measure 12
2000
0001
0000
3010
0200
0000
0302
1000
,  // measure 13
0000
1003
0100
0100
1000
0010
0000
1000
,  // measure 14
0010
0000
1000
0000
0001
0000
0100
0001
0100
0001
0100
0000
0001
0000
0010
0000
,  // measure 15
0001
0000
0100
0010
0100
0000
0001
0000
1000
0010
1000
0000
0110
0000
0000
0000
,  // measure 16
0001
0020
0000
0230
1000
0300
0100
0020
,  // measure 17
0000
0130
1000
1000
0001
0010
0000
0100
,  // measure 18
0001
0000
0100
0000
1000
0000
0001
0100
0002
0000
0000
0000
1003
0000
0010
0000
,  // measure 19
0100
0010
0100
0000
0010
0000
0001
0000
1000
0000
0100
0000
0001
0000
0100
0000
,  // measure 20
1001
0000
0000
0000
0010
0000
1010
0000
0000
0000
1000
0000
0010
0000
0100
0001
,  // measure 21
0100
0000
0001
0000
0010
0000
0000
0100
0000
1000
0100
0000
0010
0000
0100
0000
,  // measure 22
1001
0000
0000
0000
0100
0000
0101
0000
0000
0001
0010
0000
0100
0000
1000
0000
,  // measure 23
0010
0100
0101
0000
1010
0000
0001
1000
,  // measure 24
0200
0010
0000
0302
1000
0000
1003
0010
,  // measure 25
0100
0001
0100
0010
0001
1000
0110
0000
,  // measure 26
1000
0010
0100
0001
0010
0100
1100
0000
,  // measure 27
0100
0010
0001
0010
1000
0010
0011
0000
,  // measure 28
2010
0010
0000
0100
3100
0000
1000
0100
,  // measure 29
0010
0000
0001
0100
0000
0100
0001
0000
0010
0000
0100
0000
0010
0000
0000
0000
,  // measure 30
0102
0100
0000
1000
1003
0000
0001
0010
,  // measure 31
0100
0000
1000
0000
0001
0000
1000
0001
1000
0001
1000
0000
0100
0000
0010
0000
,  // measure 32
1001
0000
0001
0010
0000
0000
1001
0000
1000
0100
0000
0000
0010
0000
0100
0000
,  // measure 33
0010
0000
0001
0000
0100
0000
0010
1000
0000
0000
0100
0000
0010
0000
0001
0000
,  // measure 34
1010
0000
1000
0001
0000
0000
0101
0000
0001
1000
0000
0000
0010
0000
1000
0000
,  // measure 35
0100
1000
0100
0000
1000
0000
0001
0000
0010
0000
0001
0000
1001
0000
1001
0000
,  // measure 36
2000
0100
0000
3001
0020
1000
0000
0130
,  // measure 37
0010
0000
0001
0000
1000
0000
0201
0000
0000
0000
0310
0000
0000
0100
0000
0000
,  // measure 38
0001
0010
0010
0100
0001
0001
0100
1000
,  // measure 39
1000
0001
0010
0000
0100
0100
1001
0000
,  // measure 40
2000
0010
0000
3001
0200
1000
0000
1300
,  // measure 41
0100
0000
0010
0000
1000
0000
0001
0000
0010
0000
0001
0100
0000
0000
0010
0000
,  // measure 42
0100
0001
1000
0010
0001
0001
0010
0100
,  // measure 43
0100
0001
1000
0100
0100
0000
1001
0000
,  // measure 44
0120
0000
0000
1000
0000
0000
0001
0000
,  // measure 45
0000
0000
0100
0000
0000
0000
1000
0000
1030
0000
0010
0000
0000
0100
0000
0000
,  // measure 46
0002
1000
0000
0100
0100
0000
0010
0010
,  // measure 47
0000
0000
1000
0000
1003
0000
0100
0000
0010
0000
0001
0000
1000
0001
1000
0001
,  // measure 48
1000
0000
0000
0001
0010
0000
0100
0000
1000
0000
0100
0000
0100
0000
0001
0000
,  // measure 49
0100
0000
0100
0000
1000
0000
0010
0100
0000
0000
0001
0000
1000
0000
1000
0000
,  // measure 50
0001
0000
0100
0000
0100
0000
0001
1000
0001
1000
0001
0000
1000
0000
0100
0000
,  // measure 51
0010
0001
1001
0000
0010
0010
0010
0000
,  // measure 52
1000
0000
0001
0000
0010
0000
0001
0100
0001
0000
1000
0000
0100
0000
1000
0010
,  // measure 53
1000
0000
0010
0000
0100
0000
0001
0010
0001
0000
0010
0000
0000
0100
0000
0000
,  // measure 54
1000
0000
0100
0000
0010
0000
0001
1000
0001
1000
0001
0000
1000
0000
0100
0000
,  // measure 55
0001
0100
0110
0000
1010
0000
0101
0000
,  // measure 56
1001
2002
0000
0000
0000
0000
3003
0000
;
