#VERSION:0.83;
#TITLE:FLY AWAY;
#SUBTITLE:(Bye Bye);
#ARTIST:EYES CREAM;
#TITLETRANSLIT:;
#SUBTITLETRANSLIT:;
#ARTISTTRANSLIT:;
#GENRE:;
#ORIGIN:;
#TAGS:;
#CREDIT:;
#BANNER:FLY AWAY (Bye Bye).png;
#BACKGROUND:FLY AWAY (Bye Bye)-bg.png;
#PREVIEWVID:;
#JACKET:FLY AWAY (Bye Bye)-jacket.png;
#CDIMAGE:;
#DISCIMAGE:;
#LYRICSPATH:;
#CDTITLE:Dance Mania Winters 2.png;
#MUSIC:FLY AWAY (Bye Bye).ogg;
#OFFSET:-0.075000;
#SAMPLESTART:57.680000;
#SAMPLELENGTH:15.000000;
#SELECTABLE:YES;
#BPMS:0.000000=132.050003;
#STOPS:;
#DELAYS:;
#WARPS:;
#TIMESIGNATURES:0.000000=4=4;
#TICKCOUNTS:0.000000=4;
#COMBOS:0.000000=1;
#SPEEDS:0.000000=1.000000=0.000000=0;
#SCROLLS:0.000000=1.000000;
#FAKES:;
#LABELS:0.000000=Song Start;
#BGCHANGES:16.000=butterfly1.mp4=1.000=1=0=1===CrossFade==,
28.000=heart5.mp4=1.000=0=0=1=====,
32.000=heart2.mp4=1.000=0=0=1=====,
40.000=night1.mp4=1.000=0=0=1=====,
48.000=heart2.mp4=1.000=0=0=1=====,
56.000=rain2.mp4=1.000=0=0=1=====,
64.000=ring5.mp4=1.000=0=0=1=====,
72.000=floor2.mp4=1.000=0=0=1=====,
80.000=heart7.mp4=1.000=0=0=1=====,
88.000=butterfly1.mp4=1.000=0=0=1=====,
96.000=ring5.mp4=1.000=0=0=1=====,
104.000=floor2.mp4=1.000=0=0=1=====,
112.000=heart7.mp4=1.000=0=0=1=====,
120.000=butterfly1.mp4=1.000=0=0=1=====,
128.000=heart5.mp4=1.000=0=0=1=====,
136.000=heart2.mp4=1.000=0=0=1=====,
144.000=heart5.mp4=1.000=0=0=1=====,
152.000=heart2.mp4=1.000=0=0=1=====,
160.000=cube4.mp4=1.000=0=0=1=====,
168.000=cube11.mp4=1.000=0=0=1=====,
176.000=cube4.mp4=1.000=0=0=1=====,
184.000=cube11.mp4=1.000=0=0=1=====,
192.000=ring5.mp4=1.000=0=0=1=====,
200.000=rain2.mp4=1.000=0=0=1=====,
208.000=city3.mp4=1.000=0=0=1=====,
220.000=FLY AWAY (Bye Bye)-bg.png=1.000=0=0=1=====,
99999=-nosongbg-=1.000=0=0=0 // don't automatically add -songbackground-
;
#KEYSOUNDS:;
#ATTACKS:
;

//---------------dance-single - ----------------
#NOTEDATA:;
#CHARTNAME:;
#STEPSTYPE:dance-single;
#BANNER:;
#DESCRIPTION:;
#CHARTSTYLE:;
#DIFFICULTY:Beginner;
#METER:2;
#METERF:0.000000;
#RADARVALUES:0.132344,0.189142,0.057901,0.019300,0.000000,96.000000,90.000000,6.000000,2.000000,0.000000,0.000000,0.000000,0.000000,0.000000,0.132344,0.189142,0.057901,0.019300,0.000000,96.000000,90.000000,6.000000,2.000000,0.000000,0.000000,0.000000,0.000000,0.000000;
#CREDIT:;
#NOTES:
0000
0000
0000
0000
,
0000
0000
0000
0000
,
0000
0000
0000
0000
,
0000
0000
0000
0000
,
1000
0000
1000
0000
,
1000
0000
0000
0000
,
0010
0000
0010
0000
,
0110
0000
0000
0000
,
0100
0000
0100
0000
,
0100
0000
0000
0000
,
0001
0000
0001
0000
,
0001
0000
0000
0000
,
1000
0000
1000
0000
,
1000
0000
0000
0000
,
0001
0000
0001
0000
,
1001
0000
0000
0000
,
1000
1000
0000
1000
,
1000
1000
0000
1000
,
0001
0000
0001
0000
,
0001
0100
0010
1000
,
0001
0000
0001
0000
,
1000
0000
1000
0000
,
0010
0000
0000
0100
,
0000
0000
0010
0000
,
0001
0001
0000
0001
,
0001
0001
0000
0001
,
1000
0000
1000
0000
,
1000
0010
0100
0001
,
0010
0000
0010
0000
,
0001
0001
1000
1000
,
0010
0000
0000
0010
,
0000
0000
0100
0000
,
1000
0000
1000
0000
,
1000
0000
0000
0000
,
0010
0000
0010
0000
,
0010
0000
0000
0000
,
0100
0000
0100
0000
,
0100
0000
0000
0000
,
0001
0000
0001
0000
,
0001
0000
0000
0000
,
1000
0000
0001
0000
,
1000
0000
0000
0000
,
0001
0000
0100
0000
,
0001
0000
0000
0000
,
0010
0000
0001
0000
,
0010
0000
0000
0000
,
0001
0000
1000
0000
,
0001
0000
0000
0000
,
1001
0000
0000
0000
,
0010
0000
0000
0000
,
1001
0000
0000
0000
,
0100
0000
0000
0000
,
1001
0000
0000
0000
,
0010
0000
0000
0000
,
0100
0000
0000
0000
,
2002
0000
0000
0000
,
3003
0000
0000
0000
;

//---------------dance-single - ----------------
#NOTEDATA:;
#CHARTNAME:;
#STEPSTYPE:dance-single;
#BANNER:;
#DESCRIPTION:;
#CHARTSTYLE:;
#DIFFICULTY:Easy;
#METER:5;
#METERF:0.000000;
#RADARVALUES:0.234359,0.297223,0.115801,0.164051,0.000000,170.000000,158.000000,12.000000,17.000000,0.000000,0.000000,0.000000,0.000000,0.000000,0.234359,0.297223,0.115801,0.164051,0.000000,170.000000,158.000000,12.000000,17.000000,0.000000,0.000000,0.000000,0.000000,0.000000;
#CREDIT:;
#NOTES:
0000
0000
0000
0000
,
0000
0000
0000
0000
,
0000
0000
0000
0000
,
0000
0000
0000
0000
,
2000
0000
3002
0000
,
1003
1000
0001
0001
,
0200
0000
0320
0000
,
0130
0010
1000
1001
,
0001
1000
0001
0000
,
1000
0010
0001
0010
,
1000
0001
1000
0000
,
0001
0100
1000
0100
,
0001
0010
0001
0000
,
1000
0010
0001
0010
,
1000
0100
1000
0000
,
2002
0000
3003
0110
,
1000
0010
1000
0010
,
1000
0000
1000
0000
,
0001
0100
1000
0100
,
0001
0010
0001
1000
,
0010
0000
0010
0000
,
0100
0100
0001
0001
,
1000
0100
0010
0001
,
1000
0100
1000
0010
,
0100
0001
0100
0001
,
0100
0000
0010
0000
,
1000
0100
0010
0100
,
1000
0001
1000
0100
,
1000
0000
1000
0000
,
1000
0010
0100
0001
,
0010
1000
0010
0001
,
0100
0010
0100
0001
,
1001
0100
0100
0010
,
0010
0001
0010
0001
,
1001
0100
0100
0001
,
0001
1000
0010
0100
,
0110
0010
0010
1000
,
1000
0010
0100
0001
,
0101
0001
0001
1000
,
1000
0010
2002
3003
,
0100
0000
1000
0000
,
0010
0010
1000
1000
,
0001
0000
0100
0000
,
0001
0001
0010
0010
,
0001
0000
0100
0000
,
0001
0001
1000
1000
,
0010
0000
0100
0000
,
0010
0110
0010
1010
,
2001
0000
0000
0000
,
3002
0000
0000
0000
,
0023
0000
0000
0000
,
0032
0000
0000
0000
,
0203
0000
0000
0000
,
0302
0000
0000
0000
,
2003
0000
3010
0000
,
2002
0000
0000
0000
,
3003
0000
0000
0000
;

//---------------dance-single - ----------------
#NOTEDATA:;
#CHARTNAME:;
#STEPSTYPE:dance-single;
#BANNER:;
#DESCRIPTION:;
#CHARTSTYLE:;
#DIFFICULTY:Medium;
#METER:8;
#METERF:0.000000;
#RADARVALUES:0.372218,0.432324,0.299153,0.183352,0.019300,270.000000,239.000000,31.000000,19.000000,0.000000,0.000000,0.000000,0.000000,0.000000,0.372218,0.432324,0.299153,0.183352,0.019300,270.000000,239.000000,31.000000,19.000000,0.000000,0.000000,0.000000,0.000000,0.000000;
#CREDIT:;
#NOTES:
0000
0000
0000
0000
,
0000
0000
0000
0000
,
0000
0000
0000
0000
,
0000
0000
0000
0000
,
1000
0000
1000
0100
0010
0000
0010
0001
,
1000
0001
0010
0000
0001
0000
1000
0000
,
0010
0100
1000
0000
1000
0100
0001
0000
,
1100
1001
0011
0110
,
1001
0000
0001
1000
0001
0000
1000
0001
,
1000
0000
0010
1000
0100
0010
0001
1000
,
0100
1000
0100
0000
1000
0001
1000
0000
,
0001
0000
0100
0001
0010
0001
1000
0000
,
0010
0000
1000
0010
1000
0000
0001
0100
,
0001
0000
1000
0100
0001
0100
1000
0010
,
0100
0010
0100
0000
0010
1000
0010
0000
,
1100
1001
0011
0110
,
1002
0000
0000
0100
0103
0000
0001
0000
,
1000
0010
1000
0100
1000
0001
0100
0000
,
0020
0000
1000
0000
0100
0000
1030
0010
,
0001
0010
1000
0010
,
0100
0101
0001
1001
,
1000
0000
0010
2000
0000
3010
1000
0001
,
0100
0000
0010
1000
0100
0010
0001
1000
,
0000
1000
0001
1000
0000
0001
0100
0001
,
2001
0000
0000
0010
3010
0000
1000
0000
,
0001
1000
0100
0001
0100
1000
0010
0000
,
0200
0000
1000
0000
0301
0100
1000
0000
,
0100
0001
1000
0010
,
1000
1001
0001
0011
,
0010
0000
0001
0100
0000
0001
1000
0100
,
0010
0001
0100
0001
,
1000
0001
0100
0001
0000
0100
0010
1000
,
0001
0101
0100
0110
,
0010
0000
1010
0000
1001
0000
1000
0010
,
0001
0010
1010
1000
,
1001
0000
0001
0000
0101
0000
0001
0100
,
1000
0101
0100
0110
,
0010
0000
1010
0000
1001
0000
0001
1000
,
0010
1000
1001
0001
,
0011
0010
0210
0000
,
2300
0000
0000
0000
0001
0000
0000
0000
3100
0000
0000
0000
0000
0000
0000
1000
,
0001
0100
0001
0010
,
0002
0000
0000
0000
1000
0000
0000
0000
0013
0000
0000
0000
0000
0000
0000
0001
,
1000
0100
0001
0100
,
2000
0000
0000
0000
0010
0000
0000
0000
3100
0000
0000
0000
0000
0000
0000
1000
,
0100
0000
1000
0000
0010
1000
0001
0000
,
0020
0000
0000
0000
0001
0000
0000
0000
0130
0000
0000
0000
0000
0000
0000
0001
,
0100
0001
1000
0010
,
2100
0000
0100
0000
,
3200
1000
0010
1000
,
2300
0000
0001
0000
,
3002
0100
0010
0100
,
0203
0000
0010
0000
,
0320
0000
1000
0000
,
2030
0000
0001
3000
,
2002
0000
0000
0000
,
3003
0000
0000
0000
;

//---------------dance-single - ----------------
#NOTEDATA:;
#CHARTNAME:;
#STEPSTYPE:dance-single;
#BANNER:;
#DESCRIPTION:;
#CHARTSTYLE:;
#DIFFICULTY:Hard;
#METER:12;
#METERF:0.000000;
#RADARVALUES:0.511455,0.540405,0.019300,0.299153,0.458379,371.000000,369.000000,2.000000,31.000000,0.000000,0.000000,0.000000,0.000000,0.000000,0.511455,0.540405,0.019300,0.299153,0.458379,371.000000,369.000000,2.000000,31.000000,0.000000,0.000000,0.000000,0.000000,0.000000;
#CREDIT:;
#NOTES:
// measure 0
0000
0000
0000
0000
,  // measure 1
0000
0000
0000
0000
,  // measure 2
0000
0000
0000
0000
,  // measure 3
0000
0000
0000
0000
,  // measure 4
1000
0010
1000
0100
0001
0100
1000
0010
,  // measure 5
0100
0000
0010
0000
1000
0010
0000
0000
0100
0000
0000
0001
0000
1000
0001
0000
,  // measure 6
0010
0001
0010
1000
0010
0100
0010
0000
,  // measure 7
0110
0000
0000
0100
0010
0000
0000
0010
0100
0000
0000
0001
1000
0000
0000
1000
,  // measure 8
0001
1000
0100
1000
0010
0100
0001
0010
,  // measure 9
0100
0000
1000
0000
0001
1000
0000
1000
0001
0000
0000
0100
0000
0010
1000
0000
,  // measure 10
0100
0001
0100
1000
0100
0010
0001
0010
,  // measure 11
0100
0000
1000
0000
0001
1000
0000
1000
0010
0000
0000
0100
0000
0001
1000
0010
,  // measure 12
0100
0010
1000
0100
1000
0001
0010
0001
,  // measure 13
0100
0000
0001
0000
0010
0001
0000
0001
1000
0000
0000
0010
0000
1000
0100
0010
,  // measure 14
0100
1000
0010
1000
0100
0001
0100
1000
,  // measure 15
0010
0000
0100
0000
0001
0100
0000
0100
0010
0000
0000
0010
1000
0010
1000
0001
,  // measure 16
0200
0010
1000
0310
,  // measure 17
0100
0000
0001
0100
0000
0000
0001
0000
1000
0000
0100
0000
1000
0001
1000
0001
,  // measure 18
2000
0000
0000
0000
0010
0000
0000
0000
3100
0000
1000
0000
0100
0000
0010
0100
,  // measure 19
0000
0000
0100
0000
1000
0001
0000
0000
0001
0000
1000
0010
0000
0100
0001
1000
,  // measure 20
0200
1000
0320
0001
,  // measure 21
0230
0000
1300
0100
0010
0010
0010
0010
,  // measure 22
0001
0000
0001
1000
0100
0010
0200
0000
,  // measure 23
0000
0000
0000
1300
0100
0000
0001
0000
0000
0100
1000
0000
0001
0000
0100
0010
,  // measure 24
0200
0001
0010
0301
,  // measure 25
1000
0000
0001
0010
0000
0000
0100
0000
0010
0000
0001
0000
1000
0010
1000
0010
,  // measure 26
2000
0000
0000
0000
0001
0000
0000
0000
3100
0000
1000
0000
0010
0000
0100
0001
,  // measure 27
0000
0000
1000
0000
0001
0100
0000
0100
0010
0000
0000
1000
0000
0100
0010
0001
,  // measure 28
2000
0010
3002
0100
,  // measure 29
2003
0000
3001
1000
0100
0100
0100
0100
,  // measure 30
1000
0010
0001
0010
1000
0100
0020
0000
,  // measure 31
0000
0000
0000
0031
0100
0000
0010
0000
0000
1000
0100
0000
1000
0000
0001
0000
,  // measure 32
0010
0000
0000
0000
0010
0001
0000
0000
0001
0010
0000
0000
0100
1000
0000
0000
,  // measure 33
1000
0100
0000
0000
0100
0010
0000
0000
0010
0001
0000
0001
0010
0000
0001
0000
,  // measure 34
0100
0000
0000
0000
0100
0010
0000
0000
0010
0100
0000
0000
0001
1000
0000
0000
,  // measure 35
1000
0001
0000
0000
0001
0100
0000
0000
0100
1000
0000
1000
0100
0000
0001
0000
,  // measure 36
0100
0000
0000
0000
0010
0100
0000
0000
0100
0001
0000
0000
0001
0100
0000
0000
,  // measure 37
0100
0010
0000
0000
0010
1000
0000
0000
1000
0100
0000
0100
1000
0000
0001
0000
,  // measure 38
0010
0000
0000
0000
0010
0001
0000
0000
0001
0100
0000
0000
0100
1000
0000
0000
,  // measure 39
1000
0100
0000
0000
0100
0001
0000
0000
0001
2000
0000
0000
0000
0000
0000
0000
,  // measure 40
3010
0000
1000
0000
0100
0000
1000
0000
0010
0000
0010
0000
0010
0000
0000
0100
,  // measure 41
0001
0000
0000
0001
1000
0000
0000
1000
0100
0000
0000
0100
1000
0000
0000
1000
,  // measure 42
0001
0000
0100
0000
0010
0000
1000
0000
0100
0000
0100
0000
0100
0000
0000
0100
,  // measure 43
1000
0000
0000
1000
0010
0000
0000
0010
1000
0000
0000
1000
0001
1000
0100
0000
,  // measure 44
1000
0000
0010
0000
0001
0000
0010
0000
1000
0000
1000
0000
1000
0000
0000
1000
,  // measure 45
0100
0000
0000
0100
0001
0000
0000
0001
0100
0000
0000
0100
1000
0100
0010
0000
,  // measure 46
0100
0000
1000
0000
0001
0000
0100
0000
0010
0000
0010
0000
0010
0000
0000
0010
,  // measure 47
1000
0000
0000
1000
0100
0000
0000
0100
0010
0000
0000
0010
0001
0000
0000
0001
,  // measure 48
2000
0100
0010
0001
,  // measure 49
3020
0100
1000
0001
,  // measure 50
2030
3200
0302
0203
,  // measure 51
0320
0032
0023
2030
,  // measure 52
3020
0032
2003
3020
,  // measure 53
0230
0000
0000
0001
0001
0000
0001
0000
,  // measure 54
0302
0000
0000
1000
1000
0000
1003
0000
,  // measure 55
2002
0000
0000
0000
,  // measure 56
3003
0000
0000
0000
;
