#TITLE:FIRE DUB;
#SUBTITLE:;
#ARTIST:ASLETICS;
#TITLETRANSLIT:;
#SUBTITLETRANSLIT:;
#ARTISTTRANSLIT:;
#GENRE:DUB;
#CREDIT:KONAMI/YonabearCWY;
#BANNER:FIRE DUB.png;
#BACKGROUND:FIRE DUB-bg.png;
#LYRICSPATH:;
#CDTITLE:beatmania.png;
#MUSIC:FIRE DUB.ogg;
#OFFSET:-0.110000;
#SAMPLESTART:49.504074;
#SAMPLELENGTH:15.000000;
#SELECTABLE:YES;
#DISPLAYBPM:85.000000;
#BPMS:0.000000=85.000000
;
#STOPS:
;
#BGCHANGES:8.000=tunnel11.mp4=1.000=1=0=1===CrossFade==,
12.000=fire5.mp4=1.000=0=0=1=====,
16.000=blizzard4.mp4=1.000=0=0=1=====,
20.000=tunnel11.mp4=1.000=0=0=1=====,
24.000=highway2.mp4=1.000=0=0=1=====,
28.000=spikes9.mp4=1.000=0=0=1=====,
32.000=highway2.mp4=1.000=0=0=1=====,
36.000=blizzard4.mp4=1.000=0=0=1=====,
38.000=1.jpg=1.000=0=0=1=====,
38.500=2.jpg=1.000=0=0=1=====,
39.000=3.jpg=1.000=0=0=1=====,
40.000=max2.mp4=1.000=0=0=1=====,
44.000=tunnel10.mp4=1.000=0=0=1=====,
48.000=max2.mp4=1.000=0=0=1=====,
52.000=fire5.mp4=1.000=0=1=1=StretchRewind====,
56.000=ring2.mp4=1.000=0=0=1=====,
64.000=ring10.mp4=1.000=0=0=1=====,
68.000=blizzard4.mp4=1.000=0=1=1=StretchRewind====,
70.000=blizzard3.mp4=2.000=0=0=1=====,
72.000=spark1.mp4=1.000=0=0=1=====,
76.000=tunnel11.mp4=1.000=0=1=1=StretchRewind====,
80.000=spark1.mp4=1.000=0=0=1=====,
84.000=fire5.mp4=1.000=0=1=1=StretchRewind====,
86.000=blizzard3.mp4=2.000=0=1=1=StretchRewind====,
88.000=spark1.mp4=1.000=0=1=1=StretchRewind====,
92.000=ring2.mp4=1.000=0=1=1=StretchRewind====,
96.000=spark1.mp4=1.000=0=0=1=====,
100.000=tunnel11.mp4=1.000=0=1=1=StretchRewind====,
101.000=fire5.mp4=1.000=0=1=1=StretchRewind====,
102.000=tunnel11.mp4=1.000=0=0=1=====,
102.500=fire5.mp4=1.000=0=0=1=====,
103.000=tunnel11.mp4=1.000=0=0=1=====,
103.500=fire5.mp4=1.000=0=0=1=====,
104.000=FIRE DUB-bg.png=1.000=0=0=1=====,
99999.000=-nosongbg-=1.000=0=0=0=StretchNoLoop====,
99999=-nosongbg-=1.000=0=0=0 // don't automatically add -songbackground-
;
#KEYSOUNDS:;
#ATTACKS:;

//---------------dance-single - ----------------
#NOTES:
     dance-single:
     BEGINNER:
     Beginner:
     2:
     0.142751,0.204910,0.139137,0.000000,0.000000,79.000000,68.000000,11.000000,0.000000,0.000000,0.000000,0.142751,0.204910,0.139137,0.000000,0.000000,79.000000,68.000000,11.000000,0.000000,0.000000,0.000000:
0000
0000
0000
0000
,
0000
0000
0000
0000
,
1000
0000
0000
0000
,
1000
0000
0000
0000
,
0001
0000
0000
0000
,
0001
0000
0000
0000
,
1001
1001
0010
0000
,
1001
1001
0100
0000
,
0110
0110
1000
0000
,
0110
0110
0001
0000
,
1000
0000
1000
1000
,
0001
0000
0001
0001
,
0100
0000
0010
0010
,
1001
0000
0000
0000
,
1000
1000
1000
0000
,
1000
1000
1000
0000
,
0001
0001
0001
0000
,
0001
0001
1001
0000
,
0100
0100
0100
0000
,
0010
0010
0010
0000
,
1000
1000
1000
0000
,
0001
0001
0001
0001
,
0001
0000
1000
0010
,
1000
0000
0001
0100
,
0001
0000
0100
0010
,
0100
0000
0001
1000
,
0001
1000
1000
1000
,
1001
0000
0000
0000
;

//---------------dance-single - ----------------
#NOTES:
     dance-single:
     BASIC:
     Easy:
     6:
     0.258397,0.308077,0.189732,0.101190,0.050595,143.000000,128.000000,15.000000,8.000000,0.000000,0.000000,0.258397,0.308077,0.189732,0.101190,0.050595,143.000000,128.000000,15.000000,8.000000,0.000000,0.000000:
0000
0000
0000
0000
,
0000
0000
0000
0000
,
1000
1000
0100
0000
,
0001
0001
0100
0000
,
1000
1000
0010
0000
,
0001
0001
0010
0000
,
1001
1001
1001
0000
0100
0000
0000
0000
,
0110
0110
0110
0000
1000
0000
0000
0000
,
1001
1001
1001
0000
0010
0000
0000
0000
,
0220
0000
0000
0330
,
1000
2000
0000
0000
0010
0000
0000
0000
3001
0000
0100
0000
0001
0000
0000
0000
,
0100
0200
0000
0000
0010
0000
0000
0000
0301
0000
1000
0000
0001
0000
0000
0000
,
0010
0020
0000
0000
0031
0000
1000
0000
0100
0000
1000
0000
0100
0000
0000
0000
,
2002
0000
0000
3003
,
0100
0010
0001
1000
0000
0010
0000
0100
,
0001
0000
0010
0000
0100
0000
1000
0000
0001
0010
0000
0000
0001
1000
0000
0000
,
0100
0000
0010
0000
0001
0000
1000
0000
0001
0100
0000
0000
0010
1000
0000
0000
,
0100
0010
0001
1000
0010
0010
1001
0000
,
0100
0000
0010
0000
0001
1000
0100
0001
,
0100
0000
1000
0000
0001
0010
1000
0010
,
0100
0000
1000
0000
0001
0100
0010
1000
,
0010
0010
0100
0100
,
1001
0001
0010
0000
0100
0100
0100
0000
,
1001
1000
0010
0000
1000
1000
1000
0000
,
0110
0010
1000
0000
0001
0001
0001
0000
,
0100
0010
1000
0100
0010
0010
0001
0001
,
2000
0001
0001
3001
,
0001
1000
0000
0000
0000
0000
0000
0000
0000
0000
0000
0000
0000
0000
0000
0000
;

//---------------dance-single - ----------------
#NOTES:
     dance-single:
     DIFFICULT:
     Medium:
     9:
     0.372236,0.410769,0.202381,0.227678,0.189732,206.000000,190.000000,16.000000,18.000000,0.000000,0.000000,0.372236,0.410769,0.202381,0.227678,0.189732,206.000000,190.000000,16.000000,18.000000,0.000000,0.000000:
0000
0000
0000
0000
,
0000
0000
0000
0000
,
1000
0001
1000
0000
0010
1000
0100
0010
,
0001
0000
1000
0000
0001
0000
0000
0000
0100
0000
0001
0000
0010
0100
0000
1000
,
0001
0010
0001
0000
0100
0010
1000
0100
,
0010
0000
0100
0000
0010
0000
0001
0100
0000
0010
1000
0000
0100
0000
0010
0000
,
1001
0000
1001
0000
0210
0000
0000
0000
0301
0100
0010
0000
1000
1000
0000
0000
,
0110
0000
0110
0000
1002
0000
0000
0000
0013
0001
1000
0001
0000
0000
0010
0000
,
1100
0000
1100
0000
1002
0000
0000
0000
0013
0001
0010
0000
0100
0100
0000
0000
,
2001
0000
0000
0000
0000
0000
0000
0000
3001
0100
0010
2000
0000
0000
0000
0000
,
3001
0002
0000
0000
1003
0000
0100
0000
0020
0000
0001
0000
1000
0000
0001
0000
,
0130
0200
0000
0000
1300
0000
0001
0010
0002
0000
1000
0000
0010
0000
1000
0000
,
0013
0001
0010
0000
0001
0000
1000
0000
0020
0000
1000
0000
0001
0000
1000
0000
,
0200
0000
0000
0330
,
1001
0000
0010
0000
0100
0000
1000
0000
0100
0001
0100
0000
0001
0000
0010
0000
,
0001
0000
1000
0100
0000
0010
0001
0000
0100
0100
0000
0000
0010
0010
0000
0000
,
1010
0000
0001
0000
0010
0000
0100
0000
1000
0001
0100
0000
0010
0000
1000
0000
,
0100
0010
0001
0000
1000
0000
0001
0000
0100
0000
0100
0000
1001
0000
0000
0000
,
0010
0000
1000
0100
0001
0000
0100
0010
,
0001
0000
0000
0000
0010
0000
0001
0000
1000
0000
0000
0000
0001
0100
0001
0000
,
0010
0000
0100
1000
0001
0000
0100
0010
,
1000
0001
0100
0010
1000
0100
0010
0001
,
1000
0100
1000
0000
0002
0000
0010
0000
0023
0000
0000
0000
0130
0000
0100
0000
,
1000
0001
1000
0000
0010
0000
0100
0000
0002
0000
1000
0000
2003
0000
0000
0000
,
3100
0010
0100
0000
0010
0000
0001
0000
2000
0000
0010
0000
3020
0000
0100
0000
,
0130
0001
0100
0000
0010
1000
0010
0000
1100
0000
1000
0000
1001
0000
1000
0000
,
2010
0010
0010
3010
,
1000
0001
0000
0000
0000
0000
0000
0000
0000
0000
0000
0000
0000
0000
0000
0000
;

//---------------dance-single - ----------------
#NOTES:
     dance-single:
     EXPERT:
     Hard:
     12:
     0.514986,0.564808,0.240327,0.215029,0.594493,285.000000,266.000000,19.000000,17.000000,0.000000,0.000000,0.514986,0.564808,0.240327,0.215029,0.594493,285.000000,266.000000,19.000000,17.000000,0.000000,0.000000:
0000
0000
0000
0000
,
0000
0000
0000
0000
,
1000
0000
0001
0000
0010
0000
0001
0000
0100
0000
0010
0000
1000
0001
0010
0100
,
1000
0000
0001
0000
0100
0000
0010
0000
1000
0000
0100
0000
0010
0001
1000
0001
,
0100
0000
0010
0000
1000
0100
0010
0000
0100
0000
0010
0000
0001
1000
0010
0100
,
0001
0000
0100
0001
0010
0000
0100
0100
0000
1000
0001
0000
0010
0010
0000
0001
,
2000
0000
0010
0000
3020
0000
0000
0000
0001
0001
0031
0000
1010
1000
0001
0000
,
0020
0000
0100
0000
0230
0000
0000
0000
1300
0100
0010
0001
0000
0010
0010
0000
,
0002
0000
0100
0000
0203
0000
0000
0000
1000
1000
1300
0000
0101
0001
1000
0000
,
0100
0010
0001
1000
0010
0000
0100
0001
0010
0000
0100
0100
0100
0000
1001
0000
,
0010
0020
0000
0100
0100
0000
1000
0000
0032
0000
0100
0000
0103
0001
0011
0000
,
1000
2000
0000
0001
0001
0000
0010
0010
3020
0000
1000
0000
0100
0000
0001
0000
,
0130
0010
1010
0000
0100
0001
0010
0100
2000
0000
0001
0000
0010
0000
3001
0000
,
2002
0000
0000
0000
0000
0000
0000
0000
0000
0000
0000
0000
3003
0000
0000
0000
0000
0000
0010
0000
0000
0000
0010
0000
0000
0000
0000
0000
0000
0000
1001
0000
0000
0000
0000
0000
0100
0000
0000
0100
0000
0000
0000
0000
0000
0010
0000
0000
,
0010
0000
0001
1000
0100
0001
0100
0000
1000
1000
0000
0001
0010
0100
0000
1000
,
0100
0100
0010
0001
1000
0001
0001
0010
0100
1100
0000
1000
0001
0011
0000
0001
,
0100
0010
0010
1000
0001
0100
0100
0001
0010
0011
0000
1000
0100
0110
0000
0001
,
0100
0000
0000
0000
0000
0000
0010
0000
0000
0010
0000
0000
0010
0000
0000
1000
0000
0000
0001
0000
0000
0000
0000
0000
0100
0000
0010
0000
0100
0000
0010
0000
0000
0000
1000
0000
0001
0000
0000
0000
0000
0000
0000
0000
0000
0000
0010
0000
,
0100
0000
1000
0000
0100
0000
0010
0000
0001
0000
1000
0000
0110
0001
1000
0000
,
0100
0000
0000
0000
0000
0000
0010
0000
0000
0000
0000
0000
0001
0000
0000
0000
0000
0000
1000
0000
0000
0000
0000
0000
0001
0000
0000
0000
0000
0000
0100
0000
0000
0000
0000
0000
1010
0000
0000
0100
0000
0000
0001
0000
0000
0000
0100
0000
,
1000
0000
0000
0001
0000
0000
0010
0000
0000
0001
0000
0000
1000
0000
0000
0100
0000
0000
0010
0000
0011
0000
0000
1001
,
0000
0000
1100
0000
0000
0110
0000
0000
0001
1000
0000
0010
0000
0000
1000
0001
0000
0100
0000
0000
0001
1000
0000
1000
,
0002
0000
0000
0000
0010
0000
0000
0000
0100
0000
0000
0000
0010
0000
0000
0000
0100
0000
0000
0000
0010
0000
0000
0000
0103
0000
0001
0010
0001
0000
1000
0000
,
0200
0000
0001
0000
1000
0000
0001
0000
1000
0000
0001
0000
1300
0001
0010
0000
,
0002
0000
0000
0000
1000
0000
0000
0000
0100
0000
0000
0000
1000
0000
0000
0000
0100
0000
0000
0000
1000
0000
0000
0000
0103
0000
0001
0100
0010
0000
1000
0000
,
0001
0100
0001
0000
1000
0010
1000
0000
0001
0010
0100
1000
0010
0100
0001
1000
,
0200
1000
0000
1000
1000
0000
1000
1000
0000
1000
1300
0000
,
1001
1001
0000
0000
0000
0000
0000
0000
0000
0000
0000
0000
0000
0000
0000
0000
;

//---------------dance-single - ----------------
#NOTES:
     dance-single:
     CHALLENGE:
     Challenge:
     14:
     0.672192,0.821538,0.164434,0.252976,1.132066,372.000000,359.000000,13.000000,20.000000,0.000000,0.000000,0.672192,0.821538,0.164434,0.252976,1.132066,372.000000,359.000000,13.000000,20.000000,0.000000,0.000000:
// measure 0
0000
0000
0000
0000
,  // measure 1
0000
0000
0000
0000
,  // measure 2
1010
0000
0000
0000
1000
0000
0000
0000
0001
0000
0010
0000
0001
0000
0000
0000
0100
0000
0000
0000
0010
0000
0000
0000
1000
0000
0001
0010
0001
0000
0010
0000
,  // measure 3
0100
0000
1000
0000
0001
1000
0001
0000
0100
0000
1010
0000
0001
0011
0000
1000
,  // measure 4
1001
0000
0000
0000
0001
0000
0000
0000
0100
0000
0001
0000
0100
0000
0000
0000
0001
0000
0000
0000
1000
0000
0000
0000
0100
0000
0010
0001
0010
0000
0001
0000
,  // measure 5
1000
0000
0100
1000
0001
0000
0100
0110
0000
0010
0010
0000
1000
1000
0000
0100
,  // measure 6
1002
0000
0000
0000
0010
0000
0000
0000
0023
0000
0000
0000
0000
0000
0000
0000
1000
0000
1000
0000
1030
0000
0000
0000
0011
0000
0001
1000
0100
0000
1000
0000
,  // measure 7
0210
0000
0000
0000
0001
0000
0000
0000
0302
0000
0000
0000
0000
0000
0000
0000
0013
0000
0010
0000
0010
0000
0010
0000
0000
0000
0100
1000
0100
0000
0010
0001
,  // measure 8
0020
0000
0000
0000
0100
0000
0000
0000
0230
0000
0000
0000
0000
0000
0000
0000
0001
0000
0001
0000
0301
0000
0000
0000
1100
0000
1000
0001
0010
0000
0100
0000
,  // measure 9
0010
0000
0001
0000
1000
0000
0001
0000
0010
0000
0000
0000
0010
0000
0000
0000
1001
0000
0000
0000
0100
0000
0010
0001
1000
0000
0010
0000
0100
0000
0000
0000
,  // measure 10
0001
0002
0000
1000
1003
0001
0010
0100
2000
0000
0001
0000
0010
0000
0001
0000
,  // measure 11
3100
0200
0000
1000
1300
0010
0100
0001
0020
0000
0001
0000
0100
0000
0031
1000
,  // measure 12
0100
0100
0020
0000
0032
1000
1003
0001
0020
0000
0001
0000
1000
0000
0100
0000
,  // measure 13
0031
0100
0010
1000
0200
0000
0000
0000
1000
2300
0000
3001
0100
0200
0000
0310
,  // measure 14
1001
0000
0001
0010
0001
0000
0100
0000
0010
0000
1000
0000
0100
0010
0000
0010
0001
0000
1000
0100
1000
0000
0010
0000
0100
0010
0100
0000
0001
0000
0010
0001
,  // measure 15
0010
0000
0001
1000
0001
0000
0100
0000
0010
1000
0010
1000
0010
1000
0100
1000
0100
0010
0000
0010
0001
0000
1000
0000
0001
0100
0000
0100
0010
0000
1000
0000
,  // measure 16
0001
0000
0010
0001
0010
0000
0001
0000
1000
0100
1000
0100
1000
0000
0010
0000
0100
0001
0100
0000
0001
0000
0010
0001
0010
0000
0001
0000
1000
0001
1000
0000
,  // measure 17
0001
0000
0000
0000
0000
0000
0010
0000
0000
0000
0000
0000
0001
0000
0000
0000
0000
0000
0010
0000
0000
0000
0000
0000
0001
0000
0000
0000
0000
0000
0000
0000
0000
0000
0000
0000
0100
0000
0000
0000
0000
0000
0010
0000
0000
0000
0000
0000
0100
0000
0000
0000
0000
0000
0010
0000
0000
0000
0000
0000
1000
0000
0000
0000
0000
0000
0000
0000
0000
0000
0000
0000
0100
0000
0000
0000
0000
0000
0000
0000
0000
0000
0000
0000
0010
0000
0000
0000
0000
0000
0000
0000
0000
0000
0000
0000
0001
0000
0000
0000
0000
0000
0000
0000
1000
0000
0000
0000
0000
0000
0000
0000
0001
0000
0000
0000
0000
0000
0000
0000
1000
0000
0000
0000
0000
0000
0000
0000
0000
0000
0000
0000
0000
0000
0000
0000
0100
0000
0000
0000
0000
0000
0000
0000
0010
0000
0000
0000
0000
0000
0000
0000
0000
0000
0000
0000
0000
0000
0000
0000
0000
0000
0000
0000
0000
0000
0000
0000
0000
0000
0000
0000
0000
0000
0000
0000
0000
0000
0000
0000
0000
0000
0000
0000
0001
0000
0000
0000
0000
0000
0000
0000
,  // measure 18
0100
0000
0000
0000
0000
0000
0000
0000
0000
0000
0000
0000
0000
0000
0000
0000
0000
0000
0000
0000
0000
0000
0000
0000
0010
0000
0000
0000
0000
0000
0000
0000
0000
0000
0000
0000
0000
0000
0000
0000
1000
0000
0000
0000
0000
0000
0000
0000
0001
0000
0000
0000
0000
0000
0000
0000
0000
0000
0000
0000
0000
0000
0000
0000
0000
0000
0000
0000
0000
0000
0000
0000
0100
0000
0000
0000
0000
0000
0000
0000
0000
0000
0000
0000
0000
0000
0000
0000
0010
0000
0000
0000
0000
0000
0000
0000
1000
0000
0000
0000
0000
0000
0000
0000
0000
0000
0000
0000
0000
0000
0000
0000
0001
0000
0000
0000
0000
0000
0000
0000
1000
0000
0000
0000
0000
0000
0000
0000
0000
0000
0000
0000
0000
0000
0000
0000
0100
0000
0000
0000
0000
0000
0000
0000
1000
0000
0000
0000
0000
0000
0000
0000
0000
0000
0000
0000
0100
0000
0000
0000
0000
0000
0010
0000
0000
0000
0000
0000
0100
0000
0000
0000
0000
0000
0000
0000
0000
0000
0000
0000
0010
0000
0000
0000
0000
0000
0000
0000
0000
0000
0000
0000
,  // measure 19
0001
0000
0000
0000
0000
0000
0000
0000
0000
0000
0000
0000
0000
0000
0000
0000
0000
0000
0000
0000
0000
0000
0000
0000
1000
0000
0000
0000
0000
0000
0000
0000
0000
0000
0000
0000
0000
0000
0000
0000
0100
0000
0000
0000
0000
0000
0000
0000
0010
0000
0000
0000
0000
0000
0000
0000
0000
0000
0000
0000
0000
0000
0000
0000
0000
0000
0000
0000
0000
0000
0000
0000
0001
0000
0000
0000
0000
0000
0000
0000
0000
0000
0000
0000
0000
0000
0000
0000
0010
0000
0000
0000
0000
0000
0000
0000
0001
0000
0000
0000
0000
0000
0000
0000
0000
0000
0000
0000
0000
0000
0000
0000
1000
0000
0000
0000
0000
0000
0000
0000
0010
0000
0000
0000
0000
0000
0000
0000
0000
0000
0000
0000
0000
0000
0000
0000
0100
0000
0000
0000
0000
0000
0000
0000
0001
0000
0000
0000
0000
0000
0000
0000
0000
0000
0000
0000
0010
0000
0000
0000
0000
0000
0001
0000
0000
0000
0000
0000
0010
0000
0000
0000
0000
0000
0000
0000
0000
0000
0000
0000
0001
0000
0000
0000
0000
0000
0000
0000
0000
0000
0000
0000
,  // measure 20
1000
0000
0000
0000
0000
0000
0000
0000
0000
0000
0000
0000
0000
0000
0000
0000
0000
0000
0000
0000
0000
0000
0000
0000
0010
0000
0000
0000
0000
0000
0000
0000
0000
0000
0000
0000
0000
0000
0000
0000
0100
0000
0000
0000
0000
0000
0000
0000
0001
0000
0000
0000
0000
0000
0000
0000
0000
0000
0000
0000
0000
0000
0000
0000
0000
0000
0000
0000
0000
0000
0000
0000
0100
0000
0000
0000
0000
0000
0000
0000
0000
0000
0000
0000
0000
0000
0000
0000
0001
0000
0000
0000
0000
0000
0000
0000
1000
0000
0000
0000
0000
0000
0000
0000
0000
0000
0000
0000
0000
0000
0000
0000
0010
0000
0000
0000
0000
0000
0000
0000
0100
0000
0000
0000
0000
0000
0000
0000
0000
0000
0000
0000
0000
0000
0000
0000
0001
0000
0000
0000
0000
0000
0000
0000
0100
0000
0000
0000
0000
0000
0000
0000
0000
0000
0000
0000
0010
0000
0000
0000
0000
0000
1000
0000
0000
0000
0000
0000
0010
0000
0000
0000
0000
0000
0000
0000
0000
0000
0000
0000
0100
0000
0000
0000
0000
0000
0000
0000
0000
0000
0000
0000
,  // measure 21
0001
0000
0001
0000
0000
1000
0010
0000
0010
0100
0000
0100
0000
0000
0001
1000
0000
1000
0000
0000
0100
0010
0000
0001
,  // measure 22
1000
0100
1000
0000
0010
0000
0100
0000
0002
0000
0000
0000
0010
0000
0010
0000
0013
0000
0000
0000
0001
0000
1000
0000
0100
0000
1000
0001
1000
0001
1000
0000
,  // measure 23
0010
0100
0010
0000
1000
0000
0100
0000
0020
0000
0000
0000
0001
0000
0001
0000
0031
0000
0000
0000
1000
0000
0001
0000
0010
0000
0100
0000
0000
1000
0100
0000
,  // measure 24
1000
0001
1000
0000
0001
0000
0010
0000
0200
0000
0000
0000
1000
0000
1000
0000
1300
0000
0000
0000
0001
0000
0100
0000
0010
0000
1000
0001
1000
0001
0010
0000
,  // measure 25
0100
0000
0000
0000
0000
0000
0000
0000
0000
0000
0000
0000
0000
0000
0000
0000
1000
0000
0000
0000
0000
0000
0000
0000
0100
0000
0000
0000
0000
0000
0000
0000
0000
0000
0000
0000
0000
0000
0000
0000
0010
0000
0000
0000
0000
0000
0000
0000
0001
0000
0000
0000
0000
0000
0000
0000
0000
0000
0000
0000
0000
0000
0000
0000
1000
0000
0000
0000
0000
0000
0000
0000
0010
0000
0000
0000
0000
0000
0000
0000
0000
0000
0000
0000
0000
0000
0000
0000
0100
0000
0000
0000
0000
0000
0000
0000
0001
0000
0000
0000
0000
0000
0000
0000
0000
0000
0000
0000
0001
0000
0000
0000
0000
0000
0010
0000
0000
0000
0000
0000
0001
0000
0000
0000
0000
0000
0000
0000
0000
0000
0000
0000
1000
0000
0000
0000
0000
0000
0001
0000
0000
0000
0000
0000
1000
0000
0000
0000
0000
0000
0000
0000
0000
0000
0000
0000
0010
0000
0000
0000
0000
0000
0100
0000
0000
0000
0000
0000
0001
0000
0000
0000
0000
0000
0000
0000
0000
0000
0000
0000
1000
0000
0000
0000
0000
0000
0100
0000
0000
0000
0000
0000
,  // measure 26
0020
0001
0000
0001
0001
0000
0001
0001
0000
0001
0031
0000
,  // measure 27
1001
1001
0000
0000
0000
0000
0000
0000
0000
0000
0000
0000
0000
0000
0000
0000
;
